osu file format v9

[General]
AudioFilename: Sakura no Kasumi.mp3
AudioLeadIn: 500
PreviewTime: 57488
Countdown: 0
SampleSet: Soft
StackLeniency: 0.5
Mode: 0
LetterboxInBreaks: 0

[Editor]
DistanceSpacing: 1
BeatDivisor: 2
GridSize: 4

[Metadata]
Title:Sakura no Kasumi (Short Ver.)
Artist:Nishizawa Hagumi
Creator:Kitsuneko
Version:Easy
Source:Hanafubuki
Tags:silverbullet Sennen no Koi wo Shimashita

[Difficulty]
HPDrainRate:2
CircleSize:3
OverallDifficulty:2
ApproachRate:2
SliderMultiplier:1
SliderTickRate:1

[Events]
//Background and Video events
Video,-1100,"Sakura no Kasumi.avi"
0,0,"hanafubuki.jpg"
//Break Periods
//Storyboard Layer 0 (Background)
//Storyboard Layer 1 (Fail)
//Storyboard Layer 2 (Pass)
//Storyboard Layer 3 (Foreground)
//Storyboard Sound Samples
//Background Colour Transformations
3,100,163,162,255

[TimingPoints]
2405.25782342801,468.75,4,2,1,60,1,0
10842,-100,4,2,1,65,0,0
10959,-100,4,2,1,60,0,0
11780,-100,4,2,1,70,0,0
11897,-100,4,2,1,60,0,0
12717,-100,4,2,1,70,0,0
13772,-100,4,2,1,60,0,0
15530,-100,4,2,1,70,0,0
15647,-100,4,2,1,60,0,0
16467,-100,4,2,1,70,0,0
16584,-100,4,2,1,60,0,0
17405,-100,4,2,1,70,0,0
17522,-100,4,2,1,60,0,0
50217,-100,4,2,1,64,0,0
51155,-100,4,2,1,68,0,0
54905,-100,4,2,2,50,0,0
56780,-100,4,2,2,33,0,0
57717,468.75,4,2,1,80,1,1
57834,-100,4,2,1,70,0,1
68967,-100,4,2,1,75,0,1
69904,-100,4,2,1,78,0,1
72717,-100,4,2,1,80,0,1
72834,-100,4,2,1,70,0,1
85842,-100,4,2,2,80,0,0
85959,-100,4,2,1,70,0,0
93576,-100,4,2,1,80,0,0
93693,-100,4,2,1,70,0,0

[Colours]
Combo1 : 170,255,238
Combo2 : 255,170,253
Combo3 : 255,189,170
Combo4 : 232,255,170

[HitObjects]
464,268,2405,6,0,B|448:236|448:236|288:208|192:312,1,300,4|2
124,236,4280,2,0,B|16:224,2,100,0|2|0
204,172,5686,5,2
256,88,6155,2,0,B|320:132|400:76|400:76|396:172|452:212,1,300,4|2
428,308,8030,6,0,B|348:368|232:344,1,200,0|0
144,316,9436,1,2
44,312,9905,6,0,B|32:296|32:296|32:204,1,100,4|2
100,144,10842,2,0,B|152:128|200:144,1,100,4|2
272,212,11780,2,0,B|288:264|272:312,2,100,4|2|4
440,104,13655,6,0,B|488:192|468:304,2,200,4|2|4
340,84,15999,1,2
256,136,16467,2,0,B|244:120|244:120|160:108,2,100,4|2|4
256,192,17522,12,2,21155
88,292,23030,6,0,B|192:324|280:264,1,200,4|2
116,148,24905,2,0,B|168:160|212:136,2,100,0|2|0
300,68,26780,6,0,B|416:92|432:216,1,200,0|2
300,352,28655,2,0,B|184:328|168:204,1,200,0|2
164,116,30061,1,2
256,156,30530,6,0,B|344:140|372:204|464:184,2,200,4|2|0
176,216,32874,2,0,B|72:232,1,100,2|0
216,88,34280,6,0,B|312:40|412:72,2,200,0|2|0
128,40,36624,1,2
44,92,37092,2,0,B|36:104|36:104|36:196,1,100,0|2
36,288,38030,6,0,B|136:288|136:288|144:300|144:300|188:300,1,150,4|0
328,300,39436,1,2
424,276,39905,6,0,B|480:260|480:196,1,100,0|2
412,132,40842,2,0,B|356:148|356:212,1,100,0|2
328,300,41780,6,0,B|228:300|228:300|220:288|220:288|176:288,1,150,4|0
84,288,42952,1,2
84,288,43186,1,2
36,200,43655,6,0,B|84:176|132:200,1,100,0|2
216,144,44592,2,0,B|264:168|312:144,1,100,0|2
412,128,45530,6,0,B|412:228|412:228|424:236|424:236|424:280,2,150,4|0|2
328,72,47405,2,0,B|228:60,1,100,0|2
140,104,48342,2,0,B|80:96|44:136,1,100,0|2
64,232,49280,6,0,B|96:328,1,100,4|2
192,356,50217,2,0,B|288:324,1,100,4|2
352,248,51155,6,0,B|348:196|348:196|292:172,1,100,4|2
216,224,52092,2,0,B|220:276|220:276|276:300,1,100,4|2
360,320,53030,2,0,B|348:104,1,200,4|0
256,88,54436,1,2
256,192,54905,12,0,56780
404,72,57717,6,0,B|360:168|420:264,1,200,4|8
352,336,59123,1,2
252,328,59592,2,0,B|148:316,2,100,8|2|8
92,208,61467,6,0,B|144:232|192:200,1,100,8|2
284,228,62404,2,0,B|330:194|327:137,1,100,8|2
392,68,63342,2,0,B|496:80,2,100,8|2|8
344,64,64513,1,8
296,60,64748,1,8
208,104,65217,6,0,B|176:152|112:144,1,100,8|2
28,184,66154,2,0,B|16:204|16:204|32:288,1,100,8|2
104,348,67092,2,0,B|192:368|220:300|300:316,1,200,8|8
396,340,68498,1,2
452,256,68967,6,0,B|480:208|480:208|464:160,1,100,4|2
372,196,69904,2,0,B|344:147|344:147|296:140,1,100,4|2
200,128,70842,1,8
100,120,71310,1,8
68,216,71779,2,0,B|16:204,2,50,8|8|8
104,308,72717,6,0,B|216:336|280:244,1,200,4|8
376,260,74123,1,2
396,164,74592,2,0,B|456:172|472:228,2,100,8|2|8
396,64,75998,1,2
296,76,76467,6,0,B|188:92,1,100,8|2
96,104,77404,2,0,B|68:152|108:200,1,100,8|2
140,292,78342,2,0,B|88:316|44:280,2,100,8|2|8
188,284,79513,1,8
236,296,79748,1,8
312,232,80217,6,0,B|416:216,2,100,8|2|8
224,184,81623,1,2
156,112,82092,2,0,B|112:72|52:88,1,100,8|2
36,180,83029,2,0,B|80:220|140:204,1,100,8|2
256,192,83967,12,4,85842
304,296,86779,6,0,B|256:320|200:292,2,100,8|8|12
404,312,88185,1,2
448,224,88654,2,0,B|472:176|448:128,1,100,8|2
352,112,89592,6,0,B|312:152|252:136,1,100,8|2
224,232,90529,2,0,B|169:218|153:158,1,100,8|2
176,68,91467,6,0,B|284:80,1,100,8|2
304,176,92404,2,0,B|412:188,1,100,8|2
364,280,93342,2,0,B|300:272,1,50,8|4
256,192,93693,12,4,97092
