osu file format v14

[General]
AudioFilename: 216-garden-of-memories.mp3
AudioLeadIn: 1645
PreviewTime: 42986
Countdown: 0
SampleSet: Soft
StackLeniency: 0.7
Mode: 0
LetterboxInBreaks: 0
WidescreenStoryboard: 0

[Editor]
DistanceSpacing: 1
BeatDivisor: 4
GridSize: 4
TimelineZoom: 1

[Metadata]
Title:Omoide no Teien
TitleUnicode:想い出の庭園
Artist:Nishiura Tomohito
ArtistUnicode:西浦智仁
Creator:samplefish
Version:Normal
Source:Dark Cloud 2
Tags:chronicle ost original sound tracks playstation rpg level-5 inc. garden of memories
BeatmapID:405803
BeatmapSetID:166981

[Difficulty]
HPDrainRate:4
CircleSize:3
OverallDifficulty:4
ApproachRate:5
SliderMultiplier:1.2
SliderTickRate:1

[Events]
//Background and Video events
0,0,"thanxRingating.jpg",0,0
//Break Periods
//Storyboard Layer 0 (Background)
//Storyboard Layer 1 (Fail)
//Storyboard Layer 2 (Pass)
//Storyboard Layer 3 (Foreground)
//Storyboard Sound Samples

[TimingPoints]
355,789.473684210526,3,2,1,30,1,0
99433,-100,3,2,1,20,0,0
101407,-100,3,2,1,5,0,0

[Colours]
Combo1 : 101,117,228
Combo2 : 252,171,236
Combo3 : 219,135,237
Combo4 : 157,121,234

[HitObjects]
292,231,355,6,0,B|288:264|304:294|304:294|284:324|283:355,2,120,2|2|2,0:0|0:0|0:0,0:0:0:0:
404,188,2723,2,0,B|408:155|392:125|392:125|412:95|413:64,2,120,2|2|2,0:0|0:0|0:0,0:0:0:0:
342,290,5091,6,0,B|302:282|258:306|258:306|214:286,1,120,4|2,0:0|0:0,0:0:0:0:
142,208,6670,2,0,P|133:172|136:132,1,60,2|2,0:0|0:0,0:0:0:0:
154,93,7460,1,2,0:0:0:0:
330,65,8644,2,0,P|360:57|399:19,2,60,2|2|2,0:0|0:0|0:0,0:0:0:0:
271,70,9828,5,2,0:0:0:0:
96,113,11012,1,2,0:0:0:0:
122,166,11407,2,0,P|131:196|128:235,1,60,2|2,0:0|0:0,0:0:0:0:
86,266,12197,2,0,P|148:264|227:276,1,120,2|0,0:0|0:0,0:0:0:0:
326,261,13776,2,0,P|357:252|404:256,1,60,2|2,0:0|0:0,0:0:0:0:
428,293,14565,6,0,L|434:160,1,120,2|0,0:0|0:0,0:0:0:0:
409,55,16144,1,2,0:0:0:0:
306,117,16933,2,0,P|252:142|179:127,1,120,2|0,0:0|0:0,0:0:0:0:
84,183,18512,2,0,P|88:220|76:263,1,60,2|2,0:0|0:0,0:0:0:0:
41,285,19302,6,0,B|182:289,1,120,2|2,0:0|0:0,0:0:0:0:
276,321,20881,1,2,0:0:0:0:
388,278,21670,2,0,P|385:220|401:154,1,120,2|2,0:0|0:0,0:0:0:0:
494,87,23249,1,2,0:0:0:0:
378,54,24039,5,4,0:0:0:0:
288,133,24828,1,2,0:0:0:0:
189,64,25618,2,0,P|158:77|115:76,1,60,2|2,0:0|0:0,0:0:0:0:
79,49,26407,2,0,P|88:120|83:169,1,120,2|0,0:0|0:0,0:0:0:0:
67,225,27591,2,0,P|41:227|-9:216,2,60,2|2|2,0:0|0:0|0:0,0:0:0:0:
127,227,28776,6,0,B|167:229|196:206|196:206|187:270|221:308,1,180,2|2,0:0|0:0,0:0:0:0:
278,316,30354,2,0,P|308:304|336:304,1,60,2|2,0:0|0:0,0:0:0:0:
380,344,31144,2,0,L|386:215,1,120,2|0,0:0|0:0,0:0:0:0:
409,105,32723,2,0,P|382:90|330:87,1,60,2|2,0:0|0:0,0:0:0:0:
303,121,33512,6,0,L|174:127,1,120,2|0,0:0|0:0,0:0:0:0:
69,87,35091,2,0,B|29:114|21:155|21:155|42:195,1,120,2|2,0:0|0:0,0:0:0:0:
94,290,36670,1,0,0:0:0:0:
209,257,37460,2,0,P|239:246|285:257,1,60,2|2,0:0|0:0,0:0:0:0:
305,294,38249,6,0,P|347:305|435:307,2,120,2|2|2,0:0|0:0|0:0,0:0:0:0:
207,223,40618,2,0,P|165:212|77:210,2,120,2|2|2,0:0|0:0|0:0,0:0:0:0:
315,273,42986,6,0,P|302:223|355:177,1,120,4|0,0:0|0:0,0:0:0:0:
404,193,44170,2,0,P|434:207|482:203,2,60,2|2|2,0:0|0:0|0:0,0:0:0:0:
351,163,45354,2,0,L|219:151,1,120,2|0,0:0|0:0,0:0:0:0:
174,169,46539,1,2,0:0:0:0:
120,142,46933,2,0,P|88:136|42:149,1,60,2|2,0:0|0:0,0:0:0:0:
12,175,47723,6,0,L|6:41,1,120,2|0,0:0|0:0,0:0:0:0:
58,24,48907,1,2,0:0:0:0:
114,43,49302,2,0,P|150:51|182:43,1,60,2|2,0:0|0:0,0:0:0:0:
230,33,50091,2,0,P|217:102|225:162,1,120,2|0,0:0|0:0,0:0:0:0:
306,236,51670,2,0,P|326:244|382:232,1,60,0|2,0:0|0:0,0:0:0:0:
411,204,52460,6,0,B|410:335,1,120,2|0,0:0|0:0,0:0:0:0:
352,341,53644,1,2,0:0:0:0:
293,326,54039,2,0,P|253:320|217:328,1,60,2|2,0:0|0:0,0:0:0:0:
181,353,54828,2,0,B|47:359,2,120,2|0|2,0:0|0:0|0:0,0:0:0:0:
282,289,57197,6,0,P|272:226|284:144,1,120,2|0,0:0|0:0,0:0:0:0:
297,51,58776,2,0,P|325:60|382:56,1,60,2|2,0:0|0:0,0:0:0:0:
408,32,59565,2,0,B|414:173,1,120,2|0,0:0|0:0,0:0:0:0:
416,271,61144,1,2,0:0:0:0:
301,304,61933,6,0,L|171:294,1,120,4|2,0:0|0:0,0:0:0:0:
123,307,63118,2,0,P|103:328|60:343,2,60,2|0|2,0:0|0:0|0:0,0:0:0:0:
153,255,64302,2,0,P|164:190|148:115,1,120,2|0,0:0|0:0,0:0:0:0:
149,77,65486,1,2,0:0:0:0:
206,95,65881,2,0,P|242:91|270:71,1,60,2|2,0:0|0:0,0:0:0:0:
308,41,66670,6,0,L|442:52,1,120,2|0,0:0|0:0,0:0:0:0:
410,169,68249,2,0,P|408:203|419:241,1,60,2|2,0:0|0:0,0:0:0:0:
453,272,69039,2,0,P|396:263|317:272,1,120,2|2,0:0|0:0,0:0:0:0:
234,335,70618,1,2,0:0:0:0:
189,223,71407,6,0,B|202:184|175:146|175:146|206:93,2,120,4|0|2,0:0|0:0|0:0,0:0:0:0:
78,270,73776,2,0,B|65:309|92:347|92:347|61:400,2,120,2|0|2,0:0|0:0|0:0,0:0:0:0:
197,282,76144,6,0,L|330:300,2,120,4|2|2,0:0|0:0|0:0,0:0:0:0:
79,259,78512,2,0,P|48:217|90:147,2,120,2|2|2,0:0|0:0|0:0,0:0:0:0:
189,212,80881,6,0,P|220:254|178:324,2,120,2|2|2,0:0|0:0|0:0,0:0:0:0:
80,159,83249,1,2,0:0:0:0:
131,50,84039,1,2,0:0:0:0:
245,86,84828,1,2,0:0:0:0:
357,44,85618,5,2,0:0:0:0:
437,133,86407,1,2,0:0:0:0:
359,224,87197,1,2,0:0:0:0:
267,301,87986,2,0,B|239:285|235:233|235:233|213:235|175:221,1,120,2|2,0:0|0:0,0:0:0:0:
86,174,89565,1,2,0:0:0:0:
148,71,90354,6,0,P|203:42|281:66,1,120,2|2,0:0|0:0,0:0:0:0:
359,115,91933,1,2,0:0:0:0:
288,212,92723,2,0,B|294:349,2,120,2|2|2,0:0|0:0|0:0,0:0:0:0:
168,197,95091,6,0,P|114:209|58:182,2,120,4|2|2,0:0|0:0|0:0,0:0:0:0:
209,152,97065,1,2,0:0:0:0:
262,125,97460,2,0,B|381:131,1,120,2|0,0:0|0:0,0:0:0:0:
430,167,98644,2,0,P|437:199|432:226,2,60,2|2|2,0:0|0:0|0:0,0:0:0:0:
382,132,99828,6,0,B|393:6,1,120,2|0,0:0|0:0,0:0:0:0:
256,192,101012,12,0,106933,0:0:0:0:
