osu file format v14

[General]
AudioFilename: 216-garden-of-memories.mp3
AudioLeadIn: 1645
PreviewTime: 42986
Countdown: 0
SampleSet: Soft
StackLeniency: 0.7
Mode: 0
LetterboxInBreaks: 0
WidescreenStoryboard: 0

[Editor]
DistanceSpacing: 1.2
BeatDivisor: 4
GridSize: 4
TimelineZoom: 0.9

[Metadata]
Title:Omoide no Teien
TitleUnicode:想い出の庭園
Artist:Nishiura Tomohito
ArtistUnicode:西浦智仁
Creator:samplefish
Version:Hard
Source:Dark Cloud 2
Tags:chronicle ost original sound tracks playstation rpg level-5 inc. garden of memories
BeatmapID:405767
BeatmapSetID:166981

[Difficulty]
HPDrainRate:5
CircleSize:4
OverallDifficulty:6
ApproachRate:7
SliderMultiplier:1.8
SliderTickRate:1

[Events]
//Background and Video events
0,0,"thanxRingating.jpg",0,0
//Break Periods
//Storyboard Layer 0 (Background)
//Storyboard Layer 1 (Fail)
//Storyboard Layer 2 (Pass)
//Storyboard Layer 3 (Foreground)
//Storyboard Sound Samples

[TimingPoints]
355,789.473684210526,3,2,1,30,1,0
99433,-100,3,2,1,20,0,0
102591,-100,3,2,1,5,0,0

[Colours]
Combo1 : 101,117,228
Combo2 : 252,171,236
Combo3 : 219,135,237
Combo4 : 157,121,234

[HitObjects]
168,324,355,5,2,0:0:0:0:
56,240,1144,1,2,0:0:0:0:
123,117,1933,2,0,L|144:128,1,15,2|0,0:0|0:0,0:0:0:0:
264,236,2723,1,2,0:0:0:0:
396,176,3512,1,2,0:0:0:0:
420,320,4302,2,0,L|424:344,1,15,2|0,0:0|0:0,0:0:0:0:
396,176,5091,5,4,0:0:0:0:
220,136,5881,1,2,0:0:0:0:
132,300,6670,2,0,P|184:280|200:224,1,90,2|2,0:0|0:0,0:0:0:0:
131,191,7460,2,0,P|195:249|276:223,1,180,2|0,0:0|0:0,0:0:0:0:
216,84,8644,2,0,P|208:124|220:184,2,90,2|2|2,0:0|0:0|0:0,0:0:0:0:
341,29,9828,5,2,0:0:0:0:
296,48,10618,1,2,0:0:0:0:
236,128,11012,2,0,P|232:184|240:244,2,90,2|2|2,0:0|0:0|0:0,0:0:0:0:
312,208,12197,2,0,P|264:292|188:284,1,180,2|0,0:0|0:0,0:0:0:0:
272,68,13776,1,2,0:0:0:0:
356,32,14170,1,2,0:0:0:0:
412,104,14565,6,0,P|408:204|328:240,1,180,2|0,0:0|0:0,0:0:0:0:
148,256,16144,2,0,P|112:296|108:352,1,90,2|0,0:0|0:0,0:0:0:0:
228,276,16933,2,0,P|160:172|92:196,1,180,2|0,0:0|0:0,0:0:0:0:
320,152,18512,2,0,L|428:144,1,90,2|2,0:0|0:0,0:0:0:0:
368,236,19302,5,2,0:0:0:0:
140,44,20091,1,2,0:0:0:0:
320,152,20881,1,2,0:0:0:0:
168,276,21670,1,2,0:0:0:0:
356,340,22460,1,2,0:0:0:0:
320,152,23249,1,2,0:0:0:0:
168,276,24039,5,4,0:0:0:0:
84,116,24828,1,2,0:0:0:0:
288,112,25618,2,0,P|264:156|192:176,1,90,2|2,0:0|0:0,0:0:0:0:
208,96,26407,2,0,P|276:32|356:72,1,180,2|0,0:0|0:0,0:0:0:0:
408,124,27591,1,2,0:0:0:0:
344,188,27986,1,2,0:0:0:0:
376,272,28381,1,2,0:0:0:0:
308,332,28776,6,0,P|224:356|156:272,1,180,2|0,0:0|0:0,0:0:0:0:
219,188,29960,2,0,P|245:223|244:268,2,90,2|2|2,0:0|0:0|0:0,0:0:0:0:
124,220,31144,2,0,B|188:240|219:188|219:188|292:208|292:208|328:104|432:132,1,360,2|2,0:0|0:0,0:0:0:0:
392,220,33118,1,2,0:0:0:0:
404,320,33512,6,0,L|212:304,1,180,2|0,0:0|0:0,0:0:0:0:
292,84,35091,1,2,0:0:0:0:
192,188,35881,2,0,L|0:172,1,180,2|0,0:0|0:0,0:0:0:0:
195,271,37460,2,0,P|239:262|266:227,1,90,2|2,0:0|0:0,0:0:0:0:
232,124,38249,5,2,0:0:0:0:
200,108,39039,1,2,0:0:0:0:
168,92,39828,1,2,0:0:0:0:
180,252,40618,1,2,0:0:0:0:
216,240,41407,1,2,0:0:0:0:
248,228,42197,1,2,0:0:0:0:
282,218,42986,6,0,P|348:271|424:232,1,180,4|0,0:0|0:0,0:0:0:0:
428,136,44170,1,2,0:0:0:0:
342,105,44565,2,0,P|339:150|356:192,1,90,2|2,0:0|0:0,0:0:0:0:
404,56,45354,2,0,P|314:29|264:96,1,180,2|0,0:0|0:0,0:0:0:0:
216,164,46539,1,2,0:0:0:0:
131,188,46933,2,0,P|90:190|44:162,1,90,2|2,0:0|0:0,0:0:0:0:
107,112,47723,6,0,P|199:144|199:228,1,180,2|0,0:0|0:0,0:0:0:0:
172,300,48907,1,2,0:0:0:0:
261,284,49302,2,0,P|305:272|349:279,1,90,2|2,0:0|0:0,0:0:0:0:
353,366,50091,2,0,P|341:323|349:279,1,90,2|0,0:0|0:0,0:0:0:0:
423,196,50881,2,0,P|434:239|428:283,1,90
335,204,51670,2,0,P|328:159|340:116,1,90,0|2,0:0|0:0,0:0:0:0:
391,260,52460,6,0,P|308:280|256:213,1,180,2|0,0:0|0:0,0:0:0:0:
300,124,53644,1,2,0:0:0:0:
240,20,54039,1,2,0:0:0:0:
133,92,54433,1,2,0:0:0:0:
133,92,54828,2,0,P|128:144|137:204,1,90,2|0,0:0|0:0,0:0:0:0:
244,244,55618,2,0,P|249:192|240:132,1,90
200,56,56407,1,2,0:0:0:0:
224,76,57197,5,2,0:0:0:0:
324,40,57591,1,0,0:0:0:0:
404,116,57986,2,0,P|408:168|400:236,1,90,0|2,0:0|0:0,0:0:0:0:
324,276,58776,1,2,0:0:0:0:
236,212,59170,1,2,0:0:0:0:
215,318,59565,2,0,P|169:322|117:318,1,90,2|0,0:0|0:0,0:0:0:0:
236,212,60354,2,0,P|281:207|333:211,1,90
408,280,61144,1,2,0:0:0:0:
432,268,61933,6,0,B|416:236|432:180|432:180|384:172|364:120,1,180,4|2,0:0|0:0,0:0:0:0:
316,28,63118,1,2,0:0:0:0:
252,116,63512,1,0,0:0:0:0:
164,56,63907,1,2,0:0:0:0:
84,132,64302,2,0,P|99:180|92:240,1,90,2|0,0:0|0:0,0:0:0:0:
40,312,65091,2,0,P|87:313|138:320,1,90,0|2,0:0|0:0,0:0:0:0:
228,368,65881,2,0,P|268:360|300:312,1,90,2|2,0:0|0:0,0:0:0:0:
276,204,66670,5,2,0:0:0:0:
248,120,67065,1,0,0:0:0:0:
368,220,67460,1,0,0:0:0:0:
360,132,67855,1,0,0:0:0:0:
439,267,68249,1,2,0:0:0:0:
452,180,68644,1,2,0:0:0:0:
428,24,69039,5,2,0:0:0:0:
396,32,69828,1,2,0:0:0:0:
360,40,70618,1,2,0:0:0:0:
324,52,71407,6,0,L|195:46,1,90,4|0,0:0|0:0,0:0:0:0:
136,100,72197,1,0,0:0:0:0:
80,192,72591,1,0,0:0:0:0:
148,277,72986,2,0,B|216:284|276:264|276:264|304:272|320:288,1,180,2|2,0:0|0:0,0:0:0:0:
408,352,74170,1,0,0:0:0:0:
320,288,74565,1,0,0:0:0:0:
404,220,74960,1,0,0:0:0:0:
324,120,75354,2,0,P|368:140|428:44,1,180,2|4,0:0|0:0,0:0:0:0:
291,222,76933,5,2,0:0:0:0:
368,343,77723,2,0,L|348:360,1,15,2|2,0:0|0:0,0:0:0:0:
220,348,78512,1,2,0:0:0:0:
84,308,79302,1,2,0:0:0:0:
56,168,80091,2,0,L|64:152,1,15,2|2,0:0|0:0,0:0:0:0:
188,116,80881,6,0,B|272:84|272:148|364:112,1,180,2|2,0:0|0:0,0:0:0:0:
488,184,82460,2,0,L|464:192,1,15,2|2,0:0|0:0,0:0:0:0:
352,252,83249,2,0,B|296:264|252:208|252:208|220:196|180:228,1,180,2|2,0:0|0:0,0:0:0:0:
200,344,84828,2,0,L|204:328,1,15,2|0,0:0|0:0,0:0:0:0:
408,224,85618,5,2,0:0:0:0:
312,92,86407,1,2,0:0:0:0:
152,104,87197,2,0,L|148:132,1,15,2|0,0:0|0:0,0:0:0:0:
176,316,87986,1,2,0:0:0:0:
56,236,88776,1,2,0:0:0:0:
156,132,89565,2,0,L|172:116,1,15,2|0,0:0|0:0,0:0:0:0:
352,160,90354,5,2,0:0:0:0:
460,256,91144,1,2,0:0:0:0:
356,352,91933,2,0,L|336:344,1,15,2|0,0:0|0:0,0:0:0:0:
240,264,92723,2,0,B|200:280|164:260|164:260|136:316|72:312,1,180,2|2,0:0|0:0,0:0:0:0:
60,172,94302,2,0,L|64:156,1,15,2|0,0:0|0:0,0:0:0:0:
236,52,95091,6,0,B|292:76|356:64|356:64|352:108|372:156,1,180,4|2,0:0|0:0,0:0:0:0:
488,244,96670,1,2,0:0:0:0:
444,164,97065,1,2,0:0:0:0:
368,212,97460,2,0,B|284:252|280:188|188:232,1,180,2|0,0:0|0:0,0:0:0:0:
200,364,98644,2,0,P|232:348|248:296,2,90,2|2|2,0:0|0:0|0:0,0:0:0:0:
105,280,99828,5,2,0:0:0:0:
94,264,101012,1,2,0:0:0:0:
110,166,101407,2,0,L|127:66,2,90,2|2|2,0:0|0:0|0:0,0:0:0:0:
256,192,102591,12,0,106933,0:0:0:0:
