osu file format v14

[General]
AudioFilename: 216-garden-of-memories.mp3
AudioLeadIn: 1645
PreviewTime: 42986
Countdown: 0
SampleSet: Soft
StackLeniency: 0.7
Mode: 0
LetterboxInBreaks: 0
WidescreenStoryboard: 0

[Editor]
DistanceSpacing: 1
BeatDivisor: 2
GridSize: 4
TimelineZoom: 0.3

[Metadata]
Title:Omoide no Teien
TitleUnicode:想い出の庭園
Artist:Nishiura Tomohito
ArtistUnicode:西浦智仁
Creator:samplefish
Version:Easy
Source:Dark Cloud 2
Tags:chronicle ost original sound tracks playstation rpg level-5 inc. garden of memories
BeatmapID:405780
BeatmapSetID:166981

[Difficulty]
HPDrainRate:2
CircleSize:2
OverallDifficulty:2
ApproachRate:3
SliderMultiplier:1
SliderTickRate:1

[Events]
//Background and Video events
0,0,"thanxRingating.jpg",0,0
//Break Periods
//Storyboard Layer 0 (Background)
//Storyboard Layer 1 (Fail)
//Storyboard Layer 2 (Pass)
//Storyboard Layer 3 (Foreground)
//Storyboard Sound Samples

[TimingPoints]
355,789.473684210526,3,2,1,30,1,0
99433,-100,3,2,1,20,0,0
101407,-100,3,2,1,5,0,0

[Colours]
Combo1 : 101,117,228
Combo2 : 252,171,236
Combo3 : 219,135,237
Combo4 : 157,121,234

[HitObjects]
82,237,355,6,0,B|118:238|164:198|164:136|164:136|200:120|206:99,1,200,2|2,0:0|0:0,0:0:0:0:
306,99,2723,2,0,B|312:120|348:136|348:136|348:198|394:238|444:239,1,200,2|2,0:0|0:0,0:0:0:0:
448,140,5091,6,0,P|436:86|390:47,1,100,4|2,0:0|0:0,0:0:0:0:
308,77,6670,1,2,0:0:0:0:
244,154,7460,2,0,B|287:190|340:172|340:172|326:234|357:279,1,200,2|2,0:0|0:0,0:0:0:0:
300,354,9828,6,0,P|196:330|92:336,1,200,2|2,0:0|0:0,0:0:0:0:
4,320,12197,2,0,B|9:277|44:252|44:252|61:182|25:135,1,200,2|2,0:0|0:0,0:0:0:0:
85,55,14565,6,0,B|151:25|219:53|219:53|251:41|279:41,1,200,2|2,0:0|0:0,0:0:0:0:
379,46,16933,2,0,B|379:86|352:113|352:113|373:169|373:169|330:160|292:189,1,200,2|2,0:0|0:0,0:0:0:0:
225,233,19302,5,2,0:0:0:0:
304,294,20091,2,0,L|412:317,2,100,2|2|2,0:0|0:0|0:0,0:0:0:0:
212,335,22460,1,2,0:0:0:0:
118,369,23249,1,2,0:0:0:0:
74,278,24039,6,0,B|78:194|142:170|142:170|110:142|110:94,1,200,4|2,0:0|0:0,0:0:0:0:
209,95,26407,2,0,B|277:87|329:47|329:47|389:51|405:87,1,200,2|2,0:0|0:0,0:0:0:0:
454,148,28776,6,0,P|503:223|435:300,1,200,2|2,0:0|0:0,0:0:0:0:
351,342,31144,2,0,B|315:354|269:326|269:326|307:261|262:194,1,200,2|2,0:0|0:0,0:0:0:0:
195,156,33512,6,0,B|159:212|183:270|183:270|123:248|98:252,1,200,2|2,0:0|0:0,0:0:0:0:
25,311,35881,2,0,P|14:222|93:157,1,200,2|2,0:0|0:0,0:0:0:0:
178,207,38249,5,2,0:0:0:0:
269,246,39039,1,2,0:0:0:0:
343,178,39828,2,0,P|343:124|352:78,1,100,2|2,0:0|0:0,0:0:0:0:
433,20,41407,1,2,0:0:0:0:
496,96,42197,1,2,0:0:0:0:
475,193,42986,6,0,B|426:216|375:189|375:189|330:272|330:272|275:270|231:312,1,300,4|2,0:0|0:0,0:0:0:0:
155,363,46144,2,0,P|107:376|59:363,1,100,0|2,0:0|0:0,0:0:0:0:
109,276,47723,6,0,B|89:202|147:160|147:160|137:109|97:89,1,200,2|2,0:0|0:0,0:0:0:0:
18,76,50091,2,0,B|82:92|139:49|139:49|180:43|216:58,1,200,2|2,0:0|0:0,0:0:0:0:
275,130,52460,6,0,B|304:142|345:136|345:136|402:93|466:109,1,200,2|2,0:0|0:0,0:0:0:0:
473,209,54828,2,0,P|410:206|394:328,1,200,2|2,0:0|0:0,0:0:0:0:
287,344,57197,6,0,P|268:262|317:154,1,200,2|2,0:0|0:0,0:0:0:0:
393,100,59565,1,2,0:0:0:0:
473,159,60354,1,0,0:0:0:0:
439,253,61144,1,2,0:0:0:0:
360,316,61933,6,0,B|318:298|302:242|302:242|272:300|208:304,1,200,4|0,0:0|0:0,0:0:0:0:
124,288,64302,2,0,B|128:237|171:204|208:199|208:199|182:168|188:135,1,200,2|2,0:0|0:0,0:0:0:0:
282,102,66670,6,0,P|216:38|108:73,1,200,2|2,0:0|0:0,0:0:0:0:
189,136,69039,2,0,P|220:184|280:200,1,100,2|2,0:0|0:0,0:0:0:0:
340,144,70618,1,2,0:0:0:0:
436,164,71407,6,0,P|424:248|432:368,1,200,4|2,0:0|0:0,0:0:0:0:
334,334,73776,2,0,B|287:333|254:344|254:344|232:327|232:327|184:340|135:332,1,200,2|2,0:0|0:0,0:0:0:0:
69,263,76144,6,0,P|71:153|149:129,1,200,4|2,0:0|0:0,0:0:0:0:
236,164,78512,2,0,B|300:192|300:192|292:104|332:64,1,200,2|2,0:0|0:0,0:0:0:0:
428,52,80881,6,0,B|428:84|464:100|464:100|420:156|420:156|448:187|445:224,1,200,2|2,0:0|0:0,0:0:0:0:
348,228,83249,2,0,P|367:277|404:306,2,100,2|2|2,0:0|0:0|0:0,0:0:0:0:
348,128,85618,6,0,B|304:100|260:120|260:120|220:104|220:104|184:136|140:128,1,200,2|2,0:0|0:0,0:0:0:0:
148,32,87986,2,0,P|64:136|92:192,1,200,2|2,0:0|0:0,0:0:0:0:
162,129,90354,6,0,P|172:224|88:276,1,200,2|2,0:0|0:0,0:0:0:0:
151,357,92723,2,0,B|178:354|213:329|213:329|238:345|238:345|295:317|354:335,1,200,2|2,0:0|0:0,0:0:0:0:
436,342,95091,5,4,0:0:0:0:
415,244,95881,1,2,0:0:0:0:
464,157,96670,2,0,P|464:116|420:53,1,100,2|2,0:0|0:0,0:0:0:0:
335,60,98249,1,0,0:0:0:0:
267,133,99039,2,0,P|215:146|164:137,1,100,2|2,0:0|0:0,0:0:0:0:
256,192,100618,12,0,106933,0:0:0:0:
