osu file format v10

[General]
AudioFilename: BELOVED.mp3
AudioLeadIn: 2000
PreviewTime: 69527
Countdown: 0
SampleSet: Soft
StackLeniency: 0.7
Mode: 0
LetterboxInBreaks: 1

[Editor]
Bookmarks: 6079,28080,72218,108080,152218,177045,200494,246011,257045,274958,275130
DistanceSpacing: 1
BeatDivisor: 4
GridSize: 8

[Metadata]
Title:beloved
TitleUnicode:beloved
Artist:Nishino Kana
ArtistUnicode:Nishino Kana
Creator:Bless
Version:MPX
Source:
Tags:Beren vivicat Magicphoenix net45291 Blove Netsukawa Fumika
BeatmapID:122211
BeatmapSetID:35512

[Difficulty]
HPDrainRate:6
CircleSize:4
OverallDifficulty:7
ApproachRate:7
SliderMultiplier:1.7
SliderTickRate:1

[Events]
//Background and Video events
0,0,"BG.jpg"
//Break Periods
2,97313,107248
2,174555,176213
2,202141,212075
//Storyboard Layer 0 (Background)
//Storyboard Layer 1 (Fail)
//Storyboard Layer 2 (Pass)
//Storyboard Layer 3 (Foreground)
//Storyboard Sound Samples
//Background Colour Transformations
3,100,163,162,255

[TimingPoints]
562,344.827586206897,4,2,1,50,1,0
3320,-200,4,2,2,50,0,0
4010,-100,4,2,2,50,0,0
6079,-200,4,2,2,50,0,0
6768,-100,4,2,2,50,0,0
8837,-200,4,2,2,50,0,0
9527,-100,4,2,2,50,0,0
25389,-100,4,2,1,50,0,0
26424,-100,4,2,2,50,0,0
28837,-100,4,2,2,50,0,0
71251,-100,4,1,0,50,0,0
72286,-100,4,2,2,70,0,0
94182,-200,4,2,2,50,0,0
97286,-100,4,2,2,50,0,0
152286,-100,4,2,2,70,0,0
173665,-100,4,1,0,50,0,0
177113,-133.333333333333,4,2,1,50,0,0
212975,-100,4,2,2,50,0,0
224010,-100,4,2,2,70,0,0
246079,-133.333333333333,4,2,1,50,0,0
257113,-200,4,2,2,50,0,0

[Colours]
Combo1 : 118,50,63
Combo2 : 144,202,193
Combo3 : 253,163,180

[HitObjects]
188,28,562,1,2,0:0:0
169,110,906,1,0,0:0:0
108,170,1251,1,2,0:0:0
25,192,1596,5,0,0:0:0
63,267,1768,1,0,0:0:0
104,341,1941,1,2,0:0:0
182,372,2113,1,0,0:0:0
265,353,2286,6,0,B|308:332|312:276,1,85
274,209,2630,2,0,B|231:230|227:286,1,85,2|0,0:0|0:0,0:0:0
312,285,2975,2,0,B|355:264|359:208,1,85
196,168,3320,6,0,B|220:116|300:96|344:152|344:152,1,170,4|0,0:0|0:0,0:0:0
136,288,4355,6,0,B|184:336|264:352|344:336|392:272,2,255,2|0|2,0:0|0:0|0:0,0:0:0
61,135,5734,1,0,0:0:0
336,236,6079,6,0,B|303:263|255:271|215:263|175:231,1,170,4|0,0:0|0:0,0:0:0
128,64,7113,6,0,B|256:32|256:96|384:64,2,255,2|0|2,0:0|0:0|0:0,0:0:0
88,229,8493,1,0,0:0:0
223,131,8837,6,0,B|304:161|391:137,1,170,4|0,0:0|0:0,0:0:0
368,300,9872,6,0,B|304:368|208:368|128:288,2,255,2|0|2,0:0|0:0|0:0,0:0:0
256,144,11251,1,0,0:0:0
45,130,11941,6,0,B|93:218|197:226|269:130,1,255,2|0,0:0|0:0,0:0:0
467,130,12630,2,0,B|419:218|315:226|243:130,1,255,2|0,0:0|0:0,0:0:0
256,72,13320,2,0,B|257:261,1,170,2|0,0:0|0:0,0:0:0
216,316,13837,1,8,0:0:0
176,240,14010,1,8,0:0:0
95,266,14182,1,8,0:0:0
72,183,14355,6,0,B|72:128|120:72|184:64,1,170,4|0,0:0|0:0,0:0:0
256,215,15044,2,0,B|256:111,1,85,0|0,0:0|0:0,0:0:0
327,83,15389,2,0,B|327:138|375:194|439:202,2,170
410,63,16251,2,0,B|496:32,2,85,0|8|0,0:0|0:0|0:0,0:0:0
327,84,16768,2,0,B|239:132|143:108,1,170,0|4,0:0|0:0,0:0:0
78,94,17286,6,0,B|48:272,1,170
33,345,17803,1,8,0:0:0
182,263,18148,1,0,0:0:0
228,334,18320,2,0,B|275:292|267:236|251:204|211:180,2,170
181,262,19182,2,0,B|223:309|279:301|311:285|335:245,1,170,8|0,0:0|0:0,0:0:0
328,169,19699,1,0,0:0:0
292,91,19872,6,0,B|232:56|136:64|104:88,1,170,4|0,0:0|0:0,0:0:0
30,217,20562,1,8,0:0:0
89,157,20734,1,0,0:0:0
255,190,21079,1,0,0:0:0
421,156,21424,1,0,0:0:0
463,230,21596,1,0,0:0:0
299,276,21941,1,8,0:0:0
214,276,22113,2,0,B|115:273|67:201,1,170
133,158,22630,2,0,B|160:192|212:197,1,85
206,111,22975,6,0,B|216:288,1,170,4|8,0:0|0:0,0:0:0
296,130,23665,2,4,B|208:184|96:144,1,170,4|0,0:0|0:0,0:0:0
296,130,24355,2,0,B|384:76|496:116,1,170,4|12,0:0|0:0,0:0:0
459,105,24872,1,8,0:0:0
256,72,25389,5,2,0:0:0
177,37,25562,1,0,0:0:0
117,96,25734,1,0,0:0:0
138,178,25906,1,0,0:0:0
198,238,26079,1,2,0:0:0
257,297,26251,1,0,0:0:0
314,238,26424,1,0,0:0:0
374,178,26597,1,2,0:0:0
395,96,26769,1,2,0:0:0
335,37,26941,1,2,0:0:0
256,72,27114,5,2,0:0:0
315,131,27286,1,2,0:0:0
255,190,27458,1,2,0:0:0
195,130,27630,1,2,0:0:0
256,72,27803,1,4,0:0:0
335,37,27975,1,0,0:0:0
177,37,28148,1,4,0:0:0
255,190,28837,5,8,0:0:0
376,304,29182,2,0,B|288:320,1,85
208,303,29527,2,0,B|120:265|32:297,1,170
42,293,30044,1,0,0:0:0
42,208,30217,2,0,B|72:96,1,85,8|0,0:0|0:0,0:0:0
168,64,30562,2,0,B|138:176,1,85
232,208,30906,2,0,B|288:8,1,170,2|2,0:0|0:0,0:0:0
338,104,31424,6,0,B|336:200|424:248,1,170,0|2,0:0|0:0,0:0:0
493,282,31941,1,0,0:0:0
330,331,32286,1,2,0:0:0
270,271,32458,2,0,B|272:224|232:184,1,85,0|2,0:0|0:0,0:0:0
165,153,32803,2,0,B|232:80|352:120,1,170
279,186,33320,2,0,B|192:240,1,85,2|0,0:0|0:0,0:0:0
128,264,33665,2,0,B|195:337|315:297,1,170,2|0,0:0|0:0,0:0:0
344,245,34182,2,0,B|411:172|531:212,2,170,2|0|2,0:0|0:0|0:0,0:0:0
320,160,35044,6,0,B|280:80,1,85,0|0,0:0|0:0,0:0:0
196,83,35389,2,0,B|157:159,1,85,2|0,0:0|0:0,0:0:0
196,235,35734,2,0,B|307:236,1,85,2|0,0:0|0:0,0:0:0
341,296,36079,5,0,0:0:0
423,317,36251,1,0,0:0:0
496,273,36424,2,0,B|512:224|488:176,1,85,4|0,0:0|0:0,0:0:0
419,230,36768,1,0,0:0:0
371,158,36941,2,0,B|312:240|184:208,1,170,4|0,0:0|0:0,0:0:0
153,148,37458,2,0,B|80:312,1,170,4|0,0:0|0:0,0:0:0
83,303,37975,1,0,0:0:0
83,303,38148,1,2,0:0:0
83,303,38320,1,0,0:0:0
169,303,38493,2,0,B|256:264|256:336|368:296,1,170,8|0,0:0|0:0,0:0:0
334,305,39182,5,4,0:0:0
419,158,39527,1,0,0:0:0
259,214,39872,2,0,B|216:216|165:185,1,85
224,80,40217,2,0,B|272:72|318:109,1,85,2|0,0:0|0:0,0:0:0
179,191,40562,2,0,B|115:271,1,85
41,257,40906,1,2,0:0:0
40,256,41079,6,0,B|135:247|175:351,1,170,0|2,0:0|0:0,0:0:0
255,325,41596,1,0,0:0:0
255,240,41768,1,0,0:0:0
339,343,41941,2,0,B|376:248|471:257,1,170,2|0,0:0|0:0,0:0:0
469,171,42458,2,0,B|297:171,1,170,2|2,0:0|0:0,0:0:0
220,136,42975,1,0,0:0:0
143,172,43148,5,0,0:0:0
220,136,43320,2,0,B|258:54|362:54,1,170,2|0,0:0|0:0,0:0:0
299,169,43837,2,0,B|381:207|381:311,1,170,0|2,0:0|0:0,0:0:0
277,265,44355,2,0,B|258:306|206:306,1,85,2|0,0:0|0:0,0:0:0
208,221,44699,2,0,B|208:128,2,85,2|0|0,0:0|0:0|0:0,0:0:0
208,306,45217,2,0,B|112:304|56:208,1,170,2|0,0:0|0:0,0:0:0
208,133,45906,5,0,0:0:0
280,87,46079,2,0,B|314:155|274:219|202:219,1,170,2|0,0:0|0:0,0:0:0
254,295,46596,2,0,B|322:261|386:301|386:373,1,170,2|0,0:0|0:0,0:0:0
444,294,47113,5,2,0:0:0
444,209,47285,1,2,0:0:0
444,124,47458,2,0,B|368:160|240:112,1,170,4|2,0:0|0:0,0:0:0
112,128,47975,2,0,B|188:92|316:140,1,170,4|2,0:0|0:0,0:0:0
280,296,48493,2,0,B|244:220|292:92,1,170,4|2,0:0|0:0,0:0:0
339,69,49010,6,0,B|408:160,1,85,0|2,0:0|0:0,0:0:0
450,197,49355,1,0,0:0:0
445,282,49527,2,0,B|371:321|259:293,1,170,8|0,0:0|0:0,0:0:0
117,241,50217,5,4,0:0:0
67,102,50562,6,0,B|141:63|253:91,2,170,0|10|0,0:0|0:0|0:0,0:0:0
127,162,51424,2,0,B|200:208,1,85,0|0,0:0|0:0,0:0:0
138,267,51768,2,2,B|65:221,1,85
42,303,52113,2,0,B|115:349,1,85,2|8,0:0|0:0,0:0:0
197,366,52458,1,0,0:0:0
279,347,52630,1,0,0:0:0
320,272,52803,1,2,0:0:0
299,189,52975,6,0,B|352:144|440:168|472:200,1,170,2|0,0:0|0:0,0:0:0
397,249,53493,2,0,B|352:196|376:108|408:76,1,170,2|0,0:0|0:0,0:0:0
316,62,54010,2,0,B|213:29,1,85,0|0,0:0|0:0,0:0:0
160,77,54355,2,0,B|64:104|24:208,1,170,2|0,0:0|0:0,0:0:0
75,258,54872,1,0,0:0:0
154,287,55044,2,0,B|240:256|240:320|352:272,2,170,8|0|2,0:0|0:0|0:0,0:0:0
189,120,56079,5,0,0:0:0
234,191,56251,2,0,B|273:224|345:216|386:151,1,170,2|0,0:0|0:0,0:0:0
248,160,56768,2,0,B|295:177|360:145|377:70,1,170,2|0,0:0|0:0,0:0:0
240,136,57286,2,0,B|291:136|341:83|330:7,1,170,2|0,0:0|0:0,0:0:0
252,46,57803,2,0,B|288:128|408:168,1,170,8|0,0:0|0:0,0:0:0
216,215,58493,6,0,B|180:297|60:337,2,170,2|0|8,0:0|0:0|0:0,0:0:0
239,132,59355,1,0,0:0:0
157,107,59527,2,2,B|112:96|96:48,1,85
324,112,59872,2,0,B|369:101|385:53,1,85
239,132,60217,2,2,B|240:232,1,85
165,259,60562,2,0,B|213:305|277:305|325:254,1,170,8|0,0:0|0:0,0:0:0
240,56,61251,5,4,0:0:0
400,120,61596,2,0,B|399:208|310:268,2,170,0|8|0,0:0|0:0|0:0,0:0:0
316,102,62458,1,0,0:0:0
240,56,62630,1,2,0:0:0
166,98,62803,1,2,0:0:0
93,141,62975,2,0,B|88:192|80:224,1,85,2|0,0:0|0:0,0:0:0
165,224,63320,2,0,B|152:264|151:307,1,85,2|0,0:0|0:0,0:0:0
232,288,63665,2,0,B|232:336|245:371,1,85,2|0,0:0|0:0,0:0:0
311,305,64010,2,0,B|368:368|470:370,2,170,4|0|8,0:0|0:0|0:0,0:0:0
311,117,65044,5,0,0:0:0
392,163,65217,1,0,0:0:0
392,69,65389,2,0,B|440:48|480:72,1,85,2|0,0:0|0:0,0:0:0
311,117,65734,2,0,B|263:138|223:114,1,85,0|2,0:0|0:0,0:0:0
228,32,66079,2,0,B|276:11|316:35,1,85,8|0,0:0|0:0,0:0:0
147,80,66424,2,0,B|99:101|59:77,1,85,6|0,0:0|0:0,0:0:0
64,165,66768,1,4,0:0:0
359,218,67113,5,0,0:0:0
359,218,67286,2,0,B|351:322|255:346,1,170,2|0,0:0|0:0,0:0:0
233,263,67803,2,0,B|241:159|337:135,1,170,2|0,0:0|0:0,0:0:0
253,98,68320,2,0,B|271:202|359:218,1,170,2|0,0:0|0:0,0:0:0
442,217,68837,2,0,B|424:321|336:337,1,170,10|0,0:0|0:0,0:0:0
256,364,69355,1,0,0:0:0
175,336,69527,6,0,B|119:298|103:266,1,85
94,198,69872,2,0,B|94:262|118:286,1,85
203,189,70217,2,0,B|203:125|179:101,1,85
76,116,70562,2,0,B|76:180|100:204,1,85
185,107,70907,2,0,B|184:56|161:19,1,85
33,41,71251,5,0,0:0:0
75,115,71424,1,0,0:0:0
92,197,71596,1,0,0:0:0
112,279,71768,1,0,0:0:0
175,336,71941,1,0,0:0:0
257,356,72113,1,0,0:0:0
327,308,72286,6,0,B|304:264|352:216,1,85,4|0,0:0|0:0,0:0:0
327,308,72630,2,0,B|368:344|416:320,1,85
425,241,72975,2,0,B|420:192|471:129|488:198|488:198|553:227|482:266|441:241,1,255,4|0,0:0|0:0,0:0:0
358,219,73665,2,0,B|287:159|175:159,1,170,2|2,0:0|0:0,0:0:0
160,232,74182,2,0,B|216:161|216:49,1,170,2|0,0:0|0:0,0:0:0
141,32,74699,1,0,0:0:0
61,63,74872,1,0,0:0:0
120,122,75044,6,0,B|128:168|160:208,1,85,4|0,0:0|0:0,0:0:0
213,259,75389,1,0,0:0:0
291,292,75562,1,0,0:0:0
154,200,75734,2,0,B|74:224|26:320,1,170,4|0,0:0|0:0,0:0:0
213,259,76424,5,0,0:0:0
282,210,76596,1,0,0:0:0
362,237,76768,1,0,0:0:0
432,192,76941,2,0,B|475:155|464:104|443:59|347:75,1,170,2|0,0:0|0:0,0:0:0
305,95,77458,2,0,B|248:120|192:112,1,85
148,71,77803,6,2,B|125:119|150:163,1,85
84,213,78148,1,0,0:0:0
84,213,78320,2,0,B|100:149|172:133|228:181,1,170,2|0,0:0|0:0,0:0:0
159,235,78837,1,0,0:0:0
159,235,79010,2,0,B|117:151|186:151|142:53,1,170,2|0,0:0|0:0,0:0:0
75,112,79527,1,0,0:0:0
221,175,79699,6,0,B|264:264|400:256,1,170,2|0,0:0|0:0,0:0:0
366,176,80217,1,0,0:0:0
366,175,80389,2,0,B|416:185|443:217|443:217|452:257|439:300,1,170,2|0,0:0|0:0,0:0:0
378,356,80906,1,0,0:0:0
300,319,81079,2,0,B|386:277|362:155,1,170,2|0,0:0|0:0,0:0:0
284,199,81596,1,2,0:0:0
224,258,81768,6,0,B|168:296|112:296|40:232,1,170,4|4,0:0|0:0,0:0:0
66,82,82458,2,0,B|122:44|178:44|250:108,1,170,4|8,0:0|0:0,0:0:0
255,165,82975,1,8,0:0:0
312,312,83148,1,8,0:0:0
176,224,83320,1,4,0:0:0
328,224,84010,1,8,0:0:0
200,312,84699,6,0,B|112:336|32:304,1,170,2|0,0:0|0:0,0:0:0
78,231,85217,2,0,B|176:216|232:144,1,170,2|0,0:0|0:0,0:0:0
271,81,85734,1,0,0:0:0
306,158,85906,2,0,P|320:256,1,85,0|4,0:0|0:0,0:0:0
352,56,86424,1,0,0:0:0
471,176,86768,1,8,0:0:0
256,336,87286,1,0,0:0:0
256,336,87458,6,0,B|240:288|160:280|176:192|176:192|184:192,1,170,2|0,0:0|0:0,0:0:0
177,194,87975,2,0,B|208:160|256:200|256:200|304:160|343:202,1,170,2|0,0:0|0:0,0:0:0
256,336,88665,2,0,B|272:288|352:280|333:192|333:192|333:192,1,170,2|0,0:0|0:0,0:0:0
313,112,89182,1,0,0:0:0
252,51,89355,6,0,B|160:80|72:40,1,170,2|0,0:0|0:0,0:0:0
3,67,89872,1,0,0:0:0
62,126,90044,2,0,B|112:208|208:232,1,170,2|0,0:0|0:0,0:0:0
277,211,90562,1,2,0:0:0
332,140,90734,2,0,B|372:181|356:237|340:261|340:261|356:301,1,170,2|0,0:0|0:0,0:0:0
281,342,91251,1,0,0:0:0
276,210,91424,2,0,B|335:167|416:208|431:263,1,170,2|2,0:0|0:0,0:0:0
499,206,91941,1,0,0:0:0
423,243,92113,2,0,B|380:184|421:103|476:88,1,170,2|0,0:0|0:0,0:0:0
397,35,92630,5,2,0:0:0
315,60,92803,2,0,B|240:128|128:104,1,170,4|4,0:0|0:0,0:0:0
75,86,93320,1,0,0:0:0
97,168,93493,2,0,B|88:224|128:264,1,85,4|0,0:0|0:0,0:0:0
239,276,93837,2,0,B|248:220|208:180,1,85,4|0,0:0|0:0,0:0:0
320,112,94182,6,0,B|464:0|496:128|368:256|368:256|208:128|272:0|416:112,1,680,0|0,0:0|0:0,0:0:0
368,160,97113,1,4,0:0:0
400,80,108148,5,4,0:0:0
159,320,108837,2,0,B|215:352|287:312|287:240,1,170,8|2,0:0|0:0,0:0:0
212,99,109527,2,0,B|156:67|84:107|84:179,1,170,0|2,0:0|0:0,0:0:0
122,241,110044,2,0,B|178:273|250:233|250:161,1,170
212,99,110562,2,0,B|247:59|303:83,1,85,2|0,0:0|0:0,0:0:0
363,114,110906,2,0,B|400:192|368:288,1,170
295,321,111424,2,0,B|184:264|184:352|40:304,1,255,0|2,0:0|0:0,0:0:0
75,226,112113,5,0,0:0:0
75,140,112286,2,0,B|99:164|131:164|162:116|210:164|250:196,1,170,2|0,0:0|0:0,0:0:0
390,140,112803,2,0,B|366:164|334:164|303:116|255:164|215:196,1,170
232,96,113320,2,0,B|232:192,1,85,2|0,0:0|0:0,0:0:0
159,225,113665,2,0,B|192:272|224:272|264:272|304:232,1,170,2|0,0:0|0:0,0:0:0
304,146,114182,2,0,B|337:99|369:99|409:99|449:139,1,170,0|2,0:0|0:0,0:0:0
379,294,114872,5,0,0:0:0
297,316,115044,2,0,B|216:336,2,85,0|0|2,0:0|0:0|0:0,0:0:0
268,235,115562,2,0,B|168:272|72:216,1,170,0|0,0:0|0:0,0:0:0
64,154,116079,1,2,0:0:0
80,70,116251,1,0,0:0:0
144,128,116424,6,0,B|176:168|176:168|232:192|284:126,1,170,4|0,0:0|0:0,0:0:0
349,83,116941,2,0,B|317:43|317:43|261:19|209:85,1,170,4|0,0:0|0:0,0:0:0
143,128,117458,2,0,B|192:208|295:214,1,170,4|0,0:0|0:0,0:0:0
450,243,118148,1,2,0:0:0
256,344,118493,1,8,0:0:0
416,176,119872,6,0,B|440:272,1,85,8|0,0:0|0:0,0:0:0
344,200,120217,2,0,B|320:104,1,85,2|0,0:0|0:0,0:0:0
272,224,120562,2,0,B|296:320,1,85
200,248,120906,1,2,0:0:0
175,166,121079,2,0,B|335:100,1,170
271,40,121596,2,0,B|158:86,1,85,2|0,0:0|0:0,0:0:0
112,102,121941,2,0,B|192:164|200:266,1,170,2|0,0:0|0:0,0:0:0
106,334,122458,2,0,B|26:272|18:170,1,170,2|0,0:0|0:0,0:0:0
240,64,123320,6,0,B|256:128|320:136|368:128|400:104,1,170,2|0,0:0|0:0,0:0:0
240,216,123837,2,0,B|224:152|160:144|112:152|80:176,1,170,2|0,0:0|0:0,0:0:0
63,241,124355,2,0,B|48:304|64:344,1,85,2|0,0:0|0:0,0:0:0
136,291,124699,2,0,B|208:328|312:312,1,170,0|2,0:0|0:0,0:0:0
384,288,125217,2,0,B|432:190,1,85,0|8,0:0|0:0,0:0:0
256,48,125906,5,0,0:0:0
256,192,126079,2,0,B|144:184|136:72,1,170,2|0,0:0|0:0,0:0:0
138,5,126596,2,0,B|136:112|32:168,1,170,0|2,0:0|0:0,0:0:0
1,209,127113,1,4,0:0:0
42,283,127286,1,0,0:0:0
123,305,127458,6,0,B|208:280|208:328|304:296,1,170,4|0,0:0|0:0,0:0:0
456,184,127975,2,0,B|371:159|371:207|275:175,1,170,4|0,0:0|0:0,0:0:0
120,64,128493,2,0,B|205:39|205:87|301:55,1,170,4|0,0:0|0:0,0:0:0
457,59,129182,1,0,0:0:0
457,59,129355,2,0,B|376:112,1,85,0|8,0:0|0:0,0:0:0
256,192,130217,5,0,0:0:0
135,71,130562,2,0,B|72:168|80:248,1,170,2|8,0:0|0:0,0:0:0
164,229,131079,2,0,B|64:232,1,85
50,77,131424,2,0,B|146:69,1,85,0|2,0:0|0:0,0:0:0
272,136,131768,2,0,B|178:142,1,85
312,56,132113,2,0,B|400:96|400:208,1,170,2|0,0:0|0:0,0:0:0
357,265,132630,5,2,0:0:0
232,344,132803,1,0,0:0:0
216,192,132975,1,4,0:0:0
216,192,133320,1,4,0:0:0
326,81,134010,5,0,0:0:0
407,102,134182,1,0,0:0:0
346,162,134355,2,0,B|328:224|352:264,1,85,2|0,0:0|0:0,0:0:0
420,208,134699,2,0,B|438:270|414:310,1,85
344,326,135044,2,0,B|233:356|153:292,1,170,8|2,0:0|0:0,0:0:0
240,249,135562,2,0,B|272:144|184:80,1,170,0|0,0:0|0:0,0:0:0
122,61,136079,5,2,0:0:0
122,61,136251,2,0,B|112:120|64:128,1,85,0|8,0:0|0:0,0:0:0
13,185,136596,1,2,0:0:0
13,185,136768,2,0,B|64:192|88:240,1,85
7,270,137113,1,2,0:0:0
7,270,137286,2,0,B|32:320|88:320,1,85
152,288,137630,1,0,0:0:0
200,358,137803,2,0,B|244:306|236:250|196:210|156:202,1,170,8|0,0:0|0:0,0:0:0
152,288,138320,1,0,0:0:0
152,287,138493,6,0,B|204:331|260:323|300:283|308:243,1,170,2|0,0:0|0:0,0:0:0
298,182,139010,1,0,0:0:0
298,97,139182,2,0,B|350:53|406:61|446:101|454:141,1,170,2|0,0:0|0:0,0:0:0
444,201,139699,1,0,0:0:0
426,284,139872,2,0,B|326:258|294:170,1,170,2|0,0:0|0:0,0:0:0
86,284,140562,2,8,B|186:258|218:170,1,170,10|0,0:0|0:0,0:0:0
256,32,141251,1,4,0:0:0
447,18,141596,6,0,B|485:98|453:186,2,170,0|8|0,0:0|0:0|0:0,0:0:0
369,54,142458,2,0,B|269:98,1,85,0|2,0:0|0:0,0:0:0
291,173,142803,2,0,B|391:129,1,85
368,224,143148,2,0,B|268:268,1,85,0|8,0:0|0:0,0:0:0
290,343,143493,2,0,B|390:299,2,85,0|2|0,0:0|0:0|0:0,0:0:0
208,366,144010,2,0,B|170:286|202:198,2,170,4|0|8,0:0|0:0|0:0,0:0:0
289,342,144872,6,0,B|400:296,1,85
367,224,145217,1,0,0:0:0
307,164,145389,2,0,B|192:168|136:128,1,170,2|0,0:0|0:0,0:0:0
82,72,145906,2,0,B|50:48|0:32,2,85,0|8|0,0:0|0:0|0:0,0:0:0
162,41,146424,2,0,B|277:37|333:77,1,170,0|4,0:0|0:0,0:0:0
363,149,146941,5,0,0:0:0
381,231,147113,2,0,B|384:288|416:320,1,85,2|0,0:0|0:0,0:0:0
347,250,147458,2,0,B|330:304|349:345,1,85,10|0,0:0|0:0,0:0:0
312,254,147803,2,0,B|277:299|281:344,1,85,2|0,0:0|0:0,0:0:0
192,272,148148,1,4,0:0:0
174,182,148320,2,0,B|171:125|139:93,1,85,0|2,0:0|0:0,0:0:0
208,163,148665,2,0,B|225:109|206:68,1,85,0|2,0:0|0:0,0:0:0
243,159,149010,2,0,B|278:114|274:69,1,85,0|2,0:0|0:0,0:0:0
353,50,149355,1,0,0:0:0
353,134,149527,6,0,B|369:191|433:215|473:183|505:175,1,170,4|0,0:0|0:0,0:0:0
336,304,150217,2,0,B|320:247|256:223|216:255|184:263,1,170,4|0,0:0|0:0,0:0:0
135,319,150734,1,0,0:0:0
256,192,150906,12,4,152286,0:0:0
368,80,152630,6,0,P|288:32|224:80|224:144|256:208|288:144|288:80|224:32|144:80,1,340
168,280,153665,2,0,B|256:336|360:272,1,170,2|0,0:0|0:0,0:0:0
330,202,154182,2,0,B|250:153|138:210,1,170,0|2,0:0|0:0,0:0:0
93,235,154699,2,0,B|-14:235,2,85,0|0|4,0:0|0:0|0:0,0:0:0
93,149,155217,2,0,B|-22:148,1,85
178,148,155734,1,4,0:0:0
511,82,156424,5,2,0:0:0
426,98,156596,1,0,0:0:0
366,157,156768,1,0,0:0:0
286,187,156941,2,0,B|207:202|112:176,1,170
58,112,157458,2,0,B|151:114|239:66,1,170,2|0,0:0|0:0,0:0:0
295,26,157975,6,0,B|378:116,1,85
425,135,158320,2,0,B|326:153|334:273,1,170,2|2,0:0|0:0,0:0:0
257,297,158837,1,0,0:0:0
184,252,159010,2,0,B|191:146|92:128,1,170,2|0,0:0|0:0,0:0:0
101,217,159527,1,0,0:0:0
101,301,159699,6,0,B|176:344,1,85,2|8,0:0|0:0,0:0:0
255,371,160045,1,0,0:0:0
335,343,160217,1,0,0:0:0
257,297,160389,2,0,B|256:127,1,170,2|0,0:0|0:0,0:0:0
256,41,160906,1,0,0:0:0
324,80,161079,2,0,B|256:128|256:128|176:64,1,170,2|0,0:0|0:0,0:0:0
117,121,161596,1,0,0:0:0
170,192,161768,6,0,B|218:224|222:307|174:339,2,170,4|0|4,0:0|0:0|0:0,0:0:0
118,121,162630,1,8,0:0:0
224,30,162803,1,8,0:0:0
254,173,162975,1,8,0:0:0
202,104,163148,1,8,0:0:0
117,120,163320,5,4,0:0:0
142,257,164010,1,8,0:0:0
202,104,164699,2,0,B|122:168|34:128,1,170
116,215,165217,2,0,B|180:295|140:383,1,170,2|0,0:0|0:0,0:0:0
65,340,165734,1,0,0:0:0
48,257,165906,2,0,P|133:269|236:249,1,170,2|0,0:0|0:0,0:0:0
293,292,166424,2,0,P|392:344,1,85
450,309,166768,1,8,0:0:0
333,197,167113,1,0,0:0:0
333,197,167458,6,0,B|336:152|256:112|336:40|368:112,1,170,2|0,0:0|0:0,0:0:0
369,201,167975,2,0,B|381:157|470:147|419:52|365:109,1,170,2|0,0:0|0:0,0:0:0
288,24,168493,2,0,B|376:16|488:40,1,170,0|8,0:0|0:0,0:0:0
373,102,169010,5,0,0:0:0
454,129,169183,1,0,0:0:0
503,198,169355,2,0,B|508:274|460:322|420:330,1,170,2|0,0:0|0:0,0:0:0
353,274,169872,1,2,0:0:0
363,190,170044,2,0,B|160:192,1,170,2|0,0:0|0:0,0:0:0
80,88,170562,1,0,0:0:0
56,240,170734,6,0,B|56:320|136:368|176:352,1,170,2|0,0:0|0:0,0:0:0
159,244,171251,1,2,0:0:0
269,244,171424,2,0,B|269:164|189:116|149:132,1,170,2|0,0:0|0:0,0:0:0
159,243,171941,1,0,0:0:0
159,354,172114,2,0,B|135:366|55:318|55:238,1,170,2|0,0:0|0:0,0:0:0
159,244,172630,1,2,0:0:0
165,127,172803,2,0,B|189:115|269:163|269:243,2,170,4|0|4,0:0|0:0|0:0,0:0:0
135,46,173665,5,0,0:0:0
218,28,173837,1,0,0:0:0
303,28,174010,1,0,0:0:0
380,61,174182,1,0,0:0:0
440,121,174355,1,4,0:0:0
96,192,177113,6,0,B|73:259|118:327|186:373|265:339,1,254.999992400408,4|8,0:0|0:0,0:0:0
370,346,178148,2,0,B|392:278|347:210|279:164|200:198,1,254.999992400408,4|8,0:0|0:0,0:0:0
132,101,179182,2,0,B|256:48|256:144|384:96,1,254.999992400408,4|2,0:0|0:0,0:0:0
379,97,180217,6,0,B|416:240,2,127.499996200204,2|0|2,0:0|0:0|0:0,0:0:0
334,52,181079,1,2,0:0:0
273,31,181251,1,0,0:0:0
210,46,181424,1,0,0:0:0
165,90,181596,1,2,0:0:0
165,153,181768,1,0,0:0:0
131,207,181941,2,0,B|99:239|67:258,1,63.749998100102
23,272,182286,1,2,0:0:0
112,361,182630,6,0,B|192:345|272:297|277:191|261:175,1,254.999992400408,4|8,0:0|0:0,0:0:0
421,15,183665,2,0,B|341:31|261:79|256:185|272:201,1,254.999992400408,4|8,0:0|0:0,0:0:0
139,188,184699,2,0,B|273:224|401:160,1,254.999992400408,4|2,0:0|0:0,0:0:0
440,130,185562,5,0,0:0:0
395,85,185734,2,0,B|336:32,2,63.749998100102,2|0|8,0:0|0:0|0:0,0:0:0
349,130,186251,2,0,B|275:100,2,63.749998100102
328,190,186768,2,0,B|248:187,2,63.749998100102,2|8|2,0:0|0:0|0:0,0:0:0
328,254,187286,2,0,B|252:278,2,63.749998100102,8|0|0,0:0|0:0|0:0,0:0:0
373,299,187803,2,8,B|310:347,2,63.749998100102,8|8|4,0:0|0:0|0:0,0:0:0
448,192,188493,5,2,0:0:0
448,192,188837,1,8,0:0:0
448,192,189182,2,0,B|192:192,1,254.999992400408,4|0,0:0|0:0,0:0:0
256,80,190217,2,0,B|320:144|320:192|320:240|256:304,1,254.999992400408,4|0,0:0|0:0,0:0:0
167,212,191251,6,0,B|124:253|52:229|28:213,2,127.499996200204,8|8|8,0:0|0:0|0:0,0:0:0
139,154,192113,2,0,B|108:133|100:93,1,63.749998100102
166,103,192458,2,0,B|144:72|150:32,1,63.749998100102,0|8,0:0|0:0,0:0:0
213,42,192803,1,0,0:0:0
232,102,192975,2,0,B|285:136|373:112,1,127.499996200204,4|0,0:0|0:0,0:0:0
264,206,193665,6,0,B|211:172|123:196,2,127.499996200204,4|0|8,0:0|0:0|0:0,0:0:0
373,271,194699,2,0,B|426:237|514:261,2,127.499996200204,0|8|0,0:0|0:0|0:0,0:0:0
282,361,195734,2,0,B|229:327|141:351,1,127.499996200204,4|0,0:0|0:0,0:0:0
92,237,196424,6,0,B|24:208|32:128|32:128,1,127.499996200204,4|0,0:0|0:0,0:0:0
76,178,196941,2,0,B|22:127|56:55|56:55,1,127.499996200204,4|0,0:0|0:0,0:0:0
118,60,197458,2,0,B|104:112|123:138,1,63.749998100102,4|0,0:0|0:0,0:0:0
139,182,197803,2,0,B|176:240|240:240|256:232,1,127.499996200204,4|0,0:0|0:0,0:0:0
311,234,198320,1,0,0:0:0
372,217,198493,1,0,0:0:0
416,172,198665,1,0,0:0:0
442,114,198837,1,0,0:0:0
442,50,199010,1,0,0:0:0
256,192,199182,12,4,201941,0:0:0
128,248,212975,6,0,B|160:344|256:376|352:344|384:248,1,340,0|8,0:0|0:0,0:0:0
176,104,214355,2,0,B|216:64|296:64|336:104,1,170,0|2,0:0|0:0,0:0:0
332,185,214872,2,0,B|292:225|212:225|172:185,1,170
98,152,215389,1,2,0:0:0
37,212,215562,2,0,B|32:312|112:352|136:360,1,170,4|0,0:0|0:0,0:0:0
200,330,216079,1,0,0:0:0
347,245,216424,1,8,0:0:0
50,79,217113,6,0,B|128:48|128:104|248:72,1,170,4|0,0:0|0:0,0:0:0
217,164,217630,2,0,B|139:195|139:139|19:171,1,170,4|0,0:0|0:0,0:0:0
49,249,218148,2,0,B|56:312|144:336|192:280,1,170,0|2,0:0|0:0,0:0:0
181,290,218665,5,0,0:0:0
266,290,218837,1,0,0:0:0
326,229,219010,2,0,B|333:166|421:142|469:198,1,170
405,257,219527,1,2,0:0:0
326,229,219699,2,0,B|240:224|168:144,1,170
94,133,220217,1,2,0:0:0
53,14,220389,2,0,B|53:70|53:70|7:97|13:150|29:174,1,170
95,133,220906,1,2,0:0:0
162,97,221079,2,0,B|176:117|182:170|136:197|136:197|136:253,1,170
96,132,221596,1,2,0:0:0
15,239,221768,2,0,B|37:320|139:341,1,170
210,295,222286,1,2,0:0:0
270,351,222458,6,0,B|305:309|302:263|257:229,1,127.5,2|0,0:0|0:0,0:0:0
381,236,222803,2,0,B|339:201|293:204|259:249,1,127.5,2|0,0:0|0:0,0:0:0
265,124,223148,2,0,B|230:166|233:212|278:246,1,127.5,2|0,0:0|0:0,0:0:0
208,296,223493,2,0,B|268:235,1,85
64,192,224010,5,4,0:0:0
256,32,224355,1,0,0:0:0
448,192,224699,1,8,0:0:0
64,192,225389,6,0,B|88:288|192:304,1,170,2|0,0:0|0:0,0:0:0
253,257,225906,2,0,B|277:161|381:145,1,170,2|0,0:0|0:0,0:0:0
308,86,226424,2,0,B|232:16,1,85
160,28,226768,5,4,0:0:0
32,192,227113,1,0,0:0:0
160,356,227458,1,8,0:0:0
160,28,228148,6,0,B|168:112,1,85,2|0,0:0|0:0,0:0:0
107,172,228493,1,0,0:0:0
177,218,228665,2,0,B|272:199|344:271,1,170,2|0,0:0|0:0,0:0:0
394,322,229182,2,0,B|456:255,1,85
451,174,229527,5,4,0:0:0
429,92,229699,1,0,0:0:0
355,49,229872,1,0,0:0:0
277,82,230044,2,0,B|224:88|184:72,1,85,0|8,0:0|0:0,0:0:0
8,32,230389,2,0,B|61:26|101:42,1,85
119,119,230734,2,0,B|104:192|144:248|224:264,1,170,2|0,0:0|0:0,0:0:0
256,192,231251,1,0,0:0:0
316,252,231424,2,0,B|364:245|404:189|389:116,1,170,2|0,0:0|0:0,0:0:0
343,47,231941,2,0,B|248:64,1,85,0|2,0:0|0:0,0:0:0
184,104,232286,2,0,B|100:89,1,85,0|0,0:0|0:0,0:0:0
40,148,232630,2,0,B|135:165,2,85,0|2|0,0:0|0:0|0:0,0:0:0
1,224,233148,1,0,0:0:0
30,303,233320,1,0,0:0:0
106,340,233493,6,0,B|192:376|272:352,1,170,4|0,0:0|0:0,0:0:0
406,44,234182,2,0,B|320:8|240:32,1,170,4|8,0:0|0:0,0:0:0
179,92,234699,1,8,0:0:0
112,192,234872,1,8,0:0:0
179,292,235044,1,4,0:0:0
256,192,235734,5,8,0:0:0
312,45,236424,2,0,B|336:149|248:197,1,170,2|0,0:0|0:0,0:0:0
200,339,236941,2,0,B|176:235|264:187,1,170,2|0,0:0|0:0,0:0:0
327,145,237458,1,0,0:0:0
315,251,237630,2,0,B|184:128,1,170,2|0,0:0|0:0,0:0:0
130,73,238148,1,0,0:0:0
382,311,238493,1,8,0:0:0
418,192,239182,6,0,B|346:152|254:192,1,170,2|0,0:0|0:0,0:0:0
92,192,239699,2,0,B|164:232|256:192,1,170,2|0,0:0|0:0,0:0:0
255,106,240217,1,0,0:0:0
255,192,240389,2,0,B|257:295,1,85,0|2,0:0|0:0,0:0:0
196,337,240734,6,0,B|161:380|121:380,1,85
104,296,241079,2,0,B|139:253|179:253,1,85,2|0,0:0|0:0,0:0:0
256,276,241424,2,0,B|302:297|355:286,1,85,2|0,0:0|0:0,0:0:0
398,228,241768,2,0,B|444:207|497:218,1,85,2|0,0:0|0:0,0:0:0
456,112,242113,1,0,0:0:0
344,128,242286,1,2,0:0:0
256,192,242458,2,0,B|256:288,1,85,2|0,0:0|0:0,0:0:0
256,362,242803,1,0,0:0:0
183,318,242975,1,0,0:0:0
97,318,243148,2,0,B|56:264|80:176|120:152,1,170,2|0,0:0|0:0,0:0:0
169,100,243665,1,0,0:0:0
228,40,243837,2,0,B|269:94|245:182|205:206,1,170,2|0,0:0|0:0,0:0:0
155,257,244355,1,0,0:0:0
155,257,244527,6,0,B|243:297|320:256,1,170,4|0,0:0|0:0,0:0:0
414,115,245217,2,0,B|326:75|249:116,1,170,4|0,0:0|0:0,0:0:0
189,175,245734,1,0,0:0:0
155,257,245906,1,0,0:0:0
195,343,246079,6,0,B|272:392|360:328|360:256|328:192,2,254.999992400408,4|0|4,0:0|0:0|0:0,0:0:0
167,285,247630,2,0,B|128:208,1,63.749998100102
112,169,247975,1,0,0:0:0
144,113,248148,2,0,B|67:64|-21:128|-21:200|11:264,2,254.999992400408,0|4|0,0:0|0:0|0:0,0:0:0
204,94,249699,6,0,B|272:64,1,63.749998100102,0|4,0:0|0:0,0:0:0
368,296,250562,2,0,B|256:256|256:328|104:280,1,254.999992400408,0|4,0:0|0:0,0:0:0
117,219,251424,2,0,B|96:128,1,63.749998100102,0|4,0:0|0:0,0:0:0
336,72,252630,5,4,0:0:0
381,117,252803,2,0,B|421:133|437:157,1,63.749998100102
388,197,253148,2,0,B|348:213|332:237,1,63.749998100102
290,186,253493,2,0,B|258:170|210:186,1,63.749998100102,0|0,0:0|0:0,0:0:0
72,192,254010,6,0,B|80:248|136:288,1,95.624997150153
208,248,254355,2,2,B|162:281|94:270,1,95.624997150153,0|0,0:0|0:0,0:0:0
73,356,254699,2,0,B|81:300|137:260,1,95.624997150153
175,148,255044,2,0,B|143:212,1,63.749998100102
200,80,255389,2,0,B|224:16,1,63.749998100102,4|0,0:0|0:0,0:0:0
248,136,255734,2,4,B|304:184|376:176,1,127.499996200204
324,273,257113,6,0,B|364:241|428:233|492:281,2,170,2|0|0,0:0|0:0|0:0,0:0:0
301,191,259182,2,0,B|333:151|341:87|293:23,2,170,0|2|0,0:0|0:0|0:0,0:0:0
252,239,260906,2,0,B|246:289|206:340|127:352,2,170,0|0|0,0:0|0:0|0:0,0:0:0
237,172,262630,2,0,B|177:124|80:112|-15:184,1,255,2|2,0:0|0:0,0:0:0
256,48,265044,5,0,0:0:0
256,82,265217,1,0,0:0:0
256,115,265389,2,0,B|256:256,2,127.5
256,328,267803,5,2,0:0:0
