osu file format v10

[General]
AudioFilename: BELOVED.mp3
AudioLeadIn: 2000
PreviewTime: 69527
Countdown: 0
SampleSet: Normal
StackLeniency: 0.7
Mode: 0
LetterboxInBreaks: 1

[Editor]
Bookmarks: 28080,72218,108080,152218,177045,200494,246011,257045
DistanceSpacing: 1.2
BeatDivisor: 4
GridSize: 4

[Metadata]
Title:beloved
TitleUnicode:beloved
Artist:Nishino Kana
ArtistUnicode:Nishino Kana
Creator:Bless
Version:Hard
Source:
Tags:Beren vivicat Magicphoenix net45291 Blove Netsukawa Fumika
BeatmapID:199187
BeatmapSetID:35512

[Difficulty]
HPDrainRate:4
CircleSize:3
OverallDifficulty:6
ApproachRate:8
SliderMultiplier:1.6
SliderTickRate:1

[Events]
//Background and Video events
0,0,"BG.jpg"
//Break Periods
2,97313,107398
2,202141,210674
//Storyboard Layer 0 (Background)
//Storyboard Layer 1 (Fail)
//Storyboard Layer 2 (Pass)
//Storyboard Layer 3 (Foreground)
//Storyboard Sound Samples
//Background Colour Transformations
3,100,163,162,255

[TimingPoints]
562,344.827586206897,4,2,1,60,1,0
2199,-100,4,1,1,60,0,0
4872,-100,4,2,1,60,0,0
24958,-100,4,2,0,60,0,0
25303,-100,4,2,1,60,0,0
27027,-100,4,1,1,60,0,0
28924,-100,4,2,2,60,0,0
29613,-100,4,1,2,60,0,0
29786,-100,4,2,2,60,0,0
30130,-100,4,1,2,60,0,0
30303,-100,4,2,2,60,0,0
30475,-100,4,1,2,60,0,0
30648,-100,4,2,2,60,0,0
30820,-100,4,1,2,60,0,0
31165,-100,4,2,2,60,0,0
31510,-100,4,1,2,60,0,0
31682,-100,4,2,2,60,0,0
32372,-100,4,1,2,60,0,0
32544,-100,4,2,2,60,0,0
32889,-100,4,1,2,60,0,0
33062,-100,4,2,2,60,0,0
33234,-100,4,1,2,60,0,0
33406,-100,4,2,2,60,0,0
33579,-100,4,1,2,60,0,0
33924,-100,4,2,2,60,0,0
34268,-100,4,1,2,60,0,0
34441,-100,4,2,2,60,0,0
35130,-100,4,1,2,60,0,0
35303,-100,4,2,2,60,0,0
35648,-100,4,1,2,60,0,0
35820,-100,4,2,2,60,0,0
36337,-100,4,1,2,60,0,0
36682,-100,4,2,2,60,0,0
37027,-100,4,1,2,60,0,0
37372,-100,4,2,2,60,0,0
37717,-100,4,1,2,60,0,0
37889,-100,4,2,2,60,0,0
38062,-100,4,1,2,60,0,0
38234,-100,4,2,2,60,0,0
38406,-100,4,1,2,60,0,0
38579,-100,4,2,2,60,0,0
39096,-100,4,1,2,60,0,0
39441,-100,4,2,2,60,0,0
39786,-100,4,1,2,60,0,0
39958,-100,4,2,2,60,0,0
40303,-100,4,1,2,60,0,0
40820,-100,4,2,2,60,0,0
41165,-100,4,1,2,60,0,0
41337,-100,4,2,2,60,0,0
41510,-100,4,1,2,60,0,0
41682,-100,4,2,2,60,0,0
41855,-100,4,1,2,60,0,0
42113,-100,4,2,2,60,0,0
42544,-100,4,1,2,60,0,0
42717,-100,4,2,2,60,0,0
43062,-100,4,1,2,60,0,0
43579,-100,4,2,2,60,0,0
43924,-100,4,1,2,60,0,0
44096,-100,4,2,2,60,0,0
44268,-100,4,1,2,60,0,0
44441,-100,4,2,2,60,0,0
44613,-100,4,1,2,60,0,0
45475,-100,4,2,2,60,0,0
45820,-100,4,1,2,60,0,0
46337,-100,4,2,2,60,0,0
46682,-100,4,1,2,60,0,0
46855,-100,4,2,2,60,0,0
47372,-100,4,1,2,60,0,0
47717,-100,4,2,2,60,0,0
47889,-100,4,1,2,60,0,0
48234,-100,4,2,2,60,0,0
49355,-100,4,1,2,60,0,0
50993,-100,4,2,2,60,0,0
51337,-100,4,1,2,60,0,0
51510,-100,4,2,2,60,0,0
51855,-100,4,1,2,60,0,0
52458,-100,4,2,2,60,0,0
52889,-100,4,1,2,60,0,0
53062,-100,4,2,2,60,0,0
53234,-100,4,1,2,60,0,0
53406,-100,4,2,2,60,0,0
53579,-100,4,1,2,60,0,0
53751,-100,4,2,2,60,0,0
54096,-100,4,1,2,60,0,0
54268,-100,4,2,2,60,0,0
54441,-100,4,1,2,60,0,0
54786,-100,4,2,2,60,0,0
54958,-100,4,1,2,60,0,0
55475,-100,4,2,2,60,0,0
55648,-100,4,1,2,60,0,0
55993,-100,4,2,2,60,0,0
56337,-100,4,1,2,60,0,0
56682,-100,4,2,2,60,0,0
57717,-100,4,1,2,60,0,0
58062,-100,4,2,2,60,0,0
58406,-100,4,1,2,60,0,0
58751,-100,4,2,2,60,0,0
59096,-100,4,1,2,60,0,0
59441,-100,4,2,2,60,0,0
59786,-100,4,1,2,60,0,0
59958,-100,4,2,2,60,0,0
60130,-100,4,1,2,60,0,0
60303,-100,4,2,2,60,0,0
60820,-100,4,1,2,60,0,0
62027,-100,4,2,2,60,0,0
62372,-100,4,1,2,60,0,0
62544,-100,4,2,2,60,0,0
62889,-100,4,1,2,60,0,0
63493,-100,4,2,2,60,0,0
63924,-100,4,1,2,60,0,0
64096,-100,4,2,2,60,0,0
64268,-100,4,1,2,60,0,0
64441,-100,4,2,2,60,0,0
64613,-100,4,1,2,60,0,0
64786,-100,4,2,2,60,0,0
65130,-100,4,1,2,60,0,0
65303,-100,4,2,2,60,0,0
65475,-100,4,1,2,60,0,0
65648,-100,4,2,2,60,0,0
65820,-100,4,1,2,60,0,0
66510,-100,4,2,2,60,0,0
66682,-100,4,1,2,60,0,0
67027,-100,4,2,2,60,0,0
67372,-100,4,1,2,60,0,0
67717,-100,4,2,2,60,0,0
68751,-100,4,1,2,60,0,0
69096,-100,4,2,2,60,0,0
69441,-100,4,1,2,60,0,0
69786,-100,4,2,2,60,0,0
71165,-100,4,1,2,60,0,0
73924,-100,4,2,2,60,0,0
74268,-100,4,1,2,60,0,0
74613,-100,4,2,2,60,0,0
74958,-100,4,1,2,60,0,0
76682,-100,4,2,2,60,0,0
77027,-100,4,1,2,60,0,0
77372,-100,4,2,2,60,0,0
77717,-100,4,1,2,60,0,0
81510,-100,4,2,2,60,0,0
81682,-100,4,1,2,60,0,0
89096,-100,4,2,2,60,0,0
89268,-100,4,1,2,60,0,0
89786,-100,4,2,2,60,0,0
89958,-100,4,1,2,60,0,0
90475,-100,4,2,2,60,0,0
90648,-100,4,1,2,60,0,0
91855,-100,4,2,2,60,0,0
92027,-100,4,1,2,60,0,0
92544,-100,4,2,2,60,0,0
92717,-100,4,1,2,60,0,0
94355,-100,4,1,2,5,0,0
96079,-100,4,1,2,60,0,0
108406,-100,4,2,2,60,0,0
109182,-100,4,1,2,60,0,0
109613,-100,4,2,2,60,0,0
109786,-100,4,1,2,60,0,0
110130,-100,4,2,2,60,0,0
110303,-100,4,1,2,60,0,0
111510,-100,4,2,2,60,0,0
112027,-100,4,1,2,60,0,0
112372,-100,4,2,2,60,0,0
112544,-100,4,1,2,60,0,0
112889,-100,4,2,2,60,0,0
113062,-100,4,1,2,60,0,0
114268,-100,4,2,2,60,0,0
114958,-100,4,1,2,60,0,0
115475,-100,4,2,2,60,0,0
118837,-100,4,1,2,60,0,0
119441,-100,4,2,2,60,0,0
120303,-100,4,1,2,60,0,0
120648,-100,4,2,2,60,0,0
120820,-100,4,1,2,60,0,0
121165,-100,4,2,2,60,0,0
121337,-100,4,1,2,60,0,0
122544,-100,4,2,2,60,0,0
123062,-100,4,1,2,60,0,0
123406,-100,4,2,2,60,0,0
123579,-100,4,1,2,60,0,0
123924,-100,4,2,2,60,0,0
124096,-100,4,1,2,60,0,0
125303,-100,4,2,2,60,0,0
125993,-100,4,1,2,60,0,0
126510,-100,4,2,2,60,0,0
130475,-100,4,1,2,60,0,0
130820,-100,4,2,2,60,0,0
131165,-100,4,1,2,60,0,0
131337,-100,4,2,2,60,0,0
131510,-100,4,1,2,60,0,0
132027,-100,4,2,2,60,0,0
132544,-100,4,1,2,60,0,0
132717,-100,4,2,2,60,0,0
132889,-100,4,1,2,60,0,0
133579,-100,4,2,2,60,0,0
133924,-100,4,1,2,60,0,0
134096,-100,4,2,2,60,0,0
134786,-100,4,1,2,60,0,0
134958,-100,4,2,2,60,0,0
135303,-100,4,2,2,60,0,0
135648,-100,4,1,2,60,0,0
135993,-100,4,2,2,60,0,0
136165,-100,4,1,2,60,0,0
136510,-100,4,2,2,60,0,0
136682,-100,4,1,2,60,0,0
137027,-100,4,2,2,60,0,0
137199,-100,4,1,2,60,0,0
137544,-100,4,2,2,60,0,0
138062,-100,4,1,2,60,0,0
138234,-100,4,2,2,60,0,0
138406,-100,4,1,2,60,0,0
138924,-100,4,2,2,60,0,0
141165,-100,4,1,2,60,0,0
141855,-100,4,2,2,60,0,0
142199,-100,4,1,2,60,0,0
142372,-100,4,2,2,60,0,0
142544,-100,4,1,2,60,0,0
143062,-100,4,2,2,60,0,0
143234,-100,4,1,2,60,0,0
143406,-100,4,2,2,60,0,0
143924,-100,4,1,2,60,0,0
144613,-100,4,2,2,60,0,0
144958,-100,4,1,2,60,0,0
145130,-100,4,2,2,60,0,0
145820,-100,4,1,2,60,0,0
145993,-100,4,2,2,60,0,0
146682,-100,4,1,2,60,0,0
149786,-100,4,2,2,60,0,0
151251,-100,4,1,2,60,0,0
153751,-100,4,2,2,60,0,0
153924,-100,4,1,2,60,0,0
154096,-100,4,2,2,60,0,0
154268,-100,4,1,2,60,0,0
156337,-100,4,2,2,60,0,0
156510,-100,4,1,2,60,0,0
158751,-100,4,2,2,60,0,0
158924,-100,4,1,2,60,0,0
159441,-100,4,2,2,60,0,0
159613,-100,4,1,2,60,0,0
160130,-100,4,2,2,60,0,0
160303,-100,4,1,2,60,0,0
160820,-100,4,2,2,60,0,0
160993,-100,4,1,2,60,0,0
161337,-100,4,2,2,60,0,0
161510,-100,4,1,2,60,0,0
161682,-100,4,2,2,60,0,0
162199,-100,4,1,2,60,0,0
169096,-100,4,2,2,60,0,0
169268,-100,4,1,2,60,0,0
169786,-100,4,2,2,60,0,0
169958,-100,4,1,2,60,0,0
170475,-100,4,2,2,60,0,0
170648,-100,4,1,2,60,0,0
171165,-100,4,2,2,60,0,0
171337,-100,4,1,2,60,0,0
171855,-100,4,2,2,60,0,0
172027,-100,4,1,2,60,0,0
172544,-100,4,2,2,60,0,0
172717,-100,4,1,2,60,0,0
177027,-133.333333333333,4,1,2,60,0,0
202975,-100,4,1,2,60,0,0
211855,-100,4,2,2,60,0,0
212027,-100,4,1,2,60,0,0
212544,-100,4,2,2,60,0,0
212803,-100,4,1,2,60,0,0
214096,-100,4,2,2,60,0,0
214613,-100,4,1,2,60,0,0
216855,-100,4,2,2,60,0,0
217372,-100,4,1,2,60,0,0
219613,-100,4,2,2,60,0,0
219958,-100,4,1,2,60,0,0
220130,-100,4,2,2,60,0,0
220303,-100,4,1,2,60,0,0
221768,-100,4,1,2,60,0,0
225475,-100,4,2,2,60,0,0
225648,-100,4,1,2,60,0,0
225820,-100,4,2,2,60,0,0
225993,-100,4,1,2,60,0,0
228062,-100,4,2,2,60,0,0
228234,-100,4,1,2,60,0,0
230475,-100,4,2,2,60,0,0
230648,-100,4,1,2,60,0,0
231855,-100,4,2,2,60,0,0
232027,-100,4,1,2,60,0,0
233406,-100,4,2,2,60,0,0
233924,-100,4,1,2,60,0,0
241510,-100,4,2,2,60,0,0
241682,-100,4,1,2,60,0,0
244268,-100,4,2,2,60,0,0
244441,-100,4,1,2,60,0,0
246941,-133.333333333333,4,2,2,80,0,0
265303,-133.333333333333,4,2,2,80,0,0
265475,-133.333333333333,4,2,2,5,0,0
266337,-133.333333333333,4,2,2,80,0,0
267975,-133.333333333333,4,2,2,5,0,0

[Colours]
Combo1 : 118,50,63
Combo2 : 144,202,193
Combo3 : 253,163,180

[HitObjects]
256,312,562,1,2,0:0:0
374,192,906,1,2,0:0:0
256,73,1251,1,2,0:0:0
137,192,1596,1,2,0:0:0
256,312,1941,1,0,0:0:0
256,152,2286,5,0,0:0:0
292,224,2458,1,0,0:0:0
368,252,2630,1,0,0:0:0
448,236,2803,1,0,0:0:0
404,168,2975,2,0,B|356:184|336:136,2,80,0|0|4,0:0|0:0|0:0,0:0:0
82,99,5044,6,0,B|125:58|166:113|238:100,1,160,2|0,0:0|0:0,0:0:0
237,100,5562,1,2,0:0:0
157,274,6079,1,2,0:0:0
448,296,7803,6,0,B|368:296|368:296|324:224,1,160,2|0,0:0|0:0,0:0:0
327,227,8320,1,2,0:0:0
460,72,8837,1,2,0:0:0
136,264,10562,6,0,B|120:172|204:124,1,160,2|0,0:0|0:0,0:0:0
248,200,11079,2,0,B|180:240|132:200|100:172|96:120|128:80,1,240,2|2,0:0|0:0,0:0:0
256,192,11941,12,2,13320,0:0:0
372,204,13665,5,8,0:0:0
332,128,13837,1,8,0:0:0
252,108,14010,1,8,0:0:0
172,136,14182,1,8,0:0:0
104,92,14355,5,6,0:0:0
104,92,14699,1,2,0:0:0
28,236,15044,2,0,B|92:184,1,80,8|2,0:0|0:0,0:0:0
168,324,15562,1,2,0:0:0
256,192,15906,1,2,0:0:0
256,192,16079,1,2,0:0:0
412,232,16424,2,0,B|344:292,1,80,8|2,0:0|0:0,0:0:0
192,104,17113,5,2,0:0:0
192,104,17458,1,2,0:0:0
84,224,17803,2,0,B|176:224,1,80,8|2,0:0|0:0,0:0:0
256,356,18320,1,2,0:0:0
344,224,18665,1,2,0:0:0
344,224,18837,1,2,0:0:0
504,224,19182,2,0,B|420:224,1,80,8|2,0:0|0:0,0:0:0
204,296,19872,6,0,B|176:264|196:220,1,80,2|0,0:0|0:0,0:0:0
196,220,20217,2,0,B|84:268|36:200,1,160,2|8,0:0|0:0,0:0:0
32,132,20734,1,2,0:0:0
192,72,21079,1,2,0:0:0
300,192,21424,1,2,0:0:0
300,192,21596,1,2,0:0:0
452,240,21941,2,0,B|396:304,1,80,8|2,0:0|0:0,0:0:0
164,324,22630,5,2,0:0:0
164,324,22975,1,2,0:0:0
284,216,23320,2,0,B|328:244|324:296,1,80,8|2,0:0|0:0,0:0:0
468,212,23837,1,2,0:0:0
372,84,24182,1,2,0:0:0
372,84,24355,1,2,0:0:0
180,192,24699,5,8,0:0:0
180,192,24872,1,8,0:0:0
180,192,25044,1,2,0:0:0
180,192,25217,1,2,0:0:0
196,112,25389,6,0,B|156:72|108:84,3,80,2|2|2|2,0:0|0:0|0:0|0:0,0:0:0
88,152,26079,2,0,B|60:192|104:228,3,80,2|2|2|2,0:0|0:0|0:0|0:0,0:0:0
156,280,26768,2,0,B|196:308|236:284,1,80,2|0,0:0|0:0,0:0:0
308,260,27113,2,0,B|348:232|336:180,1,80,0|0,0:0|0:0,0:0:0
344,112,27458,2,0,B|320:64|268:64,1,80,8|0,0:0|0:0,0:0:0
204,80,27803,1,0,0:0:0
204,80,27975,1,0,0:0:0
204,80,28148,1,4,0:0:0
128,224,28493,5,0,0:0:0
260,316,28837,2,0,B|340:316,1,80,8|0,0:0|0:0,0:0:0
500,320,29355,1,0,0:0:0
428,184,29699,2,0,B|344:184,1,80,0|0,0:0|0:0,0:0:0
196,240,30217,2,0,B|244:236|252:192,1,80,8|0,0:0|0:0,0:0:0
244,112,30562,2,0,B|228:64|176:64,1,80,0|0,0:0|0:0,0:0:0
185,64,30906,5,0,0:0:0
185,64,31251,1,0,0:0:0
96,84,31424,1,0,0:0:0
56,160,31596,2,0,B|112:216,1,80,8|0,0:0|0:0,0:0:0
232,324,32113,1,0,0:0:0
384,276,32458,2,0,B|340:256|348:208,1,80,0|0,0:0|0:0,0:0:0
224,112,32975,1,8,0:0:0
224,112,33148,1,0,0:0:0
160,160,33320,1,0,0:0:0
160,160,33493,1,0,0:0:0
140,236,33665,6,0,B|168:312|168:312|260:312,1,160,0|0,0:0|0:0,0:0:0
356,196,34355,1,8,0:0:0
324,268,34527,1,0,0:0:0
384,120,34872,1,0,0:0:0
228,88,35217,2,0,B|276:100|280:148,1,80,0|0,0:0|0:0,0:0:0
120,132,35734,2,0,B|70:145|50:100,1,80,8|0,0:0|0:0,0:0:0
184,308,36424,5,0,0:0:0
288,76,36768,1,0,0:0:0
152,104,37113,1,8,0:0:0
328,288,37458,1,0,0:0:0
328,288,37803,2,0,B|320:200,1,80,0|0,0:0|0:0,0:0:0
400,212,38148,2,0,B|300:208,1,80,0|0,0:0|0:0,0:0:0
349,133,38493,2,0,B|319:211,1,80,8|0,0:0|0:0,0:0:0
104,312,39182,5,4,0:0:0
104,312,39527,1,0,0:0:0
88,152,39872,2,0,B|152:204,1,80,8|0,0:0|0:0,0:0:0
150,202,40389,1,0,0:0:0
308,184,40734,1,0,0:0:0
252,240,40906,1,0,0:0:0
364,124,41251,6,0,B|412:52,1,80,8|0,0:0|0:0,0:0:0
364,124,41596,2,0,B|420:184,1,80,0|0,0:0|0:0,0:0:0
420,264,41941,1,0,0:0:0
420,264,42286,1,0,0:0:0
264,304,42630,2,0,B|216:304|192:264,1,80,8|0,0:0|0:0,0:0:0
124,124,43148,5,0,0:0:0
124,124,43493,1,0,0:0:0
192,168,43665,1,0,0:0:0
352,192,44010,2,0,B|344:237|308:261,1,80,8|0,0:0|0:0,0:0:0
268,192,44355,2,0,B|280:148|308:122,1,80
388,112,44699,6,0,B|468:174|408:260,1,160,0|0,0:0|0:0,0:0:0
328,268,45389,2,0,B|332:315|371:329,1,80,8|0,0:0|0:0,0:0:0
256,216,45906,5,0,0:0:0
256,216,46251,1,0,0:0:0
188,260,46424,1,0,0:0:0
172,100,46768,2,0,B|244:48,1,80,8|0,0:0|0:0,0:0:0
408,192,47458,6,0,B|416:248|368:292|304:272,1,160
304,272,47975,2,0,B|284:176|200:160,1,160
128,132,48493,1,0,0:0:0
280,80,48837,5,0,0:0:0
300,104,49182,1,0,0:0:0
320,128,49527,2,0,B|292:300|124:144|120:328,1,320,8|4,0:0|0:0,0:0:0
404,256,50562,5,0,0:0:0
244,264,50906,2,0,B|244:224|288:200,2,80,8|0|0,0:0|0:0|0:0,0:0:0
164,248,51424,2,0,B|164:296|120:308,2,80
88,220,51941,2,0,B|116:176|144:164|176:164|208:176|224:200,1,160,0|8,0:0|0:0,0:0:0
340,324,52630,5,0,0:0:0
428,172,52975,2,0,B|392:200|352:172,1,80
388,100,53320,2,0,B|352:72|312:100,1,80
244,156,53665,1,8,0:0:0
96,248,54010,2,0,B|132:220|172:248,1,80
136,320,54355,2,0,B|172:348|212:320,1,80
324,148,55044,6,0,B|292:72|356:8|424:8|464:52,1,240,8|0,0:0|0:0,0:0:0
404,112,55734,2,0,B|444:168|420:224|352:260,1,160
308,296,56251,1,0,0:0:0
224,308,56424,2,0,B|140:320|64:308,1,160,8|0,0:0|0:0,0:0:0
148,172,57113,1,0,0:0:0
196,108,57286,2,0,P|228:176|186:242,1,160
264,224,57803,2,0,B|344:228|416:184,1,160,8|0,0:0|0:0,0:0:0
200,44,58493,5,0,0:0:0
340,112,58837,1,0,0:0:0
388,264,59182,1,8,0:0:0
256,196,59527,1,0,0:0:0
312,340,59872,5,0,0:0:0
236,320,60044,1,0,0:0:0
172,272,60217,1,0,0:0:0
136,200,60389,1,0,0:0:0
216,60,60734,1,0,0:0:0
296,60,60906,1,0,0:0:0
256,216,61251,1,4,0:0:0
400,284,61596,5,0,0:0:0
344,136,61941,2,0,B|348:88|396:68,2,80,8|0|0,0:0|0:0|0:0,0:0:0
424,144,62458,2,0,B|420:188|376:208,2,80
492,188,62975,2,0,B|480:216|464:240|440:264|412:280|368:284,1,160,0|8,0:0|0:0,0:0:0
212,296,63665,5,0,0:0:0
120,164,64010,2,0,B|72:140|32:172,1,80
80,236,64355,2,0,B|128:260|172:236,1,80
212,176,64699,1,8,0:0:0
364,116,65044,2,0,B|388:152|364:192,1,80
292,156,65389,2,0,B|264:112|296:80,2,80
244,324,66079,6,0,B|360:364|492:324,1,240,8|0,0:0|0:0,0:0:0
456,244,66768,2,0,B|448:156|376:92,1,160
312,72,67286,1,0,0:0:0
232,64,67458,2,0,B|180:132|80:144,1,160,8|0,0:0|0:0,0:0:0
76,300,68148,1,0,0:0:0
76,300,68320,2,0,B|136:240|232:240,1,160
304,104,68837,2,0,B|276:176|380:248,1,160,8|0,0:0|0:0,0:0:0
200,196,69527,5,4,0:0:0
108,68,69872,1,0,0:0:0
260,120,70217,1,0,0:0:0
108,164,70562,1,0,0:0:0
204,32,70906,1,0,0:0:0
364,32,71251,5,0,0:0:0
436,68,71424,1,0,0:0:0
480,136,71596,1,0,0:0:0
496,216,71768,1,0,0:0:0
488,296,71941,1,0,0:0:0
436,356,72113,1,0,0:0:0
408,280,72286,6,4,B|324:280|252:312|252:312|180:280|96:280,1,320,0|8,0:0|0:0,0:0:0
352,64,73665,2,0,B|268:76|192:64,1,160
156,52,74182,1,0,0:0:0
116,140,74355,1,8,0:0:0
256,272,74699,1,0,0:0:0
352,60,75044,6,0,B|448:100|488:188|456:284|388:332,1,320,0|8,0:0|0:0,0:0:0
108,192,76424,2,0,B|124:264|208:324,1,160
236,336,76941,1,0,0:0:0
332,328,77113,1,8,0:0:0
472,196,77458,1,0,0:0:0
288,248,77803,6,0,B|320:220|364:240,3,80,0|0|0|0,0:0|2:0|1:0|0:0,0:0:0
452,276,78493,1,8,0:0:0
452,276,78665,2,0,P|468:192|432:124,1,160,0|0,0:0|0:0,0:0:0
368,60,79182,2,0,P|328:116|240:116,1,160
60,60,79872,1,8,0:0:0
216,196,80217,5,0,0:0:0
216,196,80390,1,0,2:0:0
216,196,80562,2,0,P|145:225|117:300,2,160
212,292,81424,5,0,0:0:0
212,292,81596,1,0,0:0:0
288,320,81768,2,0,B|356:352|440:316|484:216|448:100|356:72,1,400,0|8,0:0|0:0,0:0:0
272,48,82803,2,0,B|236:28|196:48,2,80,8|8|8,0:0|0:0|0:0,0:0:0
312,128,83320,2,0,B|336:204|288:268|200:268|132:209|163:123,1,320,4|8,0:0|0:0,0:0:0
232,72,84699,6,0,B|192:32|128:32|88:72,1,160
160,216,85389,1,8,0:0:0
160,216,85562,1,0,0:0:0
24,312,86079,2,0,B|76:328|76:328|140:308|140:308|200:328|200:328|264:312|264:312|332:332,1,320,0|8,0:0|0:0,0:0:0
244,184,87458,6,0,B|332:184|404:232,1,160
256,316,88148,1,8,0:0:0
256,316,88320,1,0,0:0:0
256,28,88837,5,0,0:0:0
432,104,89182,2,0,P|408:180|340:216,1,160,0|8,0:0|0:0,0:0:0
216,280,89872,1,0,0:0:0
148,216,90044,1,0,0:0:0
124,308,90217,2,0,P|64:264|60:184,2,160,0|0|8,0:0|0:0|0:0,0:0:0
240,188,91079,2,0,P|304:140|384:148,1,160
480,212,91596,2,0,P|420:268|340:260,1,160
156,180,92286,5,8,0:0:0
120,272,92458,2,0,B|80:260|68:216,1,80
64,136,92803,2,0,B|72:68|140:40|192:72,1,160
316,152,93493,2,0,B|264:192|208:180|182:121,1,160,0|8,0:0|0:0,0:0:0
258,96,94010,1,8,0:0:0
258,97,94182,1,8,0:0:0
256,192,94355,12,0,96079,0:0:0
256,192,96251,5,0,0:0:0
176,188,96424,1,8,0:0:0
220,120,96596,1,0,0:0:0
256,192,96768,1,8,0:0:0
292,264,96941,1,0,0:0:0
332,192,97113,1,12,0:0:0
68,88,108148,6,0,B|140:56|228:88,1,160,4|0,0:0|0:0,0:0:0
148,228,108837,1,8,0:0:0
388,244,109355,2,0,B|344:312|256:324,1,160
276,224,109872,2,0,B|192:192|184:96,1,160,0|8,0:0|0:0,0:0:0
304,96,110389,2,0,B|332:56|388:44|452:72|480:136|480:188,1,240
408,312,111251,1,0,0:0:0
376,156,111596,1,8,0:0:0
180,296,112113,6,0,B|88:296|32:216,1,160
152,180,112630,2,0,B|244:184|304:104,1,160,0|8,0:0|0:0,0:0:0
180,72,113148,2,0,B|252:0|320:0|400:80,1,240
464,232,114010,1,0,0:0:0
316,328,114355,1,8,0:0:0
52,320,114872,5,0,0:0:0
52,320,115044,2,0,B|32:240|68:160,1,160
67,165,115562,1,0,0:0:0
144,208,115734,2,0,B|164:168|148:128,1,80,8|0,0:0|0:0,0:0:0
256,44,116251,5,0,0:0:0
256,44,116424,2,0,P|288:112|368:108,1,160,0|0,1:0|0:0,0:0:0
408,44,116941,2,0,P|480:104|440:203|304:204,1,240,0|0,0:0|1:0,0:0:0
328,203,118493,5,8,0:0:0
440,100,119182,6,0,B|364:64|280:100,1,160,4|0,0:0|0:0,0:0:0
152,188,119872,1,8,0:0:0
388,244,120389,2,0,B|344:312|256:324,1,160
336,336,120906,2,0,B|252:304|244:208,1,160,0|8,0:0|0:0,0:0:0
228,136,121424,2,0,B|269:106|342:101|407:127|444:176,1,240
472,332,122286,1,0,0:0:0
324,268,122630,1,8,0:0:0
180,296,123148,6,0,B|88:296|32:216,1,160
84,296,123665,2,0,B|176:300|236:220,1,160,0|8,0:0|0:0,0:0:0
236,152,124182,2,0,B|164:80|96:80|16:160,1,240
128,24,125044,1,0,0:0:0
280,68,125389,1,8,0:0:0
400,276,125906,5,0,0:0:0
400,276,126079,2,0,B|420:196|384:116,1,160
385,121,126596,1,0,0:0:0
300,92,126768,2,0,B|284:140|316:176,1,80,8|0,0:0|0:0,0:0:0
112,320,127458,6,0,B|16:308|20:212,2,160,0|0|8,1:0|0:0|0:0,0:0:0
200,332,128320,1,0,0:0:0
288,316,128493,1,0,0:0:0
348,252,128665,1,0,1:0:0
360,164,128837,2,0,P|292:144|280:64,2,160,0|0|8,0:0|1:0|0:0,0:0:0
360,164,129699,1,0,0:0:0
144,64,130217,5,4,1:0:0
144,64,130562,2,0,B|164:88|164:88|96:132|136:200,1,160,0|8,0:0|0:0,0:0:0
308,236,131251,1,0,0:0:0
236,288,131424,1,0,0:0:0
316,324,131596,1,0,0:0:0
492,300,131941,6,0,B|448:292|424:248,1,80
448,168,132286,2,0,B|404:160|380:116,1,80,8|0,0:0|0:0,0:0:0
460,80,132630,1,0,0:0:0
384,40,132803,2,0,B|340:28|300:40,1,80
304,38,133320,1,0,0:0:0
132,72,133665,1,8,0:0:0
64,236,134010,6,0,B|76:320,1,80
248,280,134527,1,0,0:0:0
420,312,134872,2,0,B|444:220,1,80,0|8,0:0|0:0,0:0:0
440,234,135389,1,0,0:0:0
436,56,135734,1,0,0:0:0
260,72,136079,5,0,0:0:0
260,72,136251,2,0,B|316:124|428:136,1,160
324,172,136768,2,0,B|252:224|160:224,1,160
252,264,137286,2,0,B|300:332|404:344,1,160
452,284,137803,1,8,0:0:0
428,108,138148,5,0,0:0:0
352,64,138320,1,0,0:0:0
264,60,138493,1,0,0:0:0
96,252,138837,1,0,0:0:0
160,312,139010,1,0,0:0:0
248,316,139182,1,8,0:0:0
456,192,139527,5,0,0:0:0
456,192,139872,2,0,B|408:212|348:172|292:192,1,160,0|0,1:0|0:0,0:0:0
120,192,140562,1,8,0:0:0
120,192,140734,1,4,0:0:0
72,60,141251,5,4,0:0:0
248,60,141596,2,0,B|288:124|392:136,1,160,0|8,0:0|0:0,0:0:0
208,148,142286,1,0,0:0:0
280,196,142458,1,0,0:0:0
364,224,142630,1,0,0:0:0
208,304,142975,2,0,B|164:312|128:292,1,80
124,204,143320,2,0,B|104:244|52:240,1,80,8|0,0:0|0:0,0:0:0
48,152,143665,1,0,0:0:0
8,72,143837,2,0,B|40:56|92:72,1,80
86,70,144355,1,0,0:0:0
256,108,144699,1,8,0:0:0
388,148,145044,6,0,B|396:108|396:108|376:64,1,80
380,72,145389,1,0,0:0:0
136,72,145734,2,0,B|116:108|116:108|124:148,1,80,0|0,0:0|0:0,0:0:0
123,146,146079,1,8,0:0:0
256,108,146424,1,0,0:0:0
188,324,146768,6,0,B|276:308|300:224,1,160
320,324,147458,2,0,B|232:308|208:224,1,160,8|0,0:0|0:0,0:0:0
256,160,147975,1,0,2:0:0
328,128,148148,2,0,B|288:48|204:32,1,160
184,128,148837,2,0,B|224:48|308:32,1,160,8|0,0:0|0:0,0:0:0
232,268,149527,2,0,B|320:280|388:196,1,160
324,44,150217,2,0,B|236:32|164:108,1,160
96,192,150906,6,0,B|264:192,1,160,0|8,0:0|0:0,0:0:0
272,192,151424,1,0,0:0:0
288,192,151596,1,8,0:0:0
304,192,151768,1,0,0:0:0
320,192,151941,1,8,0:0:0
336,192,152113,1,0,0:0:0
380,260,152286,6,0,P|416:192|380:124,2,160,0|0|8,0:0|0:0|0:0,0:0:0
76,324,153665,2,0,B|144:272,1,80
80,208,154010,2,0,B|148:156,1,80
96,84,154355,2,0,B|184:36|256:92,1,160,8|0,0:0|0:0,0:0:0
420,128,155044,5,0,0:0:0
132,268,155389,1,0,0:0:0
276,200,155734,1,8,0:0:0
164,228,156424,5,0,0:0:0
164,228,156596,1,0,0:0:0
160,328,156941,2,0,P|73:263|108:147,1,240
252,68,157803,5,0,0:0:0
320,124,157975,1,0,0:0:0
252,180,158148,1,0,0:0:0
184,124,158320,1,0,0:0:0
104,72,158493,2,0,P|92:148|144:212,1,160
308,308,159182,5,0,0:0:0
192,156,159527,1,0,0:0:0
240,72,159699,1,0,0:0:0
324,120,159872,2,0,P|316:200|368:256,1,160
388,64,160562,6,0,P|408:28|444:16,1,80,0|0,0:0|2:0,0:0:0
472,100,160906,1,0,0:0:0
496,184,161079,2,0,B|496:232|480:276|440:304|384:288,1,160
400,204,161596,1,0,0:0:0
324,244,161768,2,0,B|288:300|332:352|332:352|288:300|208:320,1,240
84,64,162630,6,0,B|76:108|104:144,1,80,8|0,0:0|0:0,0:0:0
144,220,162975,2,0,B|180:196|192:148,1,80,8|0,0:0|0:0,0:0:0
256,192,163320,12,0,164355,2:0:0
468,184,164699,6,0,B|384:172|308:208,1,160
164,304,165389,1,8,0:0:0
164,304,165562,1,0,0:0:0
76,56,166079,2,0,B|128:72|128:72|192:52|192:52|252:72|252:72|316:56|316:56|384:76,1,320,0|8,0:0|0:0,0:0:0
64,228,167458,6,0,B|152:228|224:180,1,160
344,64,168148,1,8,0:0:0
344,64,168320,1,0,0:0:0
256,312,168837,1,0,0:0:0
432,280,169182,2,0,P|408:204|340:168,1,160
216,280,169872,1,0,0:0:0
148,216,170044,1,0,0:0:0
124,308,170217,2,0,P|64:264|60:184,2,160
240,188,171079,2,0,P|304:140|384:148,1,160
480,212,171596,2,0,P|420:268|340:260,1,160
160,200,172286,5,8,0:0:0
120,112,172458,2,0,B|80:124|68:168,1,80
64,248,172803,2,0,B|72:316|140:344|192:312,1,160
316,232,173493,2,0,B|260:160|172:212,1,160,0|8,0:0|0:0,0:0:0
173,211,174010,1,8,0:0:0
256,192,174182,12,4,175734,0:0:0
100,168,176079,6,0,B|108:120|152:92,1,80
212,52,176424,1,0,0:0:0
300,52,176596,1,0,0:0:0
376,96,176768,2,0,B|408:120|424:168,1,80
424,280,177113,6,0,B|394:280|368:300|368:300|337:280|308:280,1,120.000004577637
184,252,177803,1,8,0:0:0
292,172,178148,2,0,B|272:140|228:136,1,60.0000022888184
292,172,178493,2,0,B|308:144|344:140,1,60.0000022888184,0|8,0:0|0:0,0:0:0
292,172,178837,1,0,0:0:0
376,52,179182,6,0,B|256:44|256:44|136:52,1,240.000009155274,8|0,0:0|0:0,0:0:0
137,52,180217,1,0,0:0:0
256,192,180562,1,8,0:0:0
132,240,180906,2,0,B|184:272,3,60.0000022888184,0|0|0|0,0:0|0:0|0:0|0:0,0:0:0
240,304,181596,2,0,B|300:304,3,60.0000022888184,8|8|8|8,0:0|0:0|0:0|0:0,0:0:0
360,272,182286,1,0,0:0:0
412,232,182458,1,0,0:0:0
424,104,182630,6,0,B|394:104|368:84|368:84|337:104|307:104,1,120.000004577637
184,128,183320,1,8,0:0:0
116,240,183665,2,0,B|96:272|52:276,1,60.0000022888184
116,240,184010,2,0,B|132:268|168:272,1,60.0000022888184,0|8,0:0|0:0,0:0:0
116,240,184355,1,0,0:0:0
328,320,184699,6,0,B|444:284|444:284|444:164,1,240.000009155274,8|0,0:0|0:0,0:0:0
336,92,185734,1,0,0:0:0
256,192,186079,1,8,0:0:0
188,80,186424,5,0,0:0:0
128,52,186596,1,0,0:0:0
76,92,186768,2,0,B|48:160|104:200,1,120.000004577637
236,340,187458,5,8,0:0:0
312,280,187630,1,8,0:0:0
224,248,187803,1,0,0:0:0
300,188,187975,1,0,0:0:0
380,132,188148,6,0,B|348:80|276:72,2,120.000004577637,0|0|8,0:0|0:0|0:0,0:0:0
460,308,189182,2,0,B|424:252,1,60.0000022888184
344,308,189527,2,0,B|308:244,1,60.0000022888184,0|8,0:0|0:0,0:0:0
232,308,189872,1,0,0:0:0
328,138,190217,6,0,B|209:99|87:139,1,240.000009155274,8|0,0:0|0:0,0:0:0
93,138,191251,1,8,0:0:0
164,304,191596,6,0,B|224:300,1,60.0000022888184,0|0,0:0|0:0,0:0:0
312,260,191941,2,0,B|252:232,1,60.0000022888184,0|0,0:0|0:0,0:0:0
168,200,192286,2,0,B|228:164,1,60.0000022888184,8|0,0:0|0:0,0:0:0
316,164,192630,2,0,B|268:108,1,60.0000022888184,8|0,0:0|0:0,0:0:0
180,104,192975,2,0,B|240:48,1,60.0000022888184,8|8,0:0|0:0,0:0:0
320,52,193320,1,8,0:0:0
412,84,193493,1,8,0:0:0
464,184,193665,6,0,B|464:368,1,180.000006866455
388,332,194355,1,8,0:0:0
388,332,194527,1,0,0:0:0
300,300,194699,2,0,B|300:236,1,60.0000022888184
212,276,195044,2,0,B|212:336,1,60.0000022888184,0|0,0:0|0:0,0:0:0
124,300,195389,1,8,0:0:0
124,300,195562,1,0,0:0:0
44,248,195734,6,0,B|28:180|64:128,1,120.000004577637,8|0,0:0|0:0,0:0:0
172,200,196424,2,0,B|224:172|292:180,1,120.000004577637
408,152,196941,2,0,B|364:112|288:104,1,120.000004577637
212,72,197458,2,0,B|228:44|260:28,1,60.0000022888184
364,32,197803,2,0,B|420:8|480:36,2,120.000004577637,0|0|8,0:0|0:0|0:0,0:0:0
320,52,198665,1,8,0:0:0
284,84,198837,1,8,0:0:0
260,128,199010,1,0,0:0:0
256,192,199182,12,4,201941,0:0:0
432,84,211424,5,0,0:0:0
432,84,211768,2,0,B|384:84|352:120,1,80
312,196,212113,1,0,0:0:0
288,288,212286,2,0,B|224:340|132:304,1,160,8|0,0:0|0:0,0:0:0
56,84,212975,6,0,B|64:80|64:80|64:88|64:88|72:80|72:80|72:88|72:88|80:80|80:80|80:88|80:88|88:80|88:80|88:88|88:88|96:80|96:80|96:88|96:88|104:80|104:80|104:88|104:88|112:80|112:80|112:88|112:88|120:80|120:80|120:88|120:88|128:80|128:80|128:88|128:88|136:80|136:80|136:88|136:88|144:80|144:80|144:88|144:88|152:80|152:80|152:88|152:88|160:80|160:80|160:88|160:88|168:80|168:80|168:88|168:88|176:80|176:80|176:88|176:88|184:80|184:80|184:88|184:88|192:80|192:80|196:88,1,320
352,80,214010,2,0,B|292:136,1,80
124,304,214699,1,0,0:0:0
220,196,215217,1,0,0:0:0
452,300,215734,6,0,B|444:304|444:304|444:296|444:296|436:304|436:304|436:296|436:296|428:304|428:304|428:296|428:296|420:304|420:304|420:296|420:296|412:304|412:304|412:296|412:296|404:304|404:304|404:296|404:296|396:304|396:304|396:296|396:296|388:304|388:304|388:296|388:296|380:304|380:304|380:296|380:296|372:304|372:304|372:296|372:296|364:304|364:304|364:296|364:296|356:304|356:304|356:296|356:296|348:304|348:304|348:296|348:296|340:304|340:304|340:296|340:296|332:304|332:304|332:296|332:296|324:304|324:304|324:296|324:296|316:304|316:304|312:296,1,320
192,204,216768,2,0,B|272:160,1,80
436,72,217458,1,0,0:0:0
316,152,217975,1,0,0:0:0
196,76,218493,6,0,B|188:72|188:72|188:80|188:80|180:72|180:72|180:80|180:80|172:72|172:72|172:80|172:80|164:72|164:72|164:80|164:80|156:72|156:72|156:80|156:80|148:72|148:72|148:80|148:80|140:72|140:72|140:80|140:80|132:72|132:72|132:80|132:80|124:72|124:72|124:80|124:80|116:72|116:72|116:80|116:80|108:72|108:72|108:80|108:80|100:72|100:72|100:80|100:80|92:72|92:72|92:80|92:80|84:72|84:72|84:80|84:80|76:72|76:72|76:80|76:80|68:72|68:72|68:80|68:80|60:72|60:72|56:80,1,320
16,228,219527,2,0,B|96:280,1,80
228,340,220044,5,0,0:0:0
252,264,220217,1,0,0:0:0
328,244,220389,1,0,0:0:0
380,92,220734,1,0,0:0:0
140,92,221251,1,0,0:0:0
144,264,222113,6,0,B|104:280|64:264,2,80
216,104,222803,2,0,B|264:104|296:140,1,80
220,188,223148,2,0,B|244:220|300:220,1,80,8|0,0:0|0:0,0:0:0
376,200,223493,1,8,0:0:0
64,72,224010,6,0,B|128:52|196:52|256:76|296:124|308:180|308:204,1,320,4|8,0:0|0:0,0:0:0
280,316,225389,2,0,B|188:316,1,80
156,240,225734,2,0,B|252:240,1,80
308,192,226079,2,0,B|280:152|216:140|148:152,1,160,8|0,0:0|0:0,0:0:0
32,32,226768,5,0,0:0:0
204,72,227113,1,0,0:0:0
80,196,227458,2,0,B|108:256|172:296|248:316|316:312|360:292,1,320,8|0,0:0|0:0,0:0:0
436,252,228320,1,0,0:0:0
268,204,228665,2,0,B|216:204|156:220|100:264|72:336,1,240,0|0,0:0|0:0,0:0:0
252,308,229527,5,0,0:0:0
336,284,229699,1,0,0:0:0
364,200,229872,1,0,0:0:0
316,124,230044,1,0,0:0:0
232,124,230217,2,0,P|160:152|88:108,2,160,8|0|0,0:0|0:0|0:0,0:0:0
308,68,231079,2,0,P|384:44|452:84,1,160
372,140,231596,2,0,P|372:304,2,160
372,140,232458,1,0,1:0:0
180,140,232803,5,0,2:0:0
180,140,232975,2,0,P|180:304,1,160,8|0,0:0|0:0,0:0:0
260,352,233493,2,0,B|323:331|324:260|324:260|323:331|388:356,1,240
432,252,234355,6,0,B|440:208|412:172,1,80,8|0,0:0|0:0,0:0:0
372,96,234699,2,0,B|336:120|324:168,1,80,8|0,0:0|0:0,0:0:0
340,248,235044,2,0,B|256:260|176:224,1,160,0|0,0:0|2:0,0:0:0
184,227,235734,1,8,0:0:0
468,184,236424,6,0,B|384:172|308:208,1,160
164,304,237113,1,8,0:0:0
164,304,237286,1,0,0:0:0
96,164,237803,2,0,B|148:100|240:72,1,160,0|0,0:0|2:0,0:0:0
227,76,238493,1,8,0:0:0
124,248,239182,6,0,B|212:248|284:200,1,160
344,64,239872,1,8,0:0:0
344,64,240044,1,0,0:0:0
256,312,240562,5,0,0:0:0
164,336,240734,2,0,P|88:320|52:252,1,160
148,240,241251,2,0,P|160:164|232:132,1,160,8|0,0:0|0:0,0:0:0
364,268,241941,1,0,0:0:0
364,268,242113,2,0,P|280:268|224:200,1,160,0|0,0:0|2:0,0:0:0
320,184,242630,2,0,P|356:116|436:116,2,160,8|0|0,0:0|2:0|0:0,0:0:0
228,60,243665,1,0,0:0:0
156,196,244010,1,0,0:0:0
120,112,244182,6,0,B|80:124|68:168,1,80
64,248,244527,2,0,B|72:316|140:344|192:312,1,160
316,232,245217,2,0,B|260:160|172:212,1,160,0|8,0:0|0:0,0:0:0
173,211,245734,1,8,0:0:0
240,276,245906,1,4,0:0:0
110,102,247113,6,0,B|181:37|253:36|322:102,1,240.000009155274,0|0,0:0|0:0,0:0:0
444,180,248493,1,2,0:0:0
416,232,248665,1,0,0:0:0
368,268,248837,2,0,B|312:296|256:312|200:320|136:320,1,240.000009155274,2|0,0:0|0:0,0:0:0
136,320,249872,1,2,0:0:0
64,60,251251,5,2,0:0:0
16,128,251596,2,0,B|76:172|188:92|252:128,1,240.000009155274
208,200,252630,1,2,0:0:0
452,76,253665,5,2,0:0:0
344,124,254010,1,0,0:0:0
292,152,254182,1,0,0:0:0
284,212,254355,1,2,0:0:0
400,236,254699,2,0,B|380:300|324:324,1,120.000004577637
208,292,255389,2,0,B|140:312|92:268,1,120.000004577637
172,176,256079,1,2,0:0:0
60,132,256424,1,0,0:0:0
92,80,256596,1,0,0:0:0
148,64,256768,1,2,0:0:0
260,112,257113,6,0,B|268:212|316:256|424:256,1,240.000009155274
416,256,258148,1,2,0:0:0
76,320,259527,5,2,0:0:0
104,268,259699,1,0,0:0:0
148,228,259872,2,0,B|200:256|248:248|304:224|320:168|320:128,1,240.000009155274,2|0,0:0|0:0,0:0:0
208,132,260906,1,2,0:0:0
436,88,262286,5,0,0:0:0
316,108,262630,1,2,0:0:0
316,108,263665,1,2,0:0:0
440,308,265044,5,2,0:0:0
384,292,265217,1,0,0:0:0
336,256,265389,2,0,B|256:312|168:256,2,180.000006866455,2|0|2,0:0|0:0|0:0,0:0:0
256,192,267803,1,2,0:0:0
256,192,268148,12,0,270217,0:0:0
