osu file format v9

[General]
AudioFilename: Yours only.mp3
AudioLeadIn: 1500
PreviewTime: 68896
Countdown: 0
SampleSet: Soft
StackLeniency: 0.7
Mode: 0
LetterboxInBreaks: 0

[Editor]
DistanceSpacing: 1
BeatDivisor: 4
GridSize: 4

[Metadata]
Title:Yours only, feat.WISE ~maison de m-flo~
Artist:Nishino Kana
Creator:S h i a
Version:Normal
Source:
Tags:JPOP Shia S_h_i_a bossandy

[Difficulty]
HPDrainRate:1
CircleSize:3
OverallDifficulty:1
ApproachRate:2
SliderMultiplier:1.2
SliderTickRate:1

[Events]
//Background and Video events
0,0,"bg.jpg"
//Break Periods
2,96924,100307
//Storyboard Layer 0 (Background)
//Storyboard Layer 1 (Fail)
//Storyboard Layer 2 (Pass)
//Storyboard Layer 3 (Foreground)
Sprite,Foreground,Centre,"sb\ly1.png",320,240 M,1,14010,14439,143,260,136,239 M,0,14439,17439,136,239,136,240 M,1,17439,17867,136,240,132,220 M,0,17867,20867,132,220 M,1,20867,21296,132,220,129,197 M,0,21296,23653,129,197 M,1,23653,24082,129,197,127,174 M,0,24082,27725,127,174 M,1,27725,28153,127,174,124,152 M,0,28153,31153,124,152 M,1,31153,31582,124,152,122,130 M,0,31582,34582,122,130 M,1,34582,35010,122,130,121,108 M,0,35010,38010,121,108,121,109 M,1,38010,38439,121,109,119,86 M,0,38439,41439,119,86 M,1,41439,41867,119,86,117,64 M,0,41867,44867,117,64 M,1,44867,45296,117,64,115,42 M,0,45296,55153,115,42 M,1,55153,55582,115,42,113,21 M,0,55582,58582,113,21 M,1,58582,59010,113,21,111,0
Sprite,Foreground,Centre,"sb\ly1.png",320,240 F,0,40153,40260,0,1 M,0,40153,41010,119,86,134,71 S,0,40153,41010,1,1.392 F,0,40260,41010,1,0
Sprite,Foreground,Centre,"sb\ly2.png",320,240 M,1,58582,59010,135,261,132,241 F,0,58582,59010,0,1 M,0,59010,65010,132,241 F,0,59010,95867,1 M,1,65010,65439,132,241,131,218 M,0,65439,68867,131,218 M,1,68867,69296,131,218,129,197 M,0,69296,70582,129,197 M,1,70582,71010,129,197,128,177 M,0,71010,72296,128,177 M,1,72296,72725,128,177,125,157 M,0,72725,74010,125,157,125,158 M,1,74010,74439,125,158,124,136 M,0,74439,77439,124,136 M,1,77439,77867,124,136,120,113 M,0,77867,82582,120,113 M,1,82582,83010,120,113,118,91 M,0,83010,85153,118,91 M,1,85153,85582,118,91,117,70 M,0,85582,87725,117,70 M,1,87725,88153,117,70,115,47 M,0,88153,89439,115,47 M,1,89439,89867,115,47,113,25 M,0,89867,92867,113,25 M,1,92867,93296,113,25,111,5 M,0,93296,96296,111,5 F,0,95867,96296,1,0
Sprite,Foreground,Centre,"sb\ly2.png",320,240 F,0,62332,62439,0,1 M,1,62439,63725,132,241,142,279 F,0,62439,63725,1,0 S,1,62439,63725,1,1.32
Sprite,Foreground,Centre,"sb\ly2.png",320,240 F,0,79475,79582,0,1 M,1,79582,80439,120,113,130,113 F,0,79582,80439,1,0 S,1,79582,80439,1,1.32
Sprite,Foreground,Centre,"sb\ly2.png",320,240 F,0,89760,89867,0,1 M,1,89867,90725,113,25,122,-5 F,0,89867,90725,1,0 S,1,89867,90725,1,1.32
Sprite,Foreground,Centre,"sb\mask.png",320,240 M,0,13582,96725,120,240
//Storyboard Sound Samples
//Background Colour Transformations
3,100,163,162,255

[TimingPoints]
725,428.571428571429,4,2,1,30,1,0
14439,-100,4,2,1,60,0,0
14760,-100,4,2,1,40,0,0
14975,-100,4,2,1,60,0,0
18189,-100,4,2,1,40,0,0
18403,-100,4,2,1,60,0,0
21617,-100,4,2,1,40,0,0
21832,-100,4,2,1,60,0,0
25046,-100,4,2,1,40,0,0
25260,-100,4,2,1,60,0,0
31046,-100,4,2,1,40,0,0
31260,-100,4,2,1,60,0,0
38760,-100,4,2,1,40,0,0
38975,-100,4,2,1,60,0,0
42189,-100,4,2,1,40,0,0
42403,-100,4,2,1,60,0,0
48189,-100,4,2,1,40,0,0
48403,-100,4,2,1,60,0,0
59332,-100,4,2,1,40,0,0
59546,-100,4,2,1,60,0,0
60189,-100,4,2,1,40,0,0
60403,-100,4,2,1,60,0,0
61903,-100,4,2,1,40,0,0
62117,-100,4,2,1,60,0,0
62760,-100,4,2,1,40,0,0
62975,-100,4,2,1,60,0,0
69296,-100,4,2,1,80,0,0
73689,-100,4,2,1,5,0,0
73903,-100,4,2,1,80,0,0
74546,-100,4,2,1,5,0,0
74760,-100,4,2,1,80,0,0
115903,-100,4,2,1,5,0,0
116117,-100,4,2,1,80,0,0
130903,-100,4,2,1,5,0,0

[Colours]
Combo1 : 253,166,166
Combo2 : 193,252,154
Combo3 : 158,201,239

[HitObjects]
232,104,725,2,0,B|148:48|40:112,1,180
156,176,1796,2,0,B|208:224|296:200,2,120,0|0|2
60,100,3082,1,0
176,68,3510,1,2
288,112,3939,5,0
336,148,4153,2,0,B|364:196|356:248|316:272,1,120,0|2
292,304,4796,2,0,B|352:272|420:316,1,120,0|0
476,212,5653,2,0,B|488:144|452:92,1,120,0|2
344,48,6510,2,0,B|324:112|368:172,2,120,0|2|0
296,88,7582,6,0,B|208:140|120:92,1,180
28,168,8653,2,0,B|68:216|132:228,1,120
226,154,9510,2,0,B|190:106|122:94,2,120,2|0|2
256,192,10796,12,2,13582
256,192,14439,6,0,B|172:244|72:188,1,180,4|4
120,240,15296,2,0,B|176:272|176:348,1,120,8|2
56,332,16153,2,0,B|12:308|4:248,2,90,4|4|4
112,352,17010,1,8
228,320,17439,1,2
304,228,17867,6,0,B|336:128|220:56,1,180,4|4
304,72,18725,2,0,B|364:100|432:64,1,120,8|2
420,188,19582,2,0,B|376:220|392:292,2,90,4|4|4
396,132,20439,2,0,B|376:68|296:72,1,120,8|2
220,160,21296,6,0,B|220:224|284:272|352:252,1,180,4|4
404,276,22153,2,0,B|336:268|296:324,1,120,8|2
184,348,23010,2,0,B|124:352|96:296,2,90,4|4|4
220,300,23867,6,0,B|208:236|112:212,1,120,8|2
32,164,24725,2,0,B|136:160|168:56,1,180,4|4
200,112,25582,2,0,B|228:176|320:176,1,120,8|2
416,172,26439,2,0,B|468:164|504:108,2,90,4|4|4
356,188,27296,1,8
140,84,28153,5,4
112,200,28582,2,0,B|44:236,2,60,2|4|8
216,264,29439,1,2
292,172,29867,2,0,B|300:116|244:80,2,90,4|4|4
272,228,30725,2,0,B|204:296|96:236|112:144,1,240,8|4
206,73,32010,6,0,B|238:69|266:97,2,60,2|4|8
111,146,32867,1,2
172,252,33296,2,0,B|224:272|268:236,2,90,4|4|4
128,212,34153,1,8
236,164,34582,6,0,B|308:152|340:228,1,120,2|4
280,320,35439,2,0,B|252:340|208:336,2,60,2|4|8
335,215,36296,1,2
316,96,36725,2,0,B|268:76|208:88,2,90,4|4|4
376,108,37582,6,0,B|424:128|484:116,2,90,8|0|2
316,96,38439,2,0,B|212:80|148:168,1,180,4|4
124,208,39296,2,0,B|112:136|28:124,1,120,8|2
40,248,40153,2,0,B|60:296|120:304,2,90,4|4|4
24,188,41010,1,8
128,124,41439,6,0,B|164:124|188:152,1,60,2|0
220,192,41867,2,0,B|256:100|360:92,1,180,4|4
416,96,42725,2,0,B|476:112|512:180,1,120,8|2
420,252,43582,2,0,B|368:244|340:184,2,90,4|4|4
476,228,44439,1,8
456,112,44867,5,2
336,124,45296,1,4
356,244,45725,2,0,B|308:304,2,60,2|4|8
476,228,46582,1,2
456,112,47010,6,0,B|452:60|408:32,2,90,4|4|4
456,172,47867,2,0,B|396:264|296:228,1,180,8|2
256,192,48725,12,8,51296
256,192,52153,5,4
148,244,52582,2,0,B|120:264|72:256,2,60,2|4|8
256,192,53439,1,2
352,120,53867,2,0,B|388:84|396:40,2,90,4|4|4
308,160,54725,1,8
188,160,55153,6,0,B|116:160|84:76,1,120,2|4
204,52,56010,2,0,B|240:52|264:80,2,60,2|4|8
93,98,56867,1,2
120,216,57296,2,0,B|160:252|228:244,2,90,4|4|4
96,160,58153,1,8
200,104,58582,5,2
316,128,59010,2,0,B|356:184|316:268|244:260,1,180,4|4
196,244,59867,2,0,B|116:184|188:56|292:104,1,240,8|4
364,72,61046,2,0,B|404:108|404:160,1,90,4|4
400,212,61582,6,0,B|400:272|348:332|280:340,1,180,8|0
232,340,62439,2,0,B|132:332|72:236|88:168,1,240,4|8
132,68,63725,1,2
244,24,64153,2,0,B|296:16|348:56,2,90,4|4|4
192,56,65010,6,0,B|160:96|180:160,2,90,8|4|4
256,192,65867,12,8,68010
256,192,68439,5,4
308,300,68867,1,8
184,276,69296,5,4
140,168,69725,1,8
164,112,69939,2,0,B|204:56|276:68,1,120,4|4
324,92,70582,1,8
256,192,71010,5,4
184,288,71439,1,8
236,320,71653,2,0,B|308:332|352:272,1,120,4|4
372,228,72296,5,8
344,112,72725,1,4
256,192,73153,1,8
232,136,73367,2,0,B|184:44|60:56,1,180,4|8
24,68,74225,6,0,B|48:168|172:168,1,180,4|8
216,168,75082,2,0,B|288:168|332:220,1,120,4|4
368,252,75725,1,8
256,292,76153,6,0,B|200:256|124:276,1,120,4|8
84,288,76796,2,0,B|132:240|112:168,1,120,4|4
92,124,77439,1,8
192,188,77867,6,0,B|228:144|212:96,2,90,4|4|4
84,240,78939,1,4
140,256,79153,2,0,B|212:268|224:352,1,120,8|4
308,252,80010,5,8
412,192,80439,1,0
312,140,80867,1,8
256,32,81296,1,0
200,140,81725,1,8
92,192,82153,1,0
196,256,82582,1,8
256,360,83010,5,4
308,252,83439,1,8
336,204,83653,2,0,B|348:132|280:88,1,120,4|4
236,80,84296,1,8
200,196,84725,5,4
256,300,85153,1,8
316,304,85367,2,0,B|384:316|432:244,1,120,4|4
456,212,86010,1,8
440,92,86439,5,4
352,172,86867,1,8
292,164,87082,2,0,B|212:156|196:76,1,120,4|4
168,48,87725,5,8
160,108,87939,2,0,B|151:187|72:203,1,120,4|4
44,236,88582,1,8
104,244,88796,2,0,B|183:252|199:331,1,120,4|4
228,360,89439,1,8
304,268,89867,6,0,B|344:208|304:140,1,120,4|8
272,108,90510,1,4
204,204,90939,1,4
204,264,91153,2,0,B|212:336|280:364,1,120,8|4
388,344,92010,1,8
432,304,92225,2,0,B|460:240|424:184,1,120,4|4
380,152,92867,1,8
316,256,93296,6,0,B|256:224|252:156,1,120,4|8
236,104,93939,2,0,B|216:172|144:184,1,120,4|4
92,180,94582,1,8
256,192,94796,12,0,96724
196,128,101867,6,0,B|256:104|320:132,1,120,0|8
312,252,102725,2,0,B|256:276|184:248,1,120,0|8
256,192,103367,12,0,105296
191,252,108725,6,0,B|160:192|192:128,1,120,0|8
316,136,109583,2,0,B|344:192|312:259,1,120,0|8
256,192,110225,12,0,112153
160,184,115582,6,0,B|260:216|324:132,1,180,0|0
324,196,116439,2,0,B|292:260|336:324,1,120,8|0
256,192,117082,12,0,119010
168,192,120725,5,4
256,272,121153,1,8
340,192,121582,1,0
256,108,122010,1,8
140,80,122439,6,0,B|124:144|176:200,1,120,4|8
256,272,123296,2,0,B|204:324|128:304,1,120,0|8
256,192,124153,12,0,131010
