osu file format v9

[General]
AudioFilename: Yours only.mp3
AudioLeadIn: 1500
PreviewTime: 68896
Countdown: 0
SampleSet: Soft
StackLeniency: 0.7
Mode: 0
LetterboxInBreaks: 0

[Editor]
DistanceSpacing: 1
BeatDivisor: 4
GridSize: 4

[Metadata]
Title:Yours only, feat.WISE ~maison de m-flo~
Artist:Nishino Kana
Creator:S h i a
Version:Hard
Source:
Tags:JPOP Shia S_h_i_a bossandy

[Difficulty]
HPDrainRate:6
CircleSize:4
OverallDifficulty:7
ApproachRate:8
SliderMultiplier:1.6
SliderTickRate:1

[Events]
//Background and Video events
0,0,"bg.jpg"
//Break Periods
2,96925,101117
//Storyboard Layer 0 (Background)
//Storyboard Layer 1 (Fail)
//Storyboard Layer 2 (Pass)
//Storyboard Layer 3 (Foreground)
Sprite,Foreground,Centre,"sb\ly1.png",320,240 M,1,14010,14439,143,260,136,239 M,0,14439,17439,136,239,136,240 M,1,17439,17867,136,240,132,220 M,0,17867,20867,132,220 M,1,20867,21296,132,220,129,197 M,0,21296,23653,129,197 M,1,23653,24082,129,197,127,174 M,0,24082,27725,127,174 M,1,27725,28153,127,174,124,152 M,0,28153,31153,124,152 M,1,31153,31582,124,152,122,130 M,0,31582,34582,122,130 M,1,34582,35010,122,130,121,108 M,0,35010,38010,121,108,121,109 M,1,38010,38439,121,109,119,86 M,0,38439,41439,119,86 M,1,41439,41867,119,86,117,64 M,0,41867,44867,117,64 M,1,44867,45296,117,64,115,42 M,0,45296,55153,115,42 M,1,55153,55582,115,42,113,21 M,0,55582,58582,113,21 M,1,58582,59010,113,21,111,0
Sprite,Foreground,Centre,"sb\ly1.png",320,240 F,0,40153,40260,0,1 M,0,40153,41010,119,86,134,71 S,0,40153,41010,1,1.392 F,0,40260,41010,1,0
Sprite,Foreground,Centre,"sb\ly2.png",320,240 M,1,58582,59010,135,261,132,241 F,0,58582,59010,0,1 M,0,59010,65010,132,241 F,0,59010,95867,1 M,1,65010,65439,132,241,131,218 M,0,65439,68867,131,218 M,1,68867,69296,131,218,129,197 M,0,69296,70582,129,197 M,1,70582,71010,129,197,128,177 M,0,71010,72296,128,177 M,1,72296,72725,128,177,125,157 M,0,72725,74010,125,157,125,158 M,1,74010,74439,125,158,124,136 M,0,74439,77439,124,136 M,1,77439,77867,124,136,120,113 M,0,77867,82582,120,113 M,1,82582,83010,120,113,118,91 M,0,83010,85153,118,91 M,1,85153,85582,118,91,117,70 M,0,85582,87725,117,70 M,1,87725,88153,117,70,115,47 M,0,88153,89439,115,47 M,1,89439,89867,115,47,113,25 M,0,89867,92867,113,25 M,1,92867,93296,113,25,111,5 M,0,93296,96296,111,5 F,0,95867,96296,1,0
Sprite,Foreground,Centre,"sb\ly2.png",320,240 F,0,62332,62439,0,1 M,1,62439,63725,132,241,142,279 F,0,62439,63725,1,0 S,1,62439,63725,1,1.32
Sprite,Foreground,Centre,"sb\ly2.png",320,240 F,0,79475,79582,0,1 M,1,79582,80439,120,113,130,113 F,0,79582,80439,1,0 S,1,79582,80439,1,1.32
Sprite,Foreground,Centre,"sb\ly2.png",320,240 F,0,89760,89867,0,1 M,1,89867,90725,113,25,122,-5 F,0,89867,90725,1,0 S,1,89867,90725,1,1.32
Sprite,Foreground,Centre,"sb\mask.png",320,240 M,0,13582,96725,120,240
//Storyboard Sound Samples
//Background Colour Transformations
3,100,163,162,255

[TimingPoints]
725,428.571428571429,4,2,1,30,1,0
14439,-100,4,2,1,60,0,0
22475,-100,4,2,1,40,0,0
22689,-100,4,2,1,60,0,0
24189,-100,4,2,1,40,0,0
24403,-100,4,2,1,60,0,0
68117,-100,4,2,1,75,0,0
69296,-100,4,2,1,80,0,0
130903,-100,4,2,1,5,0,0

[Colours]
Combo1 : 253,166,166
Combo2 : 193,252,154
Combo3 : 158,201,239

[HitObjects]
72,92,724,1,2
140,136,939,1,0
148,216,1153,1,0
116,288,1367,2,0,B|180:232|288:272,1,160,2|2
340,296,2010,1,0
344,376,2225,2,0,B|412:372|440:296|404:248,1,160,0|2
268,188,3082,1,0
108,208,3510,5,2
100,128,3725,1,2
164,80,3939,1,2
180,160,4153,2,0,B|208:208|180:280|120:288,1,160,0|2
108,208,4796,2,0,B|80:160|104:84|172:80,1,160,0|2
240,100,5439,2,0,B|272:132|260:176,1,80,0|2
168,272,6082,5,0
184,192,6296,1,2
260,172,6510,1,0
284,312,6939,5,2
240,248,7153,1,2
260,172,7367,1,0
308,108,7582,6,0,B|368:100|412:168|380:224,1,160,2|0
312,184,8224,2,0,B|284:240|336:308|396:292,1,160,2|2
456,252,8867,1,2
384,216,9082,2,0,B|320:220|280:288|336:360,2,160
296,84,10367,5,2
220,60,10582,1,2
236,136,10796,1,2
256,192,11010,12,2,13582
100,76,14439,6,0,B|188:108|188:216,1,160,4|2
160,272,15082,1,4
240,256,15296,2,0,B|280:232|340:264,1,80,8|0
364,316,15724,2,0,B|412:300|400:224,1,80,2|0
356,188,16153,5,4
376,112,16367,1,0
412,132,16474,1,4
428,168,16582,1,2
484,116,16796,2,0,B|480:64|408:56,1,80,4|8
276,80,17439,5,2
224,140,17653,1,0
300,160,17867,1,4
168,72,18296,2,0,B|132:104|140:152,1,80,2|4
224,140,18725,2,0,B|232:200|172:244|120:228,1,160,8|2
64,172,19367,6,0,B|32:208|44:256,1,80,0|4
88,312,19796,1,0
128,320,19903,1,4
160,300,20010,1,2
192,224,20225,2,0,B|188:176|144:152,1,80,4|8
224,108,20867,6,0,B|228:168|276:208|340:196,1,160,2|4
412,204,21510,1,0
392,128,21725,1,2
312,116,21939,1,4
333,196,22153,2,0,B|321:256|396:332|492:304|532:200|460:136,1,320,8|4
392,128,23225,1,0
392,128,23332,1,4
392,128,23439,1,2
412,204,23653,1,4
472,140,23867,6,0,B|485:80|412:-4|312:32|273:132|343:197,1,320,8|4
260,44,25153,2,0,B|228:80|236:132,2,80,2|4|8
392,128,26010,1,2
304,260,26439,2,0,B|248:296|180:268,2,120,4|4|4
360,204,27296,5,8
392,128,27510,1,2
356,56,27725,1,0
324,128,27939,1,2
360,204,28153,2,0,B|416:224|484:184|472:104,1,160,4|2
436,56,28796,1,4
356,56,29010,1,8
260,184,29439,6,0,B|244:240|288:296|340:308,1,160,2|4
412,336,30082,2,0,B|464:360,2,40,0|4|2
336,308,30510,2,0,B|296:296|248:312,1,80,4|8
100,340,31153,1,2
100,340,31367,1,0
100,340,31582,6,0,B|154:364|225:316|215:242,1,160,4|2
172,196,32225,2,0,B|136:216|132:272,1,80,4|8
216,266,32653,2,0,B|272:216|260:148|204:124,1,160,2|2
136,124,33296,2,0,B|76:160|96:232,2,120,4|4|4
216,130,34153,1,8
276,280,34582,5,2
116,268,35010,2,0,B|80:232|96:180,1,80,4|0
172,212,35439,2,0,B|180:168|148:132,1,80,2|4
76,116,35867,2,0,B|84:60|156:32|204:72,2,160,8|2|4
88,196,36939,2,0,B|40:224,2,40,0|4|2
172,212,37367,1,4
240,156,37582,6,0,B|232:216|296:264|352:244,2,160,8|2|4
284,88,38653,2,0,B|328:64|376:100,2,80,0|2|4
324,160,39296,6,0,B|380:188|440:152|440:84,1,160,8|2
360,90,39939,1,0
400,160,40153,2,0,B|432:212|504:212,2,120,4|4|4
361,90,41010,1,8
416,32,41225,1,0
361,90,41439,1,2
281,95,41653,1,0
316,168,41867,6,0,B|264:196|196:160|200:88,1,160,4|2
160,32,42510,2,0,B|136:88|80:80,1,80,4|8
32,40,42939,2,0,B|4:96|36:164|120:160,1,160
176,152,43582,1,4
140,224,43796,1,0
144,264,43903,1,4
176,288,44010,1,2
220,220,44224,2,0,B|260:248|252:296,1,80,4|8
316,140,44867,6,0,B|364:152|372:212,1,80,2|0
432,148,45296,2,0,B|468:208|428:276|360:276,1,160,4|2
392,352,45939,2,0,B|344:360|312:312,2,80,4|8|0
460,308,46582,1,2
432,148,47010,6,0,B|368:112|312:160,2,120,4|4|4
380,212,47867,1,8
304,236,48082,2,0,B|248:228|212:156|252:104,1,160,2|2
256,192,48724,12,8,51296
264,84,51724,5,2
264,84,52153,6,0,B|244:136|184:136,1,80,4|0
188,56,52582,2,0,B|136:68|124:124,1,80,2|4
140,184,53010,2,0,B|180:232|256:220|288:168,1,160,8|2
340,128,53653,2,0,B|372:160|352:208,1,80,0|4
300,260,54082,1,0
332,284,54189,1,4
376,280,54296,1,2
428,220,54510,2,0,B|464:256|448:304,1,80,4|8
416,136,55153,6,0,B|424:84|372:56,1,80,2|0
340,128,55582,2,0,B|340:184|292:228|232:216,1,160,4|2
260,140,56224,2,0,B|208:124|176:160,2,80,4|8|0
232,216,56867,2,0,B|168:252|108:212|108:152,1,160,2|4
132,88,57510,1,0
168,68,57617,1,4
208,72,57724,1,2
288,76,57939,2,0,B|336:88|376:44,1,80,4|8
362,57,58582,5,2
336,132,58796,1,0
352,212,59010,2,0,B|340:272|408:320|472:284,1,160,4|2
428,216,59653,1,4
384,284,59867,1,8
304,276,60082,2,0,B|260:244|276:196,1,80,0|2
256,48,60724,6,0,B|244:120|168:128,2,120,4|4|4
176,48,61582,1,8
104,88,61796,2,0,B|84:132|112:180,2,80,0|2|0
178,127,62439,6,0,B|208:184|164:252|96:252,2,160,4|2|8
40,208,63724,2,0,B|16:256|52:304,1,80,2|0
92,344,64153,2,0,B|160:376|228:304,2,120,4|4|4
140,280,65010,2,0,B|196:228|264:268,2,120,8|4|4
204,328,65867,5,4
284,332,66082,1,2
320,312,66189,1,2
332,272,66296,1,2
336,192,66510,2,0,B|384:188|404:244,2,80,4|0|2
260,224,67153,1,2
192,164,67367,5,4
332,80,67582,1,4
260,224,67796,1,4
228,68,68010,1,8
348,176,68224,1,4
192,164,68439,5,12
172,200,68546,1,0
172,240,68653,1,8
188,276,68760,1,8
220,300,68867,1,12
260,224,69082,1,12
268,144,69296,6,0,B|328:144|372:216|320:280,1,160,4|8
296,332,69939,2,0,B|348:360|408:328|416:268,1,160,4|4
428,188,70582,1,8
396,116,70796,1,2
324,80,71010,1,4
324,80,71224,2,0,B|296:136,2,40,2|0|8
244,68,71653,1,4
244,68,72082,5,4
188,124,72296,2,0,B|216:160|276:144,1,80,8|2
164,48,72725,2,0,B|104:64|88:144|136:188,1,160,4|8
188,124,73367,2,0,B|228:172|200:248|136:256,1,160,4|0
72,232,74010,6,0,B|60:280|96:312,1,80,8|4
149,253,74439,2,0,B|160:200|120:172,1,80,2|4
60,156,74867,6,0,B|16:164|0:208,1,80,8|4
72,232,75296,2,0,B|112:220|132:172,1,80,2|4
116,100,75725,6,0,B|84:68|32:80,1,80,8|0
60,156,76153,2,0,B|112:200|192:172|196:96,1,160,4|8
172,44,76796,2,0,B|232:36|288:80|264:160,1,160,4|4
216,200,77439,1,8
296,216,77653,6,0,B|288:268|228:280,1,80,0|4
168,264,78082,1,0
172,304,78189,1,4
196,336,78296,1,8
248,276,78510,6,0,B|256:212|192:164|132:192,1,160,4|0
96,248,79153,2,0,B|60:216|72:168,1,80,8|0
120,112,79582,2,0,B|68:76|-8:104|-8:180,1,160,4|8
72,176,80225,2,0,B|124:212|192:188|204:120,1,160,4|4
224,56,80867,5,8
201,133,81082,1,4
256,188,81296,2,0,B|304:204|344:160,1,80,0|4
280,112,81725,1,8
331,173,81939,1,4
412,168,82153,2,0,B|400:120|352:100,1,80,0|4
320,40,82582,5,8
400,40,82796,1,0
460,92,83010,2,0,B|512:124|512:204|464:244,1,160,4|8
396,252,83653,2,0,B|332:232|308:172|340:112,1,160,4|4
388,68,84296,2,0,B|348:36|292:56,1,80,8|0
256,104,84725,5,4
256,184,84939,1,0
216,172,85046,1,4
188,144,85153,1,8
188,64,85367,2,0,B|216:12|308:8|336:88,1,160,4|4
256,104,86010,6,0,B|232:152|144:164|116:96,1,160,8|4
112,28,86653,2,0,B|68:36|48:80,1,80,0|8
44,156,87082,2,0,B|56:208|116:244|176:228,1,160,4|4
248,212,87725,5,8
324,236,87939,1,4
380,292,88153,1,0
404,216,88367,1,4
464,160,88582,1,8
388,132,88796,2,0,B|336:156|268:104|284:36,1,160,4|4
360,60,89439,1,8
312,124,89653,6,0,B|272:152|228:124,1,80,0|4
160,108,90082,2,0,B|176:156|132:192,1,80,0|8
84,128,90510,2,0,B|64:72|128:0|200:40,1,160,4|4
236,80,91153,2,0,B|252:120|220:168,1,80,8|0
152,188,91582,5,4
160,108,91796,1,0
160,108,91903,1,4
160,108,92010,1,8
228,156,92225,2,0,B|248:216|204:276|144:272,1,160,4|4
84,232,92867,1,8
88,152,93082,1,0
160,108,93296,6,0,B|236:76|240:156|332:92,1,160,4|8
376,52,93939,2,0,B|408:94|394:161|330:180,1,160,4|4
313,104,94582,1,8
256,192,94796,12,4,96725
256,268,101867,5,2
192,220,102082,1,4
264,180,102296,2,0,B|240:144|184:140,1,80,8|4
128,180,102725,1,2
120,260,102939,1,4
188,304,103153,2,0,B|212:368|308:368|332:296,1,160,8|4
332,244,103796,6,0,B|384:252|396:308,1,80,0|8
384,372,104225,2,0,B|448:380|492:312|468:256,1,160,4|4
412,216,104867,1,8
396,288,105082,1,0
412,216,105296,5,4
332,244,105510,2,0,B|304:284,2,40,0|4|8
348,164,105939,2,0,B|296:140|228:196|244:264,1,160,4|4
180,300,106582,2,0,B|168:256|120:252,1,80,8|0
104,328,107010,5,4
123,253,107225,1,0
84,184,107439,1,8
164,180,107653,2,0,B|224:188|272:136|264:76,1,160,4|4
188,60,108296,1,8
120,104,108510,1,4
84,184,108725,6,0,B|88:236|136:256,1,80,0|4
168,316,109153,2,0,B|211:286|204:234,1,80,8|4
240,180,109582,2,0,B|192:157|151:189,1,80,0|4
205,249,110010,2,0,B|261:277|325:237|321:161,1,160,8|4
280,112,110653,5,0
200,112,110867,1,8
240,180,111082,2,0,B|292:212|364:172|360:104,1,160,4|4
320,44,111725,2,0,B|280:20|232:48,1,80,8|0
200,112,112153,5,4
240,180,112367,2,0,B|300:172,2,40,0|4|8
160,184,112796,2,0,B|104:152|104:72|160:40,1,160,4|4
228,36,113439,2,0,B|276:56|280:112,1,80,8|0
320,164,113867,6,0,B|356:120|440:128|460:192,1,160,4|8
384,216,114510,2,0,B|340:260|264:248|244:188,1,160,4|0
184,152,115153,2,0,B|184:200|120:216,1,80,8|4
108,136,115582,2,0,B|116:92|160:76,1,80,0|4
236,92,116010,2,0,B|270:120|261:167,1,80,8|4
212,224,116439,2,0,B|169:239|134:208,1,80,0|4
184,152,116867,6,0,B|248:132|304:180|284:256,1,160,8|4
240,300,117510,1,0
288,234,117725,1,8
368,240,117939,2,0,B|420:272|488:240|492:180,1,160,4|4
464,108,118582,2,0,B|433:76|377:90,1,80,8|0
316,116,119010,6,0,B|324:160|384:184|428:164,2,120,4|4|4
272,48,119867,1,0
352,44,120082,1,4
316,116,120296,2,0,B|276:148|228:120,1,80,8|0
188,68,120725,6,0,B|139:110|159:195|235:209,1,160,4|8
140,240,121367,2,0,B|172:292|256:296|288:224,1,160,4|0
324,308,122010,2,0,B|360:280|356:232,1,80,8|4
436,244,122439,5,0
404,172,122653,1,4
324,172,122867,1,8
284,240,123082,1,4
324,308,123296,2,0,B|364:336|404:308,2,80,0|4|8
256,192,124153,12,0,131010
