osu file format v9

[General]
AudioFilename: Yours only.mp3
AudioLeadIn: 1500
PreviewTime: 68896
Countdown: 0
SampleSet: Soft
StackLeniency: 0.7
Mode: 1
LetterboxInBreaks: 0

[Editor]
DistanceSpacing: 0
BeatDivisor: 4
GridSize: 32

[Metadata]
Title:Yours only, feat.WISE ~maison de m-flo~
Artist:Nishino Kana
Creator:S h i a
Version:Boss Sweet Taiko
Source:
Tags:JPOP Shia S_h_i_a bossandy

[Difficulty]
HPDrainRate:6
CircleSize:5
OverallDifficulty:6
ApproachRate:5
SliderMultiplier:1.3
SliderTickRate:1

[Events]
//Background and Video events
0,0,"bgtaiko.jpg"
//Break Periods
//Storyboard Layer 0 (Background)
//Storyboard Layer 1 (Fail)
//Storyboard Layer 2 (Pass)
//Storyboard Layer 3 (Foreground)
//Storyboard Sound Samples
//Background Colour Transformations
3,100,163,162,255

[TimingPoints]
725,428.571428571429,4,2,0,80,1,0
69296,-100,4,2,0,80,0,1
96725,-100,4,2,0,80,0,0

[Colours]
Combo1 : 158,201,239
Combo2 : 255,77,77

[HitObjects]
256,192,725,1,0
256,192,1153,1,0
256,192,1367,1,0
256,192,1582,5,2
256,192,1796,5,0
256,192,2225,1,0
256,192,2653,5,2
256,192,3082,5,0
256,192,3510,5,2
256,192,3939,5,0
256,192,4153,1,0
256,192,4582,5,2
256,192,4796,5,0
256,192,5225,1,0
256,192,5439,5,2
256,192,5653,5,0
256,192,6082,5,2
256,192,6510,5,0
256,192,6939,1,0
256,192,7367,5,2
256,192,7582,5,0
256,192,7796,1,0
256,192,8010,1,2
256,192,8225,5,2
256,192,8653,5,0
256,192,8867,5,2
256,192,9082,5,0
256,192,9510,5,2
256,192,9939,5,0
256,192,10367,5,2
256,192,10796,1,2
256,192,10903,5,0
256,192,11010,1,0
256,192,11225,1,0
256,192,11653,1,0
256,192,11867,5,2
256,192,12189,5,0
256,192,12510,5,2
256,192,12725,5,0
256,192,13046,1,0
256,192,13367,5,2
256,192,13582,5,0
256,192,14010,1,0
256,192,14225,1,0
256,192,14439,1,4
256,192,14759,1,0
256,192,14867,1,0
256,192,15082,1,0
256,192,15296,5,2
256,192,15725,5,0
256,192,15939,1,0
256,192,16153,1,0
256,192,16367,1,0
256,192,16475,1,0
256,192,16796,1,0
256,192,17010,5,2
256,192,17439,5,0
256,192,17546,1,0
256,192,17653,5,2
256,192,17867,5,0
256,192,18296,5,2
256,192,18510,5,0
256,192,18725,1,0
256,192,19153,5,2
256,192,19367,5,0
256,192,19582,1,0
256,192,19796,1,0
256,192,19903,5,2
256,192,20117,5,0
256,192,20225,5,2
256,192,20439,1,2
256,192,20867,1,2
256,192,20975,5,0
256,192,21082,1,0
256,192,21296,1,4
256,192,21725,1,0
256,192,21939,1,0
256,192,22153,5,2
256,192,22367,5,0
256,192,22796,1,0
256,192,23010,5,2
256,192,23225,5,0
256,192,23332,5,2
256,192,23653,1,2
256,192,23867,1,2
256,192,23975,5,0
256,192,24082,1,0
256,192,24296,5,2
256,192,24403,5,0
256,192,24510,1,0
256,192,24725,1,0
256,192,25153,1,0
256,192,25367,1,0
256,192,25582,5,2
256,192,26010,5,0
256,192,26439,5,2
256,192,26653,5,0
256,192,26760,1,0
256,192,27082,1,0
256,192,27296,5,2
256,192,27510,5,0
256,192,27617,5,0
256,192,27725,5,2
256,192,27832,1,2
256,192,27939,1,2
256,192,28153,5,6
256,192,28582,5,0
256,192,28796,1,0
256,192,29010,5,2
256,192,29439,5,0
256,192,29653,1,0
256,192,29867,5,2
256,192,30082,5,0
256,192,30189,1,0
256,192,30510,1,0
256,192,30725,5,2
256,192,31153,5,0
256,192,31260,1,0
256,192,31367,1,0
256,192,31582,5,2
256,192,32010,5,0
256,192,32225,5,2
256,192,32653,1,2
256,192,33082,1,2
256,192,33296,5,0
256,192,33510,1,0
256,192,33617,1,0
256,192,33832,1,0
256,192,33939,1,0
256,192,34153,5,2
256,192,34367,5,0
256,192,34582,5,2
256,192,34689,5,0
256,192,34796,5,2
256,192,35010,5,4
256,192,35225,1,0
256,192,35439,1,0
256,192,35653,1,0
256,192,35867,5,2
256,192,36296,5,0
256,192,36510,1,0
256,192,36725,5,2
256,192,36939,5,0
256,192,37046,1,0
256,192,37367,1,0
256,192,37582,5,2
256,192,37796,5,0
256,192,38010,1,0
256,192,38225,1,0
256,192,38439,1,4
256,192,39082,1,0
256,192,39297,5,2
256,192,39939,1,2
256,192,40153,5,0
256,192,40475,1,0
256,192,40796,1,0
256,192,41010,5,2
256,192,41225,5,0
256,192,41439,5,2
256,192,41546,1,2
256,192,41653,5,0
256,192,41867,1,4
256,192,42296,5,2
256,192,42510,5,0
256,192,42725,5,2
256,192,43153,1,2
256,192,43367,5,0
256,192,43475,1,0
256,192,43582,1,0
256,192,43796,1,0
256,192,43903,1,0
256,192,44117,1,0
256,192,44225,1,0
256,192,44439,5,2
256,192,44867,5,0
256,192,45082,1,0
256,192,45296,5,2
256,192,45725,1,2
256,192,45939,5,0
256,192,46367,1,0
256,192,46582,5,2
256,192,46796,5,0
256,192,46903,1,0
256,192,47010,1,0
256,192,47225,1,0
256,192,47332,1,0
256,192,47546,1,0
256,192,47653,1,0
256,192,47867,5,2
256,192,48082,5,0
256,192,48296,5,2
256,192,48403,1,2
256,192,48510,1,2
256,192,48617,1,2
256,192,48725,5,0
256,192,49153,1,0
256,192,49367,1,0
256,192,49475,1,0
256,192,49582,5,2
256,192,50010,5,0
256,192,50225,5,2
256,192,50439,5,0
256,192,50653,1,0
256,192,50760,1,0
256,192,51082,1,0
256,192,51296,5,2
256,192,51725,1,2
256,192,51939,1,2
256,192,52046,1,2
256,192,52153,5,0
256,192,52367,1,0
256,192,52582,5,2
256,192,52796,5,0
256,192,53010,1,0
256,192,53439,5,2
256,192,53653,5,0
256,192,53867,1,0
256,192,54082,1,0
256,192,54189,1,0
256,192,54510,1,0
256,192,54725,5,2
256,192,55153,5,0
256,192,55367,1,0
256,192,55582,5,2
256,192,55796,5,0
256,192,55903,1,0
256,192,56010,5,2
256,192,56225,5,0
256,192,56439,5,2
256,192,56867,5,0
256,192,57082,5,2
256,192,57296,1,2
256,192,57510,5,0
256,192,57617,1,0
256,192,57939,1,0
256,192,58153,5,2
256,192,58582,5,0
256,192,58689,1,0
256,192,58796,1,0
256,192,59010,5,2
256,192,59439,1,2
256,192,59546,5,0
256,192,59653,1,0
256,192,59867,5,2
256,192,60296,5,0
256,192,60510,5,2
256,192,60725,5,0
256,192,60939,1,0
256,192,61046,1,0
256,192,61260,1,0
256,192,61367,1,0
256,192,61582,5,2
256,192,61796,5,0
256,192,62010,5,2
256,192,62117,1,2
256,192,62225,5,0
256,192,62439,5,4
256,192,63082,5,0
256,192,63296,5,2
256,192,63510,5,0
256,192,63939,5,2
256,192,64153,5,0
256,192,64367,1,0
256,192,64475,1,0
256,192,64796,1,0
256,192,65010,5,2
256,192,65225,5,0
256,192,65332,1,0
256,192,65439,5,2
256,192,65653,1,0
256,192,65867,1,6
256,192,66189,1,2
256,192,66510,5,0
256,192,66725,5,2
256,192,66939,1,2
256,192,67153,5,0
256,192,67367,5,2
256,192,67582,5,0
256,192,67796,1,0
256,192,67903,1,0
256,192,68010,1,2
256,192,68117,1,0
256,192,68225,1,0
256,192,68439,5,2
256,192,68546,5,0
256,192,68653,5,2
256,192,68760,1,2
256,192,68867,1,2
256,192,68975,1,2
256,192,69082,1,2
256,192,69189,1,2
256,192,69296,5,0
256,192,69510,1,0
256,192,69725,5,2
256,192,69939,5,0
256,192,70153,5,2
256,192,70582,1,2
256,192,70796,1,2
256,192,70903,1,2
256,192,71010,5,0
256,192,71225,1,0
256,192,71439,5,2
256,192,71653,5,0
256,192,71760,1,0
256,192,71867,5,2
256,192,72082,5,0
256,192,72296,5,2
256,192,72510,1,2
256,192,72725,5,4
256,192,73153,5,2
256,192,73367,5,0
256,192,73796,1,0
256,192,74010,5,2
256,192,74225,5,0
256,192,74332,1,0
256,192,74439,1,0
256,192,74653,1,0
256,192,74867,5,2
256,192,75082,5,0
256,192,75189,1,0
256,192,75296,5,2
256,192,75510,5,0
256,192,75725,5,2
256,192,75832,1,2
256,192,75939,5,0
256,192,76153,1,4
256,192,76582,5,2
256,192,76796,5,0
256,192,76903,1,0
256,192,77225,1,0
256,192,77332,1,0
256,192,77439,5,2
256,192,77867,5,4
256,192,78082,1,0
256,192,78296,5,2
256,192,78510,5,0
256,192,78617,1,0
256,192,78725,5,2
256,192,78939,5,0
256,192,79153,5,2
256,192,79367,5,0
256,192,79582,1,4
256,192,80010,5,2
256,192,80225,5,0
256,192,80653,1,0
256,192,80867,5,2
256,192,81082,5,0
256,192,81189,1,0
256,192,81296,5,2
256,192,81510,1,2
256,192,81617,5,0
256,192,81832,5,2
256,192,81939,1,2
256,192,82153,1,2
256,192,82367,5,0
256,192,82582,5,2
256,192,82689,5,0
256,192,82796,1,0
256,192,83010,5,6
256,192,83439,1,2
256,192,83653,5,0
256,192,84082,1,0
256,192,84189,1,0
256,192,84296,5,2
256,192,84510,5,0
256,192,84725,1,0
256,192,85153,5,2
256,192,85367,5,0
256,192,85582,5,2
256,192,85689,5,0
256,192,85796,1,0
256,192,86010,5,2
256,192,86225,5,0
256,192,86439,1,4
256,192,86653,1,0
256,192,86867,5,2
256,192,87082,5,0
256,192,87510,1,0
256,192,87725,5,2
256,192,87939,5,0
256,192,88046,1,0
256,192,88153,5,2
256,192,88367,5,0
256,192,88582,5,2
256,192,88796,5,0
256,192,89010,5,2
256,192,89117,5,0
256,192,89225,1,0
256,192,89439,5,2
256,192,89546,1,2
256,192,89653,5,0
256,192,89867,1,4
256,192,90082,1,0
256,192,90296,5,2
256,192,90510,5,0
256,192,90939,1,0
256,192,91153,5,2
256,192,91260,5,0
256,192,91367,5,2
256,192,91582,5,0
256,192,91796,1,0
256,192,91903,1,0
256,192,92010,5,2
256,192,92225,1,2
256,192,92653,5,0
256,192,92867,5,2
256,192,93082,1,2
256,192,93189,1,2
256,192,93296,5,0
256,192,93725,5,2
256,192,93939,5,0
256,192,94367,1,0
256,192,94582,5,2
256,192,94796,5,0
256,192,94903,1,0
256,192,95010,5,2
256,192,95225,5,0
256,192,95332,5,2
256,192,95439,5,0
256,192,95653,5,2
256,192,95867,5,0
256,192,95975,5,2
256,192,96082,1,2
256,192,96189,5,0
256,192,96296,5,2
256,192,96403,5,0
256,192,96510,5,2
256,192,96617,5,0
256,192,96725,1,0
256,192,96939,1,0
256,192,97153,5,2
256,192,97367,5,0
256,192,97582,1,0
256,192,97796,1,0
256,192,97903,1,0
256,192,98010,5,2
256,192,98225,5,0
256,192,98439,1,0
256,192,98653,1,0
256,192,98868,5,2
256,192,98975,5,0
256,192,99082,1,0
256,192,99296,1,0
256,192,99510,5,2
256,192,99725,1,2
256,192,99939,1,2
256,192,100153,5,4
256,192,100367,1,0
256,192,100475,1,0
256,192,100582,5,2
256,192,100796,5,0
256,192,101010,5,2
256,192,101225,1,2
256,192,101439,5,0
256,192,101653,5,2
256,192,101867,5,0
256,192,102082,1,0
256,192,102189,1,0
256,192,102296,5,2
256,192,102403,5,0
256,192,102510,1,0
256,192,102617,1,0
256,192,102725,5,2
256,192,102939,5,0
256,192,103153,5,2
256,192,103260,1,2
256,192,103367,1,0
256,192,103582,5,4
256,192,104010,5,2
256,192,104225,5,0
256,192,104439,1,0
256,192,104653,1,0
256,192,104867,5,2
256,192,105082,1,2
256,192,105296,5,0
256,192,105510,1,0
256,192,105617,1,0
256,192,105725,5,2
256,192,105832,5,0
256,192,105939,1,0
256,192,106046,1,0
256,192,106153,5,2
256,192,106367,1,2
256,192,106582,1,2
256,192,106796,1,2
256,192,107010,5,4
256,192,107225,1,0
256,192,107439,5,2
256,192,107653,5,0
256,192,107760,1,0
256,192,108082,1,0
256,192,108296,5,2
256,192,108510,5,0
256,192,108617,1,0
256,192,108725,1,0
256,192,108939,1,0
256,192,109153,5,2
256,192,109367,5,0
256,192,109582,5,2
256,192,109796,5,0
256,192,110010,5,2
256,192,110225,5,0
256,192,110332,1,0
256,192,110439,1,0
256,192,110653,1,0
256,192,110867,5,2
256,192,111082,1,2
256,192,111296,5,0
256,192,111510,1,0
256,192,111617,1,0
256,192,111725,5,2
256,192,112153,5,0
256,192,112367,1,0
256,192,112582,5,2
256,192,112796,5,0
256,192,112903,5,2
256,192,113225,1,2
256,192,113439,1,2
256,192,113653,1,2
256,192,113867,5,0
256,192,114296,5,2
256,192,114510,5,0
256,192,114939,1,0
256,192,115046,1,0
256,192,115153,5,2
256,192,115367,1,2
256,192,115582,5,0
256,192,115796,5,2
256,192,116010,5,0
256,192,116117,1,0
256,192,116225,5,2
256,192,116439,5,0
256,192,116653,5,2
256,192,116760,5,0
256,192,116867,5,2
256,192,116975,1,2
256,192,117082,5,0
256,192,117189,1,0
256,192,117296,1,0
256,192,117510,1,0
256,192,117725,5,2
256,192,117939,5,0
256,192,118367,1,0
256,192,118582,5,2
256,192,118796,5,0
256,192,118903,1,0
256,192,119010,1,0
256,192,119225,1,0
256,192,119439,5,2
256,192,119653,5,0
256,192,119975,5,2
256,192,120082,5,0
256,192,120296,5,2
256,192,120510,1,2
256,192,120617,1,2
256,192,120725,5,0
256,192,120939,1,0
256,192,121153,5,2
256,192,121367,5,0
256,192,121796,1,0
256,192,122010,5,2
256,192,122225,5,0
256,192,122332,1,0
256,192,122439,5,2
256,192,122653,5,0
256,192,122760,1,0
256,192,122867,5,2
256,192,123082,5,0
256,192,123189,1,0
256,192,123296,5,2
256,192,123403,1,2
256,192,123510,5,0
256,192,123617,5,2
256,192,123725,1,2
256,192,123939,1,2
256,192,124153,5,4
256,192,124367,12,0,131010
