osu file format v12

[General]
AudioFilename: Nishino Kana - Where are you.mp3
AudioLeadIn: 2000
PreviewTime: 125435
Countdown: 0
SampleSet: Soft
StackLeniency: 0.7
Mode: 0
LetterboxInBreaks: 1
WidescreenStoryboard: 1

[Editor]
Bookmarks: 133239
DistanceSpacing: 1
BeatDivisor: 4
GridSize: 8

[Metadata]
Title:Where are you?
TitleUnicode:Where are you?
Artist:Nishino Kana
ArtistUnicode:Nishino Kana
Creator:lightr
Version:Normal
Source:
Tags:pop Love Thank You
BeatmapID:293939
BeatmapSetID:113289

[Difficulty]
HPDrainRate:4
CircleSize:3
OverallDifficulty:4
ApproachRate:5
SliderMultiplier:1.1
SliderTickRate:1

[Events]
//Background and Video events
0,0,"BG.jpg",0,0
//Break Periods
2,125146,132039
//Storyboard Layer 0 (Background)
//Storyboard Layer 1 (Fail)
//Storyboard Layer 2 (Pass)
//Storyboard Layer 3 (Foreground)
//Storyboard Sound Samples
//Background Colour Transformations
3,100,163,162,255

[TimingPoints]
557,487.80487804878,4,1,0,100,1,0
16166,-100,4,2,0,50,0,0
39581,-100,4,2,0,65,0,0
69337,-100,4,2,0,50,0,0
94215,-100,4,2,0,80,0,1
123971,-100,4,2,0,50,0,0
141044,-100,4,2,0,20,0,0
142996,-100,4,2,0,80,0,1
173727,-100,4,2,0,50,0,0

[Colours]
Combo1 : 253,43,126
Combo2 : 254,156,254
Combo3 : 108,253,206

[HitObjects]
104,312,16166,2,0,B|136:312|160:352|184:312|216:312,2,110,0|2|0,0:0|0:0|0:0,0:0:0:0:
88,200,17630,1,2,0:0:0:0:
192,176,18117,1,0,0:0:0:0:
168,72,18605,1,2,0:0:0:0:
264,16,19093,2,2,L|392:16,1,110
328,120,20069,5,0,0:0:0:0:
304,224,20556,1,2,0:0:0:0:
208,280,21044,1,0,0:0:0:0:
112,232,21532,2,0,L|112:120,4,110,2|0|2|0|2,0:0|0:0|0:0|0:0|0:0,0:0:0:0:
24,296,23971,6,0,P|112:352|208:280,1,220
256,200,25435,1,2,0:0:0:0:
368,192,25922,1,2,0:0:0:0:
408,88,26410,2,0,P|368:40|312:16,1,110,2|0,0:0|0:0,0:0:0:0:
216,16,27386,2,0,P|176:64|120:88,1,110,2|0,0:0|0:0,0:0:0:0:
136,192,28361,5,2,0:0:0:0:
136,192,28849,2,0,P|200:256|288:184,2,220
72,56,31288,5,2,0:0:0:0:
184,56,31776,1,0,0:0:0:0:
264,128,32264,2,0,L|336:128,1,55,2|0,0:0|0:0,0:0:0:0:
384,216,32996,1,2,0:0:0:0:
336,312,33483,2,0,L|224:312,2,110,0|0|2,0:0|0:0|0:0,0:0:0:0:
448,312,34947,1,2,0:0:0:0:
414,97,35435,5,0,0:0:0:0:
368,96,35678,2,0,L|288:96,2,55,0|2|2,0:0|0:0|0:0,0:0:0:0:
280,136,36410,2,0,L|280:200,2,55,0|2|2,0:0|0:0|0:0,0:0:0:0:
320,224,37142,2,0,L|400:224,2,55,2|2|2,0:0|0:0|0:0,0:0:0:0:
256,192,37874,12,0,39337,0:0:0:0:
76,85,39581,6,0,L|96:159,1,55
72,184,40069,2,0,L|93:257,1,55,8|0,0:0|0:0,0:0:0:0:
71,284,40556,1,0,0:0:0:0:
176,304,41044,6,0,L|250:284,1,55,8|0,0:0|0:0,0:0:0:0:
260,252,41532,2,0,L|333:233,1,55
346,202,42019,1,8,0:0:0:0:
368,96,42508,5,0,0:0:0:0:
272,144,42996,1,8,0:0:0:0:
176,176,43483,2,0,L|108:209,1,55
82,239,43971,2,0,P|141:281|193:285,1,110,8|0,0:0|0:0,0:0:0:0:
288,288,44947,2,0,P|353:257|383:214,1,110,8|0,0:0|0:0,0:0:0:0:
280,184,45922,5,8,0:0:0:0:
280,184,46410,2,0,P|240:144|176:120,1,110,0|8,0:0|0:0,0:0:0:0:
80,136,47386,2,0,L|80:248,1,110,0|8,0:0|0:0,0:0:0:0:
80,280,48117,1,0,0:0:0:0:
200,192,48849,6,0,P|256:176|312:200,2,110,8|0|8,0:0|0:0|0:0,0:0:0:0:
152,200,50069,1,0,0:0:0:0:
104,224,50313,2,0,P|128:264|200:296,1,110,0|8,0:0|0:0,0:0:0:0:
296,288,51288,1,0,0:0:0:0:
400,256,51776,1,8,0:0:0:0:
448,160,52264,1,0,0:0:0:0:
392,64,52752,2,0,P|288:64|200:152,1,220,0|8,0:0|0:0,0:0:0:0:
320,160,54215,5,0,0:0:0:0:
352,264,54703,1,8,0:0:0:0:
248,296,55191,1,0,0:0:0:0:
136,296,55678,2,0,L|136:224,1,55,8|0,0:0|0:0,0:0:0:0:
136,128,56410,1,0,0:0:0:0:
136,88,56654,2,0,P|200:64|248:88,1,110,8|0,0:0|0:0,0:0:0:0:
216,184,57630,6,0,P|272:200|336:184,1,110,8|0,0:0|0:0,0:0:0:0:
432,168,58605,2,0,P|456:232|440:288,1,110,8|0,0:0|0:0,0:0:0:0:
336,272,59581,1,8,0:0:0:0:
224,288,60069,1,0,0:0:0:0:
224,288,60556,2,0,P|160:288|112:256,2,110,0|0|8,0:0|0:0|0:0,0:0:0:0:
192,184,62020,5,0,0:0:0:0:
224,80,62508,1,8,0:0:0:0:
320,32,62996,2,0,L|360:72,1,55
368,112,63483,2,0,L|416:160,1,55,8|0,0:0|0:0,0:0:0:0:
264,256,64459,5,8,0:0:0:0:
176,192,64947,1,8,0:0:0:0:
64,192,65435,2,0,P|48:240|64:296,1,110,8|8,0:0|0:0,0:0:0:0:
160,248,66410,5,8,0:0:0:0:
272,248,66898,2,0,L|344:248,1,55
368,248,67386,2,0,L|432:248,1,55,8|0,0:0|0:0,0:0:0:0:
432,96,68361,2,0,P|376:72|328:104,2,110,8|0|0,0:0|0:0|0:0,0:0:0:0:
384,192,69581,1,2,0:0:0:0:
384,232,69825,2,0,L|384:352,1,110,2|12,0:0|0:0,0:0:0:0:
264,296,70800,6,0,P|216:320|160:288,2,110,0|2|0,0:0|0:0|0:0,0:0:0:0:
216,208,72264,1,2,0:0:0:0:
152,120,72752,1,0,0:0:0:0:
232,40,73239,2,0,L|344:40,1,110,2|0,0:0|0:0,0:0:0:0:
408,128,74215,2,0,L|272:128,1,110,2|0,0:0|0:0,0:0:0:0:
240,224,75191,5,2,0:0:0:0:
312,304,75678,1,0,0:0:0:0:
384,224,76166,1,2,0:0:0:0:
312,120,76654,2,0,B|240:136|240:136|168:120|168:120|88:120,2,220
416,152,79093,5,2,0:0:0:0:
416,264,79581,1,0,0:0:0:0:
328,328,80069,2,0,L|200:328,1,110,2|0,0:0|0:0,0:0:0:0:
152,240,81044,1,2,0:0:0:0:
256,200,81532,1,0,0:0:0:0:
344,128,82020,2,0,P|312:96|152:144,1,220,2|2,0:0|0:0,0:0:0:0:
256,200,83483,6,0,L|256:312,1,110,0|2,0:0|0:0,0:0:0:0:
360,272,84459,1,0,0:0:0:0:
360,272,84947,2,0,L|480:272,2,110,2|0|2,0:0|0:0|0:0,0:0:0:0:
184,208,86410,5,0,0:0:0:0:
296,208,86898,1,2,0:0:0:0:
400,168,87386,1,0,0:0:0:0:
400,56,87874,1,2,0:0:0:0:
296,32,88361,2,0,P|240:48|200:96,2,110,0|2|0,0:0|0:0|0:0,0:0:0:0:
304,144,89825,5,2,0:0:0:0:
344,248,90313,2,0,L|280:248,2,55,0|2|0,0:0|0:0|0:0,0:0:0:0:
248,272,91044,2,0,L|248:328,2,55,0|2|0,0:0|0:0|0:0,0:0:0:0:
288,352,91776,2,0,L|344:352,2,55,0|2|0,0:0|0:0|0:0,0:0:0:0:
256,192,92508,12,0,93971,0:0:0:0:
144,272,94215,6,0,L|208:248,1,55
248,256,94703,2,0,L|320:232,1,55,8|0,0:0|0:0,0:0:0:0:
352,240,95191,1,0,0:0:0:0:
328,136,95678,6,0,L|264:160,1,55,8|0,0:0|0:0,0:0:0:0:
224,152,96166,2,0,L|152:176,1,55
120,168,96654,1,8,0:0:0:0:
72,304,97142,5,0,0:0:0:0:
184,296,97630,1,8,0:0:0:0:
288,272,98117,2,0,L|360:240,1,55
368,216,98605,2,0,L|408:160,1,55,8|0,0:0|0:0,0:0:0:0:
400,128,99093,1,0,0:0:0:0:
392,32,99581,2,0,P|280:56|184:128,1,220,8|8,0:0|0:0,0:0:0:0:
256,208,101044,5,0,0:0:0:0:
208,304,101532,1,8,0:0:0:0:
96,320,102020,2,0,P|112:256|152:208,2,110,0|8|0,0:0|0:0|0:0,0:0:0:0:
208,304,103483,1,8,0:0:0:0:
280,224,103971,2,0,P|310:269|321:323,2,110,0|8|0,0:0|0:0|0:0,0:0:0:0:
184,176,105435,6,0,P|224:136|288:112,1,110,8|0,0:0|0:0,0:0:0:0:
384,104,106410,1,8,0:0:0:0:
480,160,106898,1,0,0:0:0:0:
488,272,107386,2,0,P|408:336|288:320,1,220,8|8,0:0|0:0,0:0:0:0:
368,224,108849,5,0,0:0:0:0:
320,128,109337,1,8,0:0:0:0:
224,80,109825,1,0,0:0:0:0:
112,96,110313,2,0,L|56:128,1,55,8|0,0:0|0:0,0:0:0:0:
112,264,111044,1,0,0:0:0:0:
144,296,111288,2,0,P|240:336|352:280,1,220,8|8,0:0|0:0,0:0:0:0:
240,224,112752,5,0,0:0:0:0:
304,136,113239,1,8,0:0:0:0:
400,80,113727,2,0,P|464:104|488:144,1,110,0|8,0:0|0:0,0:0:0:0:
488,248,114703,1,0,0:0:0:0:
384,216,115191,2,0,P|336:200|264:224,2,110,8|0|8,0:0|0:0|0:0,0:0:0:0:
328,312,116654,5,0,0:0:0:0:
216,328,117142,1,8,0:0:0:0:
120,272,117630,2,0,L|72:232,1,55
48,192,118117,2,0,L|48:120,1,55,8|0,0:0|0:0,0:0:0:0:
232,32,119093,6,0,L|280:72,1,55,8|0,0:0|0:0,0:0:0:0:
288,112,119581,1,0,0:0:0:0:
288,160,119825,2,0,L|288:296,1,110
112,296,121044,5,8,0:0:0:0:
112,184,121532,2,0,L|112:112,1,55
112,72,122020,2,0,L|112:16,1,55,8|0,0:0|0:0,0:0:0:0:
288,40,122996,2,0,L|288:96,1,55,8|0,0:0|0:0,0:0:0:0:
288,144,123483,2,0,L|288:208,1,55,0|2,0:0|0:0,0:0:0:0:
424,288,124215,5,2,0:0:0:0:
384,288,124459,2,0,P|336:304|272:288,1,110,2|12,0:0|0:0,0:0:0:0:
120,80,133239,5,0,0:0:0:0:
120,192,133727,1,8,0:0:0:0:
184,280,134215,1,0,0:0:0:0:
288,312,134703,2,0,L|408:312,1,110,8|0,0:0|0:0,0:0:0:0:
496,264,135678,5,8,0:0:0:0:
496,152,136166,1,0,0:0:0:0:
432,64,136654,1,8,0:0:0:0:
328,32,137142,2,0,L|208:32,1,110,0|8,0:0|0:0,0:0:0:0:
176,72,137874,1,0,0:0:0:0:
112,160,138361,2,0,L|112:288,1,110
256,192,139093,12,0,141044,0:0:0:0:
136,256,141776,5,2,0:0:0:0:
176,256,142020,2,0,L|288:256,1,110,2|4,0:0|0:0,0:0:0:0:
376,192,142996,2,0,L|368:128,1,55
352,88,143483,2,0,P|312:48|248:32,1,110,8|0,0:0|0:0,0:0:0:0:
179,122,144459,6,0,L|241:165,1,55,8|0,0:0|0:0,0:0:0:0:
272,152,144947,2,0,L|333:195,1,55
366,186,145434,1,8,0:0:0:0:
392,296,145923,5,0,0:0:0:0:
296,344,146411,1,8,0:0:0:0:
208,272,146898,1,0,0:0:0:0:
160,184,147386,2,0,P|208:160|272:160,1,110,8|0,0:0|0:0,0:0:0:0:
312,176,148117,1,0,0:0:0:0:
352,208,148361,2,0,P|368:296|264:360,1,220,8|8,0:0|0:0,0:0:0:0:
248,256,149825,5,0,0:0:0:0:
160,184,150313,1,8,0:0:0:0:
200,80,150800,2,0,P|264:64|328:88,2,110,0|8|0,0:0|0:0|0:0,0:0:0:0:
256,168,152264,1,8,0:0:0:0:
312,264,152752,2,0,P|248:280|184:256,2,110,0|8|0,0:0|0:0|0:0,0:0:0:0:
408,208,154215,6,0,P|368:176|352:120,1,110,8|0,0:0|0:0,0:0:0:0:
336,16,155191,1,8,0:0:0:0:
240,72,155678,1,0,0:0:0:0:
160,144,156166,2,0,P|112:232|192:296,1,220,8|8,0:0|0:0,0:0:0:0:
184,216,157630,5,0,0:0:0:0:
288,192,158117,1,8,0:0:0:0:
392,144,158605,1,0,0:0:0:0:
440,48,159093,2,0,L|368:48,1,55,8|0,0:0|0:0,0:0:0:0:
232,48,159825,5,0,0:0:0:0:
184,64,160069,2,0,P|88:104|56:216,1,220,8|8,0:0|0:0,0:0:0:0:
168,176,161532,1,0,0:0:0:0:
256,240,162020,1,8,0:0:0:0:
352,296,162508,2,0,P|424:304|464:288,1,110,0|8,0:0|0:0,0:0:0:0:
400,200,163483,1,0,0:0:0:0:
352,104,163971,2,0,P|312:144|288:208,2,110,8|0|8,0:0|0:0|0:0,0:0:0:0:
264,40,165435,5,0,0:0:0:0:
168,88,165922,1,8,0:0:0:0:
112,184,166410,2,0,L|112:256,1,55
112,296,166898,2,0,L|112:360,1,55,8|0,0:0|0:0,0:0:0:0:
280,344,167874,2,0,L|280:280,1,55,8|0,0:0|0:0,0:0:0:0:
280,232,168361,1,0,0:0:0:0:
280,176,168605,2,0,L|280:64,1,110
480,192,169825,5,8,0:0:0:0:
384,240,170313,2,0,L|312:248,1,55
272,248,170800,2,0,L|208:240,1,55,8|0,0:0|0:0,0:0:0:0:
96,128,171776,2,0,L|152:120,1,55,8|0,0:0|0:0,0:0:0:0:
200,120,172264,2,0,L|272:128,1,55,0|2,0:0|0:0,0:0:0:0:
352,256,172996,5,2,0:0:0:0:
400,240,173239,2,0,P|448:208|480:152,1,110,2|12,0:0|0:0,0:0:0:0:
