osu file format v12

[General]
AudioFilename: Nishino Kana - Where are you.mp3
AudioLeadIn: 2000
PreviewTime: 125435
Countdown: 0
SampleSet: Normal
StackLeniency: 0.7
Mode: 0
LetterboxInBreaks: 1
WidescreenStoryboard: 0

[Editor]
Bookmarks: 133239
DistanceSpacing: 1
BeatDivisor: 4
GridSize: 8

[Metadata]
Title:Where are you?
TitleUnicode:Where are you?
Artist:Nishino Kana
ArtistUnicode:Nishino Kana
Creator:lightr
Version:Insane
Source:
Tags:pop Love Thank You
BeatmapID:293938
BeatmapSetID:113289

[Difficulty]
HPDrainRate:7
CircleSize:4
OverallDifficulty:7
ApproachRate:8
SliderMultiplier:1.8
SliderTickRate:1

[Events]
//Background and Video events
0,0,"BG.jpg",0,0
//Break Periods
2,757,12977
2,125146,132489
//Storyboard Layer 0 (Background)
//Storyboard Layer 1 (Fail)
//Storyboard Layer 2 (Pass)
//Storyboard Layer 3 (Foreground)
//Storyboard Sound Samples
//Background Colour Transformations
3,100,163,162,255

[TimingPoints]
557,487.80487804878,4,1,0,100,1,0
15678,-100,4,2,0,50,0,0
16166,-100,4,2,0,50,0,0
39581,-100,4,2,0,65,0,0
70313,-100,4,2,0,50,0,0
94215,-100,4,2,0,80,0,1
123971,-100,4,2,0,50,0,0
141044,-100,4,2,0,20,0,0
141532,-133.333333333333,4,2,0,50,0,0
142996,-100,4,2,0,80,0,1
173727,-100,4,2,0,50,0,0

[Colours]
Combo1 : 253,43,126
Combo2 : 254,156,254
Combo3 : 108,253,206

[HitObjects]
256,192,557,1,4,0:0:0:0:
256,192,13727,12,12,15678,0:0:0:0:
64,256,16166,6,0,L|128:320,1,90
192,248,16654,1,2,0:0:0:0:
264,304,16898,1,0,0:0:0:0:
336,248,17142,1,0,0:0:0:0:
400,304,17386,1,0,0:0:0:0:
472,248,17630,2,0,P|512:160|448:88,1,180,2|0,0:0|0:0,0:0:0:0:
256,24,18361,6,0,B|304:24|304:24|352:48,2,90,0|2|0,0:0|0:0|0:0,0:0:0:0:
184,112,19093,1,0,0:0:0:0:
328,112,19337,1,0,0:0:0:0:
256,184,19581,2,0,P|232:272|272:360,1,180,2|0,0:0|0:0,0:0:0:0:
360,264,20313,1,0,0:0:0:0:
360,264,20556,2,0,L|456:264,1,90,2|0,0:0|0:0,0:0:0:0:
432,120,21044,1,0,0:0:0:0:
368,32,21288,1,0,0:0:0:0:
304,120,21532,2,0,P|256:120|208:152,1,90,2|0,0:0|0:0,0:0:0:0:
184,248,22020,5,0,0:0:0:0:
104,96,22264,1,0,0:0:0:0:
184,248,22508,2,0,P|232:248|280:216,1,90,2|0,0:0|0:0,0:0:0:0:
268,228,23239,5,0,0:0:0:0:
376,256,23483,1,2,0:0:0:0:
448,336,23727,1,0,0:0:0:0:
448,336,23849,1,0,0:0:0:0:
448,336,23971,2,0,P|416:376|352:368,1,90
288,328,24459,5,2,0:0:0:0:
192,280,24703,1,0,0:0:0:0:
256,208,24947,1,0,0:0:0:0:
152,168,25191,1,0,0:0:0:0:
56,112,25435,2,0,P|136:56|216:72,1,180,2|0,0:0|0:0,0:0:0:0:
408,144,26166,5,0,0:0:0:0:
408,144,26288,1,0,0:0:0:0:
408,144,26410,2,0,P|424:192|408:232,1,90,2|0,0:0|0:0,0:0:0:0:
328,296,26898,1,0,0:0:0:0:
216,296,27142,1,0,0:0:0:0:
152,208,27386,2,0,P|112:200|64:216,2,90,2|0|0,0:0|0:0|0:0,0:0:0:0:
416,320,28361,6,0,P|408:256|432:216,1,90,2|0,0:0|0:0,0:0:0:0:
496,232,28849,2,0,P|424:240|344:176,1,180,0|2,0:0|0:0,0:0:0:0:
440,144,29581,1,0,0:0:0:0:
440,144,29825,2,0,L|480:56,1,90
360,40,30313,2,0,L|320:128,1,90,2|0,0:0|0:0,0:0:0:0:
240,288,31044,5,0,0:0:0:0:
160,240,31288,1,2,0:0:0:0:
64,128,31532,1,0,0:0:0:0:
64,128,31654,1,0,0:0:0:0:
64,128,31776,2,0,L|64:24,1,90
192,88,32264,1,0,0:0:0:0:
192,200,32508,1,2,0:0:0:0:
192,200,32996,1,2,0:0:0:0:
192,200,33483,6,0,L|192:312,1,90,0|0,0:0|0:0,0:0:0:0:
320,184,33971,2,0,L|320:72,2,90,0|0|2,0:0|0:0|0:0,0:0:0:0:
320,184,34947,1,2,0:0:0:0:
320,288,35435,2,0,P|280:280|216:296,1,90,0|4,0:0|0:0,0:0:0:0:
104,320,35922,5,0,0:0:0:0:
232,288,36166,1,4,0:0:0:0:
104,232,36410,1,0,0:0:0:0:
232,200,36654,1,4,0:0:0:0:
104,144,36898,1,0,0:0:0:0:
232,112,37142,1,4,0:0:0:0:
104,56,37386,1,0,0:0:0:0:
232,24,37630,5,4,0:0:0:0:
264,32,37752,1,0,0:0:0:0:
296,48,37874,1,0,0:0:0:0:
320,64,37996,1,0,0:0:0:0:
344,88,38117,5,4,0:0:0:0:
368,112,38239,1,0,0:0:0:0:
384,136,38361,1,0,0:0:0:0:
400,160,38483,1,0,0:0:0:0:
416,192,38605,5,4,0:0:0:0:
424,224,38727,1,0,0:0:0:0:
424,256,38849,2,0,L|424:312,5,45,0|0|4|0|0|0,0:0|0:0|0:0|0:0|0:0|0:0,0:0:0:0:
424,336,39581,5,0,0:0:0:0:
264,312,39825,1,0,0:0:0:0:
128,208,40069,1,8,0:0:0:0:
128,208,40313,2,0,P|176:200|232:208,1,90,0|0,0:0|0:0,0:0:0:0:
480,320,41044,1,8,0:0:0:0:
432,224,41288,1,0,0:0:0:0:
360,144,41532,1,0,0:0:0:0:
264,104,41776,2,0,P|256:160|264:200,1,90,0|8,0:0|0:0,0:0:0:0:
392,112,42508,5,0,0:0:0:0:
472,184,42752,1,0,0:0:0:0:
472,184,42996,2,0,P|464:224|416:264,1,90,8|0,0:0|0:0,0:0:0:0:
384,192,43483,2,0,P|393:148|425:117,1,90
432,256,43971,2,0,P|424:296|376:336,1,90,8|0,0:0|0:0,0:0:0:0:
216,264,44459,1,0,0:0:0:0:
88,264,44703,1,0,0:0:0:0:
0,168,44947,2,0,B|32:112|32:112|88:112|136:32,1,180,8|0,0:0|0:0,0:0:0:0:
360,176,45922,5,8,0:0:0:0:
456,224,46166,1,0,0:0:0:0:
456,224,46288,1,0,0:0:0:0:
456,224,46410,2,0,P|432:280|400:304,2,90,0|0|8,0:0|0:0|0:0,0:0:0:0:
456,224,47142,5,0,0:0:0:0:
456,120,47386,1,0,0:0:0:0:
360,176,47630,1,0,0:0:0:0:
288,256,47874,1,8,0:0:0:0:
216,336,48117,2,0,B|160:336|160:336|152:280|72:240,1,180
48,208,48727,5,0,0:0:0:0:
48,208,48849,1,8,0:0:0:0:
184,144,49093,1,0,0:0:0:0:
48,96,49337,1,0,0:0:0:0:
184,32,49581,1,2,0:0:0:0:
392,136,50069,5,0,0:0:0:0:
392,136,50313,2,0,P|408:184|408:240,1,90,0|0,0:0|0:0,0:0:0:0:
408,248,50678,1,0,0:0:0:0:
392,280,50800,2,0,B|360:312|360:312|296:288|208:328,1,180,8|0,0:0|0:0,0:0:0:0:
136,352,51532,5,0,0:0:0:0:
64,280,51776,1,8,0:0:0:0:
24,192,52020,2,0,P|8:144|32:96,1,90,0|0,0:0|0:0,0:0:0:0:
144,144,52508,1,0,0:0:0:0:
272,144,52752,2,0,P|184:96|144:160,2,180,8|0|8,0:0|0:0|0:0,0:0:0:0:
288,248,53971,6,0,P|256:304|224:320,1,90
176,208,54459,2,0,P|208:152|240:136,1,90,0|8,0:0|0:0,0:0:0:0:
344,120,54947,2,0,P|392:136|424:168,2,90
152,304,55922,5,0,0:0:0:0:
152,304,56410,1,0,0:0:0:0:
288,256,56654,2,0,B|336:344|384:296|384:296|464:296,2,180,8|0|8,0:0|0:0|0:0,0:0:0:0:
408,192,57874,2,0,P|400:144|368:96,1,90
304,24,58361,1,0,0:0:0:0:
304,24,58483,1,0,0:0:0:0:
304,24,58605,2,0,B|248:16|216:80|184:16|112:24,2,180,8|0|8,0:0|0:0|0:0,0:0:0:0:
176,136,59825,5,0,0:0:0:0:
336,136,60069,1,0,0:0:0:0:
256,264,60313,1,0,0:0:0:0:
256,264,60556,2,0,P|336:304|416:256,1,180,8|0,0:0|0:0,0:0:0:0:
336,192,61288,5,0,0:0:0:0:
336,160,61410,1,0,0:0:0:0:
336,128,61532,1,8,0:0:0:0:
256,48,61776,1,0,0:0:0:0:
256,48,62020,2,0,P|208:40|136:64,1,90
80,160,62508,2,0,P|128:168|200:144,1,90,8|0,0:0|0:0,0:0:0:0:
368,104,62996,5,0,0:0:0:0:
432,168,63239,1,0,0:0:0:0:
480,240,63483,1,8,0:0:0:0:
512,320,63727,2,0,P|488:352|432:368,1,90,4|0,0:0|0:0,0:0:0:0:
144,304,64459,5,0,0:0:0:0:
80,240,64702,1,0,0:0:0:0:
32,168,64946,1,8,0:0:0:0:
0,80,65191,2,0,P|24:48|80:32,1,90,4|0,0:0|0:0,0:0:0:0:
256,192,65922,5,8,0:0:0:0:
336,120,66166,1,0,0:0:0:0:
336,120,66288,1,0,0:0:0:0:
336,120,66410,2,0,P|376:104|416:128,1,90,8|0,0:0|0:0,0:0:0:0:
384,240,66898,1,12,0:0:0:0:
312,296,67142,1,0,0:0:0:0:
200,296,67386,1,8,0:0:0:0:
128,240,67630,1,4,0:0:0:0:
256,192,68117,5,0,0:0:0:0:
384,144,68361,1,12,0:0:0:0:
312,88,68605,1,0,0:0:0:0:
200,88,68849,1,0,0:0:0:0:
128,144,69093,1,2,0:0:0:0:
256,296,69581,1,2,0:0:0:0:
256,296,69825,2,0,B|344:344|344:240|440:304,1,180,2|12,0:0|0:0,0:0:0:0:
416,72,70800,6,0,P|368:56|320:80,1,90
304,96,71166,1,0,0:0:0:0:
304,96,71288,1,2,0:0:0:0:
224,160,71532,1,0,0:0:0:0:
224,256,71776,1,0,0:0:0:0:
304,320,72020,1,0,0:0:0:0:
456,208,72264,2,0,L|264:208,1,180,2|0,0:0|0:0,0:0:0:0:
128,64,72996,5,0,0:0:0:0:
128,64,73117,1,0,0:0:0:0:
128,64,73239,2,0,L|232:64,1,90,2|0,0:0|0:0,0:0:0:0:
304,112,73727,1,0,0:0:0:0:
304,208,73971,1,0,0:0:0:0:
216,160,74215,2,0,P|144:136|48:168,1,180,2|0,0:0|0:0,0:0:0:0:
136,232,74947,5,0,0:0:0:0:
136,232,75191,2,0,L|136:336,1,90,2|0,0:0|0:0,0:0:0:0:
256,320,75678,1,0,0:0:0:0:
136,320,75922,1,0,0:0:0:0:
256,320,76166,2,0,P|296:336|352:296,1,90,2|0,0:0|0:0,0:0:0:0:
368,232,76654,1,0,0:0:0:0:
368,144,76898,1,0,0:0:0:0:
368,56,77142,2,0,P|328:40|280:56,1,90,2|0,0:0|0:0,0:0:0:0:
284,52,77874,5,0,0:0:0:0:
184,120,78117,1,2,0:0:0:0:
128,232,78361,1,0,0:0:0:0:
128,232,78483,1,0,0:0:0:0:
128,232,78605,1,0,0:0:0:0:
176,320,78849,1,0,0:0:0:0:
224,232,79093,1,2,0:0:0:0:
320,232,79337,1,0,0:0:0:0:
280,144,79581,1,0,0:0:0:0:
376,144,79825,1,0,0:0:0:0:
328,56,80069,2,0,B|264:48|248:16|248:16|232:48|152:64,1,180,2|0,0:0|0:0,0:0:0:0:
88,184,80800,6,0,L|112:144,1,45
160,208,81044,2,0,P|208:216|248:248,1,90,2|0,0:0|0:0,0:0:0:0:
224,336,81532,1,0,0:0:0:0:
336,216,81776,1,0,0:0:0:0:
448,336,82020,2,0,P|408:320|352:352,2,90,2|0|0,0:0|0:0|0:0,0:0:0:0:
448,80,82996,6,0,P|400:80|352:120,1,90,2|0,0:0|0:0,0:0:0:0:
424,160,83483,2,0,P|344:192|272:104,1,180,0|2,0:0|0:0,0:0:0:0:
256,32,84215,1,0,0:0:0:0:
256,32,84459,2,0,P|200:80|184:112,1,90
128,232,84947,2,0,P|184:184|200:152,1,90,4|0,0:0|0:0,0:0:0:0:
440,248,85678,5,0,0:0:0:0:
376,320,85922,1,2,0:0:0:0:
344,224,86166,1,0,0:0:0:0:
344,224,86288,1,0,0:0:0:0:
344,224,86410,2,0,L|272:160,1,90
200,104,86898,1,0,0:0:0:0:
120,40,87142,1,2,0:0:0:0:
120,40,87630,1,2,0:0:0:0:
120,40,88117,5,2,0:0:0:0:
48,112,88361,2,0,L|120:176,1,90
120,296,88849,2,0,L|48:232,1,90,0|2,0:0|0:0,0:0:0:0:
52,236,89581,1,2,0:0:0:0:
256,128,90069,5,0,0:0:0:0:
256,128,90313,2,0,B|304:128|304:128|360:144,1,90,4|0,0:0|0:0,0:0:0:0:
256,256,90800,2,0,B|208:256|208:256|152:240,1,90,4|0,0:0|0:0,0:0:0:0:
232,80,91288,2,0,B|280:80|280:80|336:96,1,90,4|0,0:0|0:0,0:0:0:0:
280,304,91776,2,0,B|232:304|232:304|176:288,1,90,4|0,0:0|0:0,0:0:0:0:
80,192,92264,5,4,0:0:0:0:
104,184,92386,1,0,0:0:0:0:
128,192,92508,1,0,0:0:0:0:
152,176,92630,1,0,0:0:0:0:
176,192,92752,5,4,0:0:0:0:
200,184,92874,1,0,0:0:0:0:
224,192,92996,1,0,0:0:0:0:
248,176,93117,1,0,0:0:0:0:
272,192,93239,5,4,0:0:0:0:
296,184,93361,1,0,0:0:0:0:
320,192,93483,1,0,0:0:0:0:
344,176,93605,1,0,0:0:0:0:
368,192,93727,5,4,0:0:0:0:
392,184,93849,1,0,0:0:0:0:
416,192,93971,1,0,0:0:0:0:
440,176,94093,1,0,0:0:0:0:
464,192,94215,5,6,0:0:0:0:
432,296,94459,1,0,0:0:0:0:
328,336,94703,1,8,0:0:0:0:
224,304,94947,2,0,P|208:240|232:192,1,90
112,152,95435,1,0,0:0:0:0:
112,152,95556,1,0,0:0:0:0:
112,152,95678,5,8,0:0:0:0:
144,48,95922,1,0,0:0:0:0:
248,8,96166,1,0,0:0:0:0:
352,40,96410,2,0,P|368:104|344:152,1,90,0|8,0:0|0:0,0:0:0:0:
96,96,97142,5,0,0:0:0:0:
168,192,97386,1,0,0:0:0:0:
168,192,97630,2,0,P|152:232|160:280,1,90,8|0,0:0|0:0,0:0:0:0:
240,248,98117,2,0,P|296:240|336:216,1,90
264,160,98605,2,0,P|248:120|192:96,1,90,8|0,0:0|0:0,0:0:0:0:
264,0,99093,2,0,P|328:40|360:112,1,135
288,144,99581,2,0,P|400:168|440:88,1,180,8|0,0:0|0:0,0:0:0:0:
384,328,100556,5,8,0:0:0:0:
272,320,100800,1,0,0:0:0:0:
240,304,100922,1,0,0:0:0:0:
216,280,101044,2,0,B|168:248|176:200|176:200|128:200|96:136,1,180,0|8,0:0|0:0,0:0:0:0:
107,156,101776,5,0,0:0:0:0:
176,72,102020,1,0,0:0:0:0:
272,24,102264,1,0,0:0:0:0:
448,104,102508,1,8,0:0:0:0:
336,112,102752,2,0,L|360:232,1,90
376,304,103239,5,0,0:0:0:0:
376,304,103361,1,0,0:0:0:0:
376,304,103483,2,0,P|336:336|280:320,1,90,8|0,0:0|0:0,0:0:0:0:
224,280,103971,2,0,P|264:248|320:264,1,90,0|2,0:0|0:0,0:0:0:0:
456,160,104703,5,0,0:0:0:0:
392,80,104947,2,0,P|352:40|296:32,1,90,0|0,0:0|0:0,0:0:0:0:
288,32,105313,1,0,0:0:0:0:
256,32,105435,2,0,B|176:80|176:8|72:64,1,180,8|0,0:0|0:0,0:0:0:0:
80,176,106166,5,0,0:0:0:0:
104,288,106410,1,8,0:0:0:0:
200,360,106654,2,0,P|248:360|304:312,1,90
208,240,107142,1,0,0:0:0:0:
208,240,107386,2,0,P|280:200|376:232,2,180,8|0|8,0:0|0:0|0:0,0:0:0:0:
160,128,108605,6,0,P|208:120|248:64,1,90
336,64,109093,1,0,0:0:0:0:
408,120,109337,1,8,0:0:0:0:
448,200,109581,2,0,P|448:296|368:352,1,180,0|2,0:0|0:0,0:0:0:0:
272,216,110556,5,0,0:0:0:0:
272,216,111044,1,0,0:0:0:0:
144,216,111288,2,0,P|232:168|272:232,2,180,8|0|8,0:0|0:0|0:0,0:0:0:0:
184,312,112508,2,0,P|232:344|280:336,1,90
368,312,112996,1,0,0:0:0:0:
368,312,113117,1,0,0:0:0:0:
368,312,113239,2,0,B|368:256|368:256|424:208|376:136,2,180,8|0|8,0:0|0:0|0:0,0:0:0:0:
280,248,114459,5,0,0:0:0:0:
280,112,114703,1,0,0:0:0:0:
160,184,114947,1,0,0:0:0:0:
32,184,115191,2,0,P|72:104|168:64,1,180,8|0,0:0|0:0,0:0:0:0:
272,48,115922,2,0,L|272:0,2,45,0|0|8,0:0|0:0|0:0,0:0:0:0:
272,144,116410,5,0,0:0:0:0:
272,144,116654,2,0,L|272:264,1,90
392,144,117142,2,0,L|392:32,1,90,8|0,0:0|0:0,0:0:0:0:
272,48,117630,1,0,0:0:0:0:
160,104,117874,1,0,0:0:0:0:
272,160,118117,1,8,0:0:0:0:
272,48,118361,1,4,0:0:0:0:
88,320,118849,5,0,0:0:0:0:
88,320,118971,1,0,0:0:0:0:
88,320,119093,1,0,0:0:0:0:
232,264,119338,1,0,0:0:0:0:
88,184,119581,1,8,0:0:0:0:
88,320,119825,2,0,P|136:344|192:336,1,90,4|0,0:0|0:0,0:0:0:0:
416,256,120556,5,0,0:0:0:0:
368,160,120800,1,0,0:0:0:0:
368,160,120922,1,0,0:0:0:0:
368,160,121044,2,0,P|336:112|288:80,1,90,8|0,0:0|0:0,0:0:0:0:
176,72,121532,1,12,0:0:0:0:
96,144,121776,1,0,0:0:0:0:
96,240,122020,1,8,0:0:0:0:
176,312,122264,1,4,0:0:0:0:
256,192,122752,5,0,0:0:0:0:
336,72,122996,1,12,0:0:0:0:
416,144,123240,1,0,0:0:0:0:
416,240,123484,1,8,0:0:0:0:
336,312,123728,1,2,0:0:0:0:
80,192,124215,1,2,0:0:0:0:
80,192,124459,2,0,B|136:184|168:248|200:184|272:192,1,180,2|12,0:0|0:0,0:0:0:0:
112,344,133239,5,0,0:0:0:0:
224,280,133483,2,0,P|240:232|224:176,1,90,0|8,0:0|0:0,0:0:0:0:
120,144,133971,2,0,P|104:192|120:248,1,90
232,104,134459,2,0,P|248:56|232:0,1,90,0|8,0:0|0:0,0:0:0:0:
424,40,135191,5,0,0:0:0:0:
312,104,135435,2,0,P|296:152|312:208,1,90,0|8,0:0|0:0,0:0:0:0:
416,240,135923,2,0,P|432:192|416:136,1,90
304,280,136411,2,0,P|288:328|304:384,1,90,0|8,0:0|0:0,0:0:0:0:
256,192,137142,5,0,0:0:0:0:
256,192,137386,1,2,0:0:0:0:
104,48,137874,1,2,0:0:0:0:
448,192,138361,1,2,0:0:0:0:
104,344,138849,1,2,0:0:0:0:
256,192,139093,12,0,141044,0:0:0:0:
384,120,141776,5,2,0:0:0:0:
384,120,142020,2,0,B|344:128|344:128|296:96|232:112,1,135.000005149842,2|4,0:0|0:0,0:0:0:0:
112,296,142996,5,0,0:0:0:0:
248,216,143239,1,0,0:0:0:0:
96,208,143483,1,8,0:0:0:0:
232,128,143727,2,0,P|288:136|328:176,1,90
424,296,144215,2,0,L|440:248,1,45
352,312,144459,2,0,P|296:304|256:264,1,90,8|0,0:0|0:0,0:0:0:0:
336,208,144947,1,0,0:0:0:0:
352,104,145191,2,0,P|296:112|256:152,1,90,0|8,0:0|0:0,0:0:0:0:
200,344,145922,5,0,0:0:0:0:
112,296,146166,1,0,0:0:0:0:
112,296,146288,1,0,0:0:0:0:
112,296,146410,2,0,P|136:248|136:208,1,90,8|0,0:0|0:0,0:0:0:0:
224,192,146898,2,0,P|170:195|135:215,1,90
80,152,147386,2,0,P|109:196|144:216,1,90,8|0,0:0|0:0,0:0:0:0:
248,264,147874,1,0,0:0:0:0:
360,248,148117,1,0,0:0:0:0:
464,200,148361,2,0,P|400:144|296:152,1,180,8|0,0:0|0:0,0:0:0:0:
96,80,149337,5,8,0:0:0:0:
208,112,149581,1,0,0:0:0:0:
240,120,149703,1,0,0:0:0:0:
272,120,149825,2,0,B|352:64|352:160|464:104,1,180,0|8,0:0|0:0,0:0:0:0:
443,113,150556,5,0,0:0:0:0:
432,232,150800,1,0,0:0:0:0:
352,312,151044,1,0,0:0:0:0:
240,352,151288,1,8,0:0:0:0:
128,320,151532,2,0,B|80:296|80:296|112:248|72:176,1,180
64,136,152142,1,0,0:0:0:0:
48,96,152264,2,0,P|96:56|144:48,1,90,8|0,0:0|0:0,0:0:0:0:
232,8,152752,1,2,0:0:0:0:
176,136,152996,1,2,0:0:0:0:
208,304,153483,5,0,0:0:0:0:
208,304,153727,1,0,0:0:0:0:
320,304,153971,1,0,0:0:0:0:
320,304,154093,1,0,0:0:0:0:
320,304,154215,2,0,B|280:256|280:256|320:224|336:144,1,180,8|0,0:0|0:0,0:0:0:0:
448,144,154947,1,0,0:0:0:0:
333,153,155191,1,8,0:0:0:0:
216,136,155435,2,0,P|208:184|168:224,1,90
96,288,155922,5,0,0:0:0:0:
96,288,156166,2,0,B|160:296|184:312|184:312|208:296|296:288,2,180,8|0|8,0:0|0:0|0:0,0:0:0:0:
184,200,157386,2,0,P|248:200|288:168,1,90
328,96,157874,1,0,0:0:0:0:
352,256,158117,1,8,0:0:0:0:
440,160,158361,2,0,P|496:224|464:320,1,180,0|2,0:0|0:0,0:0:0:0:
440,160,159337,1,0,0:0:0:0:
440,160,159825,1,0,0:0:0:0:
384,72,160069,2,0,B|328:64|328:64|264:104|192:56,2,180,8|0|8,0:0|0:0|0:0,0:0:0:0:
336,176,161288,5,0,0:0:0:0:
256,264,161532,1,0,0:0:0:0:
176,176,161776,1,0,0:0:0:0:
176,176,161898,1,0,0:0:0:0:
176,176,162020,2,0,B|136:144|72:192|72:192|64:288,2,180,8|0|8,0:0|0:0|0:0,0:0:0:0:
360,248,163239,5,0,0:0:0:0:
384,224,163361,1,0,0:0:0:0:
408,200,163483,1,0,0:0:0:0:
336,104,163727,1,0,0:0:0:0:
240,48,163971,2,0,B|160:112|160:16|64:96,1,180,8|0,0:0|0:0,0:0:0:0:
48,112,164581,1,0,0:0:0:0:
32,144,164703,1,0,0:0:0:0:
168,160,164947,5,8,0:0:0:0:
192,264,165191,1,0,0:0:0:0:
304,264,165435,2,0,P|328:224|320:160,1,90
368,104,165922,2,0,P|323:91|263:115,1,90,8|0,0:0|0:0,0:0:0:0:
240,184,166410,5,0,0:0:0:0:
184,64,166654,1,0,0:0:0:0:
368,104,166898,1,8,0:0:0:0:
424,224,167142,1,4,0:0:0:0:
320,320,167630,2,0,L|256:296,1,45
240,288,167874,1,0,0:0:0:0:
168,232,168117,1,0,0:0:0:0:
120,152,168361,1,8,0:0:0:0:
96,64,168605,2,0,P|144:48|184:64,1,90,4|0,0:0|0:0,0:0:0:0:
320,248,169337,5,0,0:0:0:0:
384,336,169581,1,0,0:0:0:0:
384,336,169703,1,0,0:0:0:0:
384,336,169825,2,0,P|424:296|432:240,1,90,8|0,0:0|0:0,0:0:0:0:
336,136,170313,5,12,0:0:0:0:
256,48,170556,1,0,0:0:0:0:
176,136,170800,1,8,0:0:0:0:
256,192,171044,1,4,0:0:0:0:
256,264,171532,5,0,0:0:0:0:
368,248,171777,1,12,0:0:0:0:
256,368,172020,1,0,0:0:0:0:
144,248,172264,1,8,0:0:0:0:
256,192,172508,1,2,0:0:0:0:
400,72,172996,5,2,0:0:0:0:
400,72,173239,2,0,B|328:72|328:72|288:112|192:88,1,180,2|12,0:0|0:0,0:0:0:0:
