osu file format v12

[General]
AudioFilename: Nishino Kana - Where are you.mp3
AudioLeadIn: 2000
PreviewTime: 125435
Countdown: 0
SampleSet: Soft
StackLeniency: 0.7
Mode: 0
LetterboxInBreaks: 1
WidescreenStoryboard: 1

[Editor]
Bookmarks: 133239
DistanceSpacing: 1.1
BeatDivisor: 4
GridSize: 8

[Metadata]
Title:Where are you?
TitleUnicode:Where are you?
Artist:Nishino Kana
ArtistUnicode:Nishino Kana
Creator:lightr
Version:Hard
Source:
Tags:pop Love Thank You
BeatmapID:293937
BeatmapSetID:113289

[Difficulty]
HPDrainRate:6
CircleSize:4
OverallDifficulty:6
ApproachRate:7
SliderMultiplier:1.6
SliderTickRate:1

[Events]
//Background and Video events
0,0,"BG.jpg",0,0
//Break Periods
2,757,12827
2,125146,132339
//Storyboard Layer 0 (Background)
//Storyboard Layer 1 (Fail)
//Storyboard Layer 2 (Pass)
//Storyboard Layer 3 (Foreground)
//Storyboard Sound Samples
//Background Colour Transformations
3,100,163,162,255

[TimingPoints]
557,487.80487804878,4,1,0,100,1,0
15678,-100,4,2,0,50,0,0
16166,-100,4,2,0,50,0,0
39581,-100,4,2,0,65,0,0
69337,-100,4,2,0,50,0,0
94215,-100,4,2,0,80,0,1
123971,-100,4,2,0,50,0,0
141044,-100,4,2,0,20,0,0
142996,-100,4,2,0,80,0,1
173727,-100,4,2,0,50,0,0

[Colours]
Combo1 : 253,43,126
Combo2 : 254,156,254
Combo3 : 108,253,206

[HitObjects]
256,192,557,1,4,0:0:0:0:
256,192,13727,12,12,15678,0:0:0:0:
400,72,16166,6,0,P|360:64|304:80,1,80
360,160,16654,2,0,P|360:208|328:256,1,80,2|0,0:0|0:0,0:0:0:0:
280,296,17142,1,0,0:0:0:0:
200,328,17386,1,0,0:0:0:0:
112,328,17630,2,0,P|144:248|224:248,1,160,2|0,0:0|0:0,0:0:0:0:
296,264,18361,6,0,P|352:280|392:272,1,80,0|2,0:0|0:0,0:0:0:0:
448,232,18849,1,0,0:0:0:0:
496,160,19093,2,0,P|440:144|392:168,1,80
336,176,19581,1,2,0:0:0:0:
112,296,20069,6,0,P|160:304|192:288,1,80
272,264,20556,2,0,P|240:216|192:200,1,80,2|0,0:0|0:0,0:0:0:0:
136,184,21044,1,0,0:0:0:0:
64,136,21288,1,0,0:0:0:0:
48,48,21532,2,0,P|96:48|136:88,1,80,2|0,0:0|0:0,0:0:0:0:
192,120,22020,2,0,P|248:136|288:112,1,80
352,112,22508,2,0,P|392:104|432:136,1,80,2|0,0:0|0:0,0:0:0:0:
424,123,23239,5,0,0:0:0:0:
448,208,23483,1,2,0:0:0:0:
424,296,23727,1,0,0:0:0:0:
424,296,23849,1,0,0:0:0:0:
424,296,23971,2,0,P|376:328|328:328,1,80
352,240,24459,5,2,0:0:0:0:
312,160,24703,1,0,0:0:0:0:
256,88,24947,2,0,P|216:64|176:56,1,80
184,144,25435,2,0,P|120:144|56:232,1,160,2|0,0:0|0:0,0:0:0:0:
152,232,26166,1,0,0:0:0:0:
152,232,26288,1,0,0:0:0:0:
152,232,26410,6,0,L|208:304,1,80,2|0,0:0|0:0,0:0:0:0:
288,296,26898,1,0,0:0:0:0:
376,296,27142,1,0,0:0:0:0:
464,296,27386,2,0,P|440:224|344:216,1,160,2|0,0:0|0:0,0:0:0:0:
264,288,28361,5,2,0:0:0:0:
128,272,28849,2,0,P|80:240|72:200,1,80
160,192,29337,2,0,P|140:157|104:141,1,80,2|0,0:0|0:0,0:0:0:0:
16,120,29825,1,0,0:0:0:0:
80,56,30069,1,0,0:0:0:0:
168,80,30313,2,0,P|200:96|232:152,1,80,2|0,0:0|0:0,0:0:0:0:
192,280,31044,5,0,0:0:0:0:
272,320,31288,1,2,0:0:0:0:
360,320,31532,2,0,P|424:312|448:280,1,80
384,240,32020,1,0,0:0:0:0:
352,160,32264,2,0,L|320:80,1,80,2|0,0:0|0:0,0:0:0:0:
160,128,32996,5,2,0:0:0:0:
160,128,33483,2,0,L|192:224,1,80,2|0,0:0|0:0,0:0:0:0:
208,280,33971,1,0,0:0:0:0:
280,328,34215,2,0,P|320:344|368:320,1,80,0|2,0:0|0:0,0:0:0:0:
432,256,34947,5,2,0:0:0:0:
368,168,35435,1,0,0:0:0:0:
368,168,35679,2,0,P|320:160|280:184,2,80,0|2|0,0:0|0:0|0:0,0:0:0:0:
216,208,36410,2,0,P|208:160|232:120,2,80,0|2|0,0:0|0:0|0:0,0:0:0:0:
288,264,37142,2,0,P|248:296|184:288,1,80
256,192,37630,12,0,39337,0:0:0:0:
344,104,39581,5,0,0:0:0:0:
376,184,39825,1,0,0:0:0:0:
376,272,40069,1,8,0:0:0:0:
320,344,40313,2,0,P|248:344|216:328,1,80
96,272,41044,1,8,0:0:0:0:
80,184,41288,1,0,0:0:0:0:
120,104,41532,1,0,0:0:0:0:
192,48,41776,2,0,P|264:40|304:48,1,80,0|8,0:0|0:0,0:0:0:0:
240,160,42508,5,0,0:0:0:0:
200,240,42752,1,0,0:0:0:0:
200,240,42996,2,0,P|248:248|304:224,1,80,8|0,0:0|0:0,0:0:0:0:
368,240,43483,2,0,P|344:184|296:160,1,80
240,160,43971,2,0,P|212:131|202:92,1,80,8|0,0:0|0:0,0:0:0:0:
288,88,44459,1,0,0:0:0:0:
376,72,44703,1,0,0:0:0:0:
456,104,44947,2,0,P|480:184|448:256,1,160,8|0,0:0|0:0,0:0:0:0:
384,176,45922,5,8,0:0:0:0:
296,176,46166,1,0,0:0:0:0:
296,176,46288,1,0,0:0:0:0:
296,176,46410,2,0,P|208:168|128:176,1,160,0|8,0:0|0:0,0:0:0:0:
48,304,47386,5,0,0:0:0:0:
136,312,47630,1,0,0:0:0:0:
224,288,47874,1,8,0:0:0:0:
304,248,48117,2,0,P|343:242|379:258,1,80
504,312,48849,1,8,0:0:0:0:
488,224,49093,1,0,0:0:0:0:
432,152,49337,1,0,0:0:0:0:
376,80,49581,2,0,P|336:72|288:96,1,80,0|8,0:0|0:0,0:0:0:0:
344,160,50069,5,0,0:0:0:0:
344,160,50313,2,0,P|296:184|248:176,1,80
216,112,50800,2,0,P|184:160|232:272,1,160,8|0,0:0|0:0,0:0:0:0:
296,280,51532,1,0,0:0:0:0:
384,256,51776,2,0,P|416:208|368:96,1,160,8|0,0:0|0:0,0:0:0:0:
336,184,52508,1,0,0:0:0:0:
336,184,52752,2,0,B|264:144|264:208|168:184,2,160,8|0|8,0:0|0:0|0:0,0:0:0:0:
320,272,53971,6,0,P|288:264|224:280,1,80
160,304,54459,2,0,P|128:312|64:296,1,80,0|8,0:0|0:0,0:0:0:0:
120,216,54947,2,0,P|72:176|56:80,1,160
168,120,55922,1,0,0:0:0:0:
280,80,56410,1,0,0:0:0:0:
280,80,56654,2,0,P|271:157|215:212,2,160,8|0|8,0:0|0:0|0:0,0:0:0:0:
368,80,57874,6,0,P|368:144|392:184,1,80
424,232,58361,1,0,0:0:0:0:
408,320,58605,1,8,0:0:0:0:
320,344,58849,2,0,P|248:344|176:256,1,160
320,192,59825,5,0,0:0:0:0:
320,104,60069,1,0,0:0:0:0:
280,24,60313,1,0,0:0:0:0:
192,0,60556,2,0,P|128:24|72:104,2,160,8|0|8,0:0|0:0|0:0,0:0:0:0:
224,80,61776,1,0,0:0:0:0:
224,80,62020,2,0,P|184:96|160:152,1,80
248,160,62508,2,0,P|288:144|312:88,1,80,8|0,0:0|0:0,0:0:0:0:
360,48,62996,5,0,0:0:0:0:
424,112,63239,1,0,0:0:0:0:
456,192,63483,1,8,0:0:0:0:
464,280,63727,2,0,P|432:320|408:336,1,80,0|0,0:0|0:0,0:0:0:0:
352,216,64459,1,0,0:0:0:0:
280,168,64703,1,0,0:0:0:0:
200,136,64947,1,0,0:0:0:0:
112,120,65191,2,0,P|64:120|8:144,1,80,2|0,0:0|0:0,0:0:0:0:
88,256,65922,5,0,0:0:0:0:
160,312,66166,1,0,0:0:0:0:
160,312,66288,1,0,0:0:0:0:
160,312,66410,2,0,P|200:336|248:336,1,80,8|0,0:0|0:0,0:0:0:0:
320,344,66898,2,0,P|368:336|416:296,1,80,2|0,0:0|0:0,0:0:0:0:
328,264,67386,1,12,0:0:0:0:
328,264,67630,1,0,0:0:0:0:
248,112,68117,5,0,0:0:0:0:
248,112,68361,1,12,0:0:0:0:
168,80,68605,1,0,0:0:0:0:
80,80,68849,1,0,0:0:0:0:
8,128,69093,1,2,0:0:0:0:
128,192,69581,1,2,0:0:0:0:
128,192,69825,2,0,B|160:264|88:264|144:352,1,160,2|12,0:0|0:0,0:0:0:0:
264,352,70800,6,0,P|312:360|368:344,1,80
328,264,71288,2,0,P|373:246|414:205,1,80,2|0,0:0|0:0,0:0:0:0:
368,144,71776,2,0,P|398:106|413:49,1,80
320,72,72264,2,0,P|264:8|176:16,1,160,2|0,0:0|0:0,0:0:0:0:
232,88,72996,5,0,0:0:0:0:
232,88,73117,1,0,0:0:0:0:
232,88,73239,2,0,L|192:168,1,80,2|0,0:0|0:0,0:0:0:0:
152,232,73727,1,0,0:0:0:0:
96,296,73971,1,0,0:0:0:0:
8,304,74215,1,2,0:0:0:0:
24,136,74703,6,0,P|40:72|56:48,1,80
112,120,75191,2,0,L|192:136,1,80,2|0,0:0|0:0,0:0:0:0:
280,152,75678,1,0,0:0:0:0:
368,168,75922,1,0,0:0:0:0:
448,200,76166,2,0,P|448:264|416:296,1,80,2|0,0:0|0:0,0:0:0:0:
384,344,76654,1,0,0:0:0:0:
296,344,76898,1,0,0:0:0:0:
208,336,77142,2,0,P|232:280|256:256,1,80,2|0,0:0|0:0,0:0:0:0:
244,266,77874,5,0,0:0:0:0:
312,208,78117,1,2,0:0:0:0:
368,136,78361,1,0,0:0:0:0:
368,136,78483,1,0,0:0:0:0:
368,136,78605,2,0,P|392:96|392:48,1,80
304,64,79093,2,0,P|280:24|232:8,1,80,2|0,0:0|0:0,0:0:0:0:
184,64,79581,1,0,0:0:0:0:
112,120,79825,1,0,0:0:0:0:
72,200,80069,2,0,P|120:248|208:288,1,160,2|0,0:0|0:0,0:0:0:0:
248,208,80800,5,0,0:0:0:0:
248,208,80922,1,0,0:0:0:0:
248,208,81044,2,0,P|208:200|168:160,1,80,2|0,0:0|0:0,0:0:0:0:
136,96,81532,1,0,0:0:0:0:
208,40,81776,1,0,0:0:0:0:
296,32,82020,2,0,P|360:40|432:128,1,160,2|0,0:0|0:0,0:0:0:0:
304,160,82996,6,0,L|248:240,1,80,2|0,0:0|0:0,0:0:0:0:
208,296,83483,1,0,0:0:0:0:
120,312,83727,1,0,0:0:0:0:
40,272,83971,2,0,P|24:232|32:176,1,80,2|0,0:0|0:0,0:0:0:0:
48,112,84459,1,0,0:0:0:0:
136,128,84703,1,0,0:0:0:0:
224,136,84947,2,0,P|272:128|312:104,1,80,2|0,0:0|0:0,0:0:0:0:
416,48,85678,5,0,0:0:0:0:
456,128,85922,1,2,0:0:0:0:
448,216,86166,2,0,P|416:272|384:296,1,80
360,208,86654,1,0,0:0:0:0:
360,208,86898,2,0,L|288:168,1,80,2|0,0:0|0:0,0:0:0:0:
290,169,87630,1,2,0:0:0:0:
192,168,88117,5,2,0:0:0:0:
192,168,88361,2,0,L|112:224,1,80
136,304,88849,2,0,L|232:240,1,80,0|2,0:0|0:0,0:0:0:0:
202,259,89581,1,2,0:0:0:0:
280,200,90069,5,0,0:0:0:0:
280,200,90313,2,0,P|336:176|368:144,1,80,2|0,0:0|0:0,0:0:0:0:
280,112,90800,2,0,P|224:136|192:168,1,80,2|0,0:0|0:0,0:0:0:0:
328,256,91288,2,0,P|384:232|416:200,1,80,2|0,0:0|0:0,0:0:0:0:
232,56,91776,2,0,P|176:80|144:112,1,80,2|0,0:0|0:0,0:0:0:0:
256,192,92264,12,0,93971,0:0:0:0:
320,328,94215,5,0,0:0:0:0:
368,256,94459,1,0,0:0:0:0:
408,176,94703,1,8,0:0:0:0:
424,88,94947,2,0,P|416:40|360:8,1,80
216,16,95678,1,8,0:0:0:0:
168,88,95922,1,0,0:0:0:0:
128,168,96166,1,0,0:0:0:0:
112,256,96410,2,0,P|120:304|176:336,1,80,0|8,0:0|0:0,0:0:0:0:
256,320,97142,5,0,0:0:0:0:
336,280,97386,1,0,0:0:0:0:
336,280,97508,1,0,0:0:0:0:
336,280,97630,2,0,P|368:240|376:200,1,80,8|0,0:0|0:0,0:0:0:0:
288,200,98117,2,0,P|288:136|264:96,1,80
200,152,98605,2,0,P|184:104|144:80,1,80,8|0,0:0|0:0,0:0:0:0:
112,160,99093,1,0,0:0:0:0:
56,232,99337,1,0,0:0:0:0:
56,232,99459,1,0,0:0:0:0:
56,232,99581,2,0,P|136:272|176:208,1,160,8|0,0:0|0:0,0:0:0:0:
200,152,100556,5,8,0:0:0:0:
280,112,100800,1,0,0:0:0:0:
280,112,101044,2,0,P|352:88|440:120,1,160,0|8,0:0|0:0,0:0:0:0:
352,192,102020,6,0,P|352:240|344:280,1,80
280,328,102508,1,8,0:0:0:0:
184,344,102752,2,0,P|128:344|88:336,1,80
48,208,103483,6,0,P|104:208|144:216,1,80,8|0,0:0|0:0,0:0:0:0:
216,232,103971,1,0,0:0:0:0:
296,264,104215,1,0,0:0:0:0:
360,112,104703,1,0,0:0:0:0:
360,112,104947,2,0,P|320:104|264:112,1,80
248,112,105313,1,0,0:0:0:0:
208,120,105435,2,0,P|152:144|96:232,1,160,8|0,0:0|0:0,0:0:0:0:
144,296,106166,5,0,0:0:0:0:
232,320,106410,1,8,0:0:0:0:
320,304,106654,1,0,0:0:0:0:
320,160,107142,1,0,0:0:0:0:
320,160,107386,2,0,B|264:152|240:192|216:152|152:160,2,160,8|0|8,0:0|0:0|0:0,0:0:0:0:
408,136,108605,6,0,P|392:88|344:64,1,80
280,48,109093,1,0,0:0:0:0:
192,32,109337,1,8,0:0:0:0:
112,64,109581,2,0,P|72:120|56:208,1,160
208,168,110556,1,0,0:0:0:0:
312,200,111044,1,0,0:0:0:0:
312,200,111288,2,0,B|384:264|384:176|472:264,2,160,8|0|8,0:0|0:0|0:0,0:0:0:0:
288,112,112508,6,0,P|360:128|392:128,1,80
456,136,112996,1,0,0:0:0:0:
504,208,113239,1,8,0:0:0:0:
480,296,113483,2,0,P|408:320|304:288,1,160
232,184,114459,2,0,P|192:168|128:176,1,80
88,224,114947,1,0,0:0:0:0:
128,304,115191,2,0,P|176:328|304:288,2,160,8|0|8,0:0|0:0|0:0,0:0:0:0:
204,240,116410,5,0,0:0:0:0:
204,240,116654,2,0,L|204:152,1,80
288,128,117142,2,0,L|288:216,1,80,8|0,0:0|0:0,0:0:0:0:
288,296,117630,1,0,0:0:0:0:
368,336,117874,1,0,0:0:0:0:
456,320,118117,1,8,0:0:0:0:
504,248,118361,2,0,P|512:208|512:144,1,80,0|0,0:0|0:0,0:0:0:0:
368,72,119093,2,0,P|360:111|358:151,2,80,0|0|0,0:0|0:0|0:0,0:0:0:0:
296,16,119825,2,0,P|256:40|224:80,1,80,2|0,0:0|0:0,0:0:0:0:
144,176,120556,5,0,0:0:0:0:
128,264,120800,1,0,0:0:0:0:
128,264,120922,1,0,0:0:0:0:
128,264,121044,2,0,P|168:304|208:320,1,80,8|0,0:0|0:0,0:0:0:0:
280,312,121532,1,2,0:0:0:0:
368,304,121776,1,0,0:0:0:0:
432,248,122020,1,12,0:0:0:0:
472,168,122264,1,0,0:0:0:0:
288,64,122752,5,0,0:0:0:0:
288,64,122996,1,8,0:0:0:0:
224,128,123239,1,0,0:0:0:0:
184,208,123483,1,0,0:0:0:0:
168,296,123727,1,2,0:0:0:0:
336,224,124215,1,2,0:0:0:0:
336,224,124459,2,0,B|384:240|408:208|408:208|432:240|488:224,1,160,2|12,0:0|0:0,0:0:0:0:
80,312,133239,5,0,0:0:0:0:
48,232,133483,2,0,P|72:184|96:160,1,80,0|8,0:0|0:0,0:0:0:0:
160,216,133971,2,0,P|185:185|201:149,1,80
128,104,134459,2,0,P|152:56|176:32,1,80,0|8,0:0|0:0,0:0:0:0:
432,72,135191,5,0,0:0:0:0:
464,152,135435,2,0,P|440:200|416:224,1,80,0|8,0:0|0:0,0:0:0:0:
352,168,135923,2,0,P|326:198|310:234,1,80,0|8,0:0|0:0,0:0:0:0:
384,280,136411,2,0,P|360:328|336:352,1,80,0|8,0:0|0:0,0:0:0:0:
256,192,137142,1,0,0:0:0:0:
256,192,137386,1,2,0:0:0:0:
160,336,137874,1,2,0:0:0:0:
352,336,138361,1,2,0:0:0:0:
256,192,138849,1,2,0:0:0:0:
256,192,139093,12,0,141044,0:0:0:0:
376,248,141776,5,2,0:0:0:0:
288,264,142020,2,0,B|224:248|184:296|120:256,1,160,2|4,0:0|0:0,0:0:0:0:
256,136,142996,6,0,B|312:128|360:160,2,80,0|0|8,0:0|0:0|0:0,0:0:0:0:
176,96,143727,2,0,P|168:136|184:192,1,80
272,320,144459,1,8,0:0:0:0:
360,304,144703,1,0,0:0:0:0:
440,272,144947,1,0,0:0:0:0:
496,200,145191,2,0,P|504:152|496:96,1,80,0|8,0:0|0:0,0:0:0:0:
360,152,145922,5,0,0:0:0:0:
272,152,146166,1,0,0:0:0:0:
272,152,146288,1,0,0:0:0:0:
272,152,146410,2,0,P|224:160|184:176,1,80,8|0,0:0|0:0,0:0:0:0:
208,256,146898,2,0,P|160:248|112:224,1,80
48,256,147386,2,0,P|56:208|80:160,1,80,8|0,0:0|0:0,0:0:0:0:
120,112,147874,5,0,0:0:0:0:
200,72,148117,1,0,0:0:0:0:
280,112,148361,2,0,P|360:128|448:104,2,160,8|0|8,0:0|0:0|0:0,0:0:0:0:
224,176,149581,1,0,0:0:0:0:
224,176,149825,2,0,P|208:216|208:264,1,80
264,320,150313,2,0,P|312:320|352:296,1,80,8|0,0:0|0:0,0:0:0:0:
304,224,150800,5,0,0:0:0:0:
384,192,151044,1,0,0:0:0:0:
448,136,151288,1,8,0:0:0:0:
480,56,151532,2,0,P|416:56|384:72,1,80
240,120,152264,2,0,P|304:120|336:104,2,80,8|0|0,0:0|0:0|0:0,0:0:0:0:
152,104,152996,1,0,0:0:0:0:
32,232,153483,5,0,0:0:0:0:
88,304,153727,2,0,P|128:312|176:296,1,80
200,288,154093,1,0,0:0:0:0:
232,256,154215,2,0,P|264:200|360:176,1,160,8|0,0:0|0:0,0:0:0:0:
328,264,154947,1,0,0:0:0:0:
408,304,155191,1,8,0:0:0:0:
488,272,155435,2,0,P|496:224|472:168,1,80
448,120,155922,1,0,0:0:0:0:
448,120,156166,2,0,B|376:72|376:152|288:96,2,160,8|0|8,0:0|0:0|0:0,0:0:0:0:
408,200,157386,6,0,L|336:240,1,80
256,280,157874,1,0,0:0:0:0:
168,280,158117,1,8,0:0:0:0:
88,240,158361,2,0,P|72:160|88:80,1,160
248,152,159337,1,0,0:0:0:0:
360,160,159825,1,0,0:0:0:0:
360,160,160069,2,0,P|312:240|216:264,2,160,0|0|8,0:0|0:0|0:0,0:0:0:0:
448,152,161288,6,0,P|440:112|384:72,1,80
336,48,161776,1,0,0:0:0:0:
248,40,162020,1,8,0:0:0:0:
160,64,162264,2,0,P|96:112|80:200,1,160
224,192,163239,5,0,0:0:0:0:
312,192,163483,1,0,0:0:0:0:
376,256,163727,1,0,0:0:0:0:
360,344,163971,2,0,P|280:360|200:344,2,160,0|0|8,0:0|0:0|0:0,0:0:0:0:
280,272,165191,5,0,0:0:0:0:
240,192,165435,2,0,P|224:152|240:112,1,80
312,72,165922,2,0,P|280:40|224:32,1,80,8|0,0:0|0:0,0:0:0:0:
160,16,166410,2,0,P|112:16|64:48,2,80,0|0|8,0:0|0:0|0:0,0:0:0:0:
184,96,167142,1,0,0:0:0:0:
112,272,167630,1,0,0:0:0:0:
112,272,167752,1,0,0:0:0:0:
112,272,167874,2,0,P|147:287|185:277,1,80,8|0,0:0|0:0,0:0:0:0:
264,232,168361,1,0,0:0:0:0:
344,272,168605,2,0,P|379:287|417:277,1,80,0|8,0:0|0:0,0:0:0:0:
416,104,169337,5,0,0:0:0:0:
352,48,169581,1,0,0:0:0:0:
352,48,169703,1,0,0:0:0:0:
352,48,169825,2,0,P|304:40|256:56,1,80,8|0,0:0|0:0,0:0:0:0:
208,104,170313,1,2,0:0:0:0:
152,168,170556,1,0,0:0:0:0:
112,248,170800,1,8,0:0:0:0:
96,336,171044,1,0,0:0:0:0:
272,312,171532,5,0,0:0:0:0:
272,312,171776,1,0,0:0:0:0:
200,264,172020,1,0,0:0:0:0:
112,248,172264,1,0,0:0:0:0:
32,272,172508,1,2,0:0:0:0:
104,112,172996,5,2,0:0:0:0:
104,112,173239,2,0,B|184:88|184:88|264:112,1,160,2|12,0:0|0:0,0:0:0:0:
