osu file format v12

[General]
AudioFilename: NishinoKana - Where are you.mp3
AudioLeadIn: 0
PreviewTime: 38366
Countdown: 0
SampleSet: Soft
StackLeniency: 0.7
Mode: 0
LetterboxInBreaks: 0
WidescreenStoryboard: 1

[Editor]
Bookmarks: 8366
DistanceSpacing: 1
BeatDivisor: 4
GridSize: 4
TimelineZoom: 1

[Metadata]
Title:Where are you?
TitleUnicode:Where are you?
Artist:Nishino Kana
ArtistUnicode:西野カナ
Creator:Dark_Ai
Version:Normal
Source:
Tags:thank you, Love yanlu
BeatmapID:316509
BeatmapSetID:124090

[Difficulty]
HPDrainRate:3
CircleSize:3
OverallDifficulty:4
ApproachRate:4
SliderMultiplier:1.2
SliderTickRate:2

[Events]
//Background and Video events
0,0,"where are you.jpg",0,0
//Break Periods
2,125440,131924
//Storyboard Layer 0 (Background)
//Storyboard Layer 1 (Fail)
//Storyboard Layer 2 (Pass)
//Storyboard Layer 3 (Foreground)
//Storyboard Sound Samples
//Background Colour Transformations
3,100,0,0,0

[TimingPoints]
562,487.80487804878,4,2,1,80,1,0
24464,-100,4,2,2,80,0,0
24586,-100,4,2,1,80,0,0
25440,-100,4,2,2,80,0,0
25561,-100,4,2,1,80,0,0
39586,-100,4,2,1,80,0,1
70318,-100,4,2,1,80,0,0
82025,-100,4,2,2,80,0,0
82147,-100,4,2,1,80,0,0
83976,-100,4,2,2,80,0,0
84098,-100,4,2,1,80,0,0
94220,-100,4,2,1,80,0,1
110318,-100,4,2,2,80,0,1
110440,-100,4,2,1,80,0,1
124952,-100,4,2,1,80,0,0
143001,-100,4,2,1,80,0,1
143122,-100,4,2,1,80,0,0
144464,-100,4,2,1,80,0,1
168854,-100,4,2,2,80,0,1
168976,-100,4,2,1,80,0,1
173732,-100,4,2,1,80,0,0
174220,-100,4,2,1,80,0,1
174342,-100,4,2,1,80,0,0

[Colours]
Combo1 : 255,128,192
Combo2 : 128,0,255
Combo3 : 255,0,128
Combo4 : 128,128,255

[HitObjects]
148,140,8366,6,0,B|96:136|84:196|44:192,2,120,0|8|2,0:0|0:0|0:0,0:0:0:0:
256,192,9830,1,8,0:0:0:0:
364,140,10318,2,0,B|416:136|428:196|468:192,2,120,0|8|2,0:0|0:0|0:0,0:0:0:0:
256,192,11781,1,8,0:0:0:0:
256,192,12269,12,8,15683,0:0:0:0:
256,192,16171,6,0,L|256:312,2,120,0|8|2,0:0|0:0|0:0,0:0:0:0:
316,88,17635,2,0,P|368:92|420:48,1,120,8|0,0:0|0:0,0:0:0:0:
452,168,18610,2,0,P|428:224|436:284,1,120,8|2,0:0|0:0,0:0:0:0:
360,368,19586,1,8,0:0:0:0:
256,308,20074,5,0,0:0:0:0:
136,308,20561,1,8,0:0:0:0:
56,220,21049,2,0,L|32:164,2,60,2|0|8,0:0|0:0|0:0,0:0:0:0:
136,308,22025,2,0,P|184:272|192:212,1,120,0|8,0:0|0:0,0:0:0:0:
148,104,23001,2,0,P|196:64|252:60,1,120,2|8,0:0|0:0,0:0:0:0:
344,136,23976,6,0,B|360:248|256:228|264:352,2,240,0|2|0,0:0|0:0|0:0,0:0:0:0:
224,156,26415,1,8,0:0:0:0:
132,232,26903,1,2,0:0:0:0:
90,120,27391,2,0,P|41:154|16:208,1,120,8|0,0:0|0:0,0:0:0:0:
96,296,28366,5,8,0:0:0:0:
200,360,28854,2,0,P|256:344|316:360,1,120,2|8,0:0|0:0,0:0:0:0:
416,296,29830,1,0,0:0:0:0:
368,188,30318,2,0,P|256:224|140:188,1,240,8|8,0:0|0:0,0:0:0:0:
96,152,31537,5,0,0:0:0:0:
52,112,31781,2,0,L|12:68,2,60,0|0|8,0:0|0:0|0:0,0:0:0:0:
96,152,32513,1,2,0:0:0:0:
188,72,33001,1,0,0:0:0:0:
296,124,33488,1,8,0:0:0:0:
336,80,33732,5,0,0:0:0:0:
400,96,33976,1,0,0:0:0:0:
444,136,34220,2,0,P|460:192|448:252,1,120,8|2,0:0|0:0,0:0:0:0:
408,296,34952,1,0,0:0:0:0:
300,344,35440,5,0,0:0:0:0:
184,316,35927,2,0,P|152:320|124:336,2,60
256,220,36903,2,0,L|256:160,2,60
256,192,37635,12,0,39098,0:0:0:0:
256,192,39586,6,0,L|256:72,2,120,4|0|2,0:0|0:0|0:0,0:0:0:0:
320,292,41049,2,0,P|380:292|436:264,2,120,8|0|8,0:0|0:0|0:0,0:0:0:0:
192,292,42513,1,2,0:0:0:0:
124,192,43001,5,8,0:0:0:0:
192,92,43488,1,0,0:0:0:0:
256,192,43976,1,8,0:0:0:0:
320,92,44464,1,2,0:0:0:0:
372,60,44708,1,0,0:0:0:0:
428,44,44952,2,0,P|512:112|468:220,1,240,8|8,0:0|0:0,0:0:0:0:
352,256,46415,2,0,P|292:264|256:308,1,120,2|12,0:0|0:0,0:0:0:0:
144,356,47391,6,0,P|88:344|48:296,1,120,4|8,0:0|0:0,0:0:0:0:
100,188,48366,1,2,0:0:0:0:
204,128,48854,2,0,P|260:112|296:60,2,120,8|0|8,0:0|0:0|0:0,0:0:0:0:
156,92,50074,5,0,0:0:0:0:
100,108,50318,1,2,0:0:0:0:
16,192,50805,1,8,0:0:0:0:
80,292,51293,2,0,L|140:304,1,60
196,324,51781,2,0,P|252:324|300:280,1,120,8|2,0:0|0:0,0:0:0:0:
312,224,52513,1,0,0:0:0:0:
320,164,52757,2,0,P|432:152|508:248,1,240,8|8,0:0|0:0,0:0:0:0:
384,272,54220,5,2,0:0:0:0:
256,236,54708,1,12,0:0:0:0:
140,272,55196,1,4,0:0:0:0:
24,236,55683,2,0,P|16:172|40:124,1,120,8|2,0:0|0:0,0:0:0:0:
156,156,56659,2,0,P|220:160|272:136,1,120,8|0,0:0|0:0,0:0:0:0:
348,56,57635,1,8,0:0:0:0:
388,168,58122,6,0,P|364:220|388:276,1,120,2|8,0:0|0:0,0:0:0:0:
492,332,59098,2,0,P|516:280|492:224,1,120,0|8,0:0|0:0,0:0:0:0:
388,168,60074,1,2,0:0:0:0:
292,236,60561,2,0,P|180:256|116:160,1,240,8|8,0:0|0:0,0:0:0:0:
196,72,62025,1,2,0:0:0:0:
316,72,62513,1,12,0:0:0:0:
256,176,63001,6,0,L|256:296,1,120,0|8,0:0|0:0,0:0:0:0:
376,312,63976,1,2,0:0:0:0:
456,220,64464,2,0,L|456:96,1,120,8|0,0:0|0:0,0:0:0:0:
344,52,65440,2,0,L|224:52,2,120,8|2|8,0:0|0:0|0:0,0:0:0:0:
368,168,66903,5,0,0:0:0:0:
256,216,67391,1,8,0:0:0:0:
144,168,67879,1,2,0:0:0:0:
36,220,68366,2,0,P|72:268|128:288,2,120,8|0|8,0:0|0:0|0:0,0:0:0:0:
144,168,69830,2,0,P|200:152|232:96,1,120,2|12,0:0|0:0,0:0:0:0:
328,32,70805,6,0,P|388:32|432:68,2,120,0|8|2,0:0|0:0|0:0,0:0:0:0:
344,152,72269,1,8,0:0:0:0:
256,72,72757,1,0,0:0:0:0:
168,152,73244,2,0,P|148:208|164:268,1,120,8|0,0:0|0:0,0:0:0:0:
272,316,74220,2,0,P|286:258|266:202,1,120,8|0,0:0|0:0,0:0:0:0:
168,152,75196,5,8,0:0:0:0:
256,72,75683,1,2,0:0:0:0:
344,152,76171,2,0,P|392:252|308:328,2,240,8|8|8,0:0|0:0|0:0,0:0:0:0:
248,224,78610,6,0,L|124:224,1,120,0|8,0:0|0:0,0:0:0:0:
40,140,79586,2,0,L|160:140,1,120,2|8,0:0|0:0,0:0:0:0:
256,72,80561,1,0,0:0:0:0:
352,144,81049,1,8,0:0:0:0:
456,80,81537,6,0,P|464:200|372:264,1,240,2|0,0:0|0:0,0:0:0:0:
264,312,83001,2,0,L|208:336,1,60,8|0,0:0|0:0,0:0:0:0:
148,340,83488,2,0,P|64:268|88:152,1,240,2|0,0:0|0:0,0:0:0:0:
184,224,84952,2,0,P|292:192|312:76,1,240,8|8,0:0|0:0,0:0:0:0:
356,36,86171,5,0,0:0:0:0:
416,36,86415,2,0,P|452:84|456:144,1,120,0|8,0:0|0:0,0:0:0:0:
440,200,87147,1,2,0:0:0:0:
392,308,87635,1,0,0:0:0:0:
312,212,88122,1,0,0:0:0:0:
256,188,88366,5,0,0:0:0:0:
200,212,88610,1,0,0:0:0:0:
144,228,88854,2,0,P|88:208|56:160,1,120,8|2,0:0|0:0,0:0:0:0:
72,100,89586,1,0,0:0:0:0:
192,80,90074,6,0,P|256:88|324:64,1,120,2|0,0:0|0:0,0:0:0:0:
368,60,90805,2,0,P|408:108|420:176,1,120,2|2,0:0|0:0,0:0:0:0:
420,220,91537,2,0,L|412:292,2,60,0|2|0,0:0|0:0|0:0,0:0:0:0:
256,192,92147,12,0,93732,0:0:0:0:
192,120,94220,6,0,P|136:128|88:168,2,120,4|8|2,0:0|0:0|0:0,0:0:0:0:
312,120,95683,2,0,P|368:128|416:168,2,120,8|0|8,0:0|0:0|0:0,0:0:0:0:
256,224,97147,1,2,0:0:0:0:
196,328,97635,5,0,0:0:0:0:
316,328,98122,1,0,0:0:0:0:
376,224,98610,1,8,0:0:0:0:
316,120,99098,1,2,0:0:0:0:
196,120,99586,2,0,P|108:184|132:300,1,240,8|8,0:0|0:0,0:0:0:0:
232,236,101049,2,0,P|292:244|332:288,1,120,2|12,0:0|0:0,0:0:0:0:
432,352,102025,5,0,0:0:0:0:
476,240,102513,1,8,0:0:0:0:
424,132,103001,1,2,0:0:0:0:
308,108,103488,2,0,P|252:128|192:116,2,120,8|0|8,0:0|0:0|0:0,0:0:0:0:
368,108,104708,5,0,0:0:0:0:
424,132,104952,1,2,0:0:0:0:
396,248,105439,1,8,0:0:0:0:
324,344,105927,2,0,L|260:300,1,60
216,304,106415,2,0,P|172:343|113:344,1,120,8|2,0:0|0:0,0:0:0:0:
60,320,107147,1,0,0:0:0:0:
32,272,107391,2,0,P|24:148|112:92,1,240,8|12,0:0|0:0,0:0:0:0:
168,76,108610,6,0,L|232:68,1,60,0|2,0:0|0:0,0:0:0:0:
276,100,109098,1,0,0:0:0:0:
288,160,109342,1,12,0:0:0:0:
264,220,109586,2,0,P|392:244|408:108,1,300,0|2,0:0|0:0,0:0:0:0:
296,60,111293,2,0,P|241:83|182:78,1,120,8|0,0:0|0:0,0:0:0:0:
72,124,112269,1,8,0:0:0:0:
28,236,112757,6,0,P|60:292|52:348,1,120,2|8,0:0|0:0,0:0:0:0:
172,356,113732,2,0,P|232:344|296:352,1,120,0|8,0:0|0:0,0:0:0:0:
352,356,114464,2,0,L|416:336,1,60,0|2,0:0|0:0,0:0:0:0:
460,304,114952,1,0,0:0:0:0:
488,248,115196,2,0,P|484:136|376:88,1,240,8|8,0:0|0:0,0:0:0:0:
316,192,116659,1,2,0:0:0:0:
196,192,117147,1,8,0:0:0:0:
148,84,117635,6,0,L|24:84,1,120,4|8,0:0|0:0,0:0:0:0:
84,192,118610,1,2,0:0:0:0:
152,292,119098,2,0,L|272:292,1,120,8|0,0:0|0:0,0:0:0:0:
336,192,120074,2,0,L|216:192,2,120,8|2|8,0:0|0:0|0:0,0:0:0:0:
396,88,121537,5,0,0:0:0:0:
456,192,122025,1,8,0:0:0:0:
396,296,122513,1,2,0:0:0:0:
276,308,123001,2,0,P|216:312|164:344,2,120,8|0|8,0:0|0:0|0:0,0:0:0:0:
396,296,124464,2,0,P|456:292|508:260,1,120,2|12,0:0|0:0,0:0:0:0:
36,192,133244,5,4,0:0:0:0:
152,160,133732,1,8,0:0:0:0:
196,48,134220,1,2,0:0:0:0:
316,48,134708,2,0,P|372:76|388:128,1,120,8|0,0:0|0:0,0:0:0:0:
360,244,135683,5,8,0:0:0:0:
256,300,136171,1,2,0:0:0:0:
152,244,136659,2,0,P|92:228|68:180,1,120,8|0,0:0|0:0,0:0:0:0:
92,124,137391,1,0,0:0:0:0:
140,88,137635,2,0,P|200:92|252:64,2,120,8|2|8,0:0|0:0|0:0,0:0:0:0:
256,192,139098,12,0,141049,0:0:0:0:
176,108,141781,6,0,P|256:72|336:108,1,180,0|4,0:0|0:0,0:0:0:0:
256,192,143001,1,4,0:0:0:0:
256,192,144464,6,0,P|336:228|416:192,1,180,8|4,0:0|0:0,0:0:0:0:
456,144,145440,1,8,0:0:0:0:
372,60,145927,5,2,0:0:0:0:
256,32,146415,1,8,0:0:0:0:
140,60,146903,1,0,0:0:0:0:
96,172,147391,2,0,P|96:232|132:276,1,120,8|2,0:0|0:0,0:0:0:0:
192,260,148122,1,0,0:0:0:0:
224,208,148366,2,0,B|360:176|312:284|456:260,1,240,8|8,0:0|0:0,0:0:0:0:
416,148,149830,5,2,0:0:0:0:
340,56,150318,1,12,0:0:0:0:
232,108,150805,2,0,P|172:112|120:84,2,120,0|8|2,0:0|0:0|0:0,0:0:0:0:
340,56,152269,1,8,0:0:0:0:
400,160,152757,2,0,P|460:164|512:136,2,120,0|8|2,0:0|0:0|0:0,0:0:0:0:
284,196,154220,6,0,P|228:208|188:256,1,120,8|0,0:0|0:0,0:0:0:0:
292,316,155196,1,8,0:0:0:0:
400,264,155683,1,2,0:0:0:0:
452,156,156171,2,0,P|384:64|264:60,1,240,8|8,0:0|0:0,0:0:0:0:
232,176,157635,5,2,0:0:0:0:
120,132,158122,1,8,0:0:0:0:
44,228,158610,1,0,0:0:0:0:
112,328,159098,2,0,P|168:344|228:332,1,120,8|2,0:0|0:0,0:0:0:0:
276,296,159830,1,0,0:0:0:0:
332,312,160074,2,0,P|448:292|472:184,1,240,8|8,0:0|0:0,0:0:0:0:
372,124,161537,5,2,0:0:0:0:
256,88,162025,1,8,0:0:0:0:
140,124,162513,2,0,P|88:148|60:204,1,120,0|8,0:0|0:0,0:0:0:0:
104,244,163244,2,0,L|172:248,1,60,0|2,0:0|0:0,0:0:0:0:
224,260,163732,1,0,0:0:0:0:
288,272,163976,2,0,P|400:240|432:132,1,240,8|8,0:0|0:0,0:0:0:0:
348,48,165440,5,2,0:0:0:0:
256,124,165927,1,12,0:0:0:0:
164,48,166415,2,0,L|100:48,1,60
68,96,166903,2,0,L|0:96,1,60,8|0,0:0|0:0,0:0:0:0:
92,256,167879,2,0,L|152:256,1,60,8|0,0:0|0:0,0:0:0:0:
212,268,168366,1,0,0:0:0:0:
268,292,168610,2,0,P|356:288|412:220,1,180,0|2,0:0|0:0,0:0:0:0:
356,116,169830,5,8,0:0:0:0:
244,108,170318,2,0,L|184:140,1,60
204,196,170805,2,0,L|168:244,1,60,8|0,0:0|0:0,0:0:0:0:
328,324,171781,2,0,L|388:312,1,60,8|0,0:0|0:0,0:0:0:0:
404,256,172269,2,0,L|448:212,1,60
412,100,173001,5,2,0:0:0:0:
356,120,173244,2,0,P|296:120|248:88,1,120,2|8,0:0|0:0,0:0:0:0:
136,132,174220,1,4,0:0:0:0:
