osu file format v12

[General]
AudioFilename: NishinoKana - Where are you.mp3
AudioLeadIn: 0
PreviewTime: 38366
Countdown: 0
SampleSet: Soft
StackLeniency: 0.7
Mode: 0
LetterboxInBreaks: 0
WidescreenStoryboard: 0

[Editor]
Bookmarks: 8366
DistanceSpacing: 1
BeatDivisor: 4
GridSize: 4
TimelineZoom: 1

[Metadata]
Title:Where are you?
TitleUnicode:Where are you?
Artist:Nishino Kana
ArtistUnicode:西野カナ
Creator:Dark_Ai
Version:Hard
Source:
Tags:thank you, Love yanlu
BeatmapID:316508
BeatmapSetID:124090

[Difficulty]
HPDrainRate:6
CircleSize:4
OverallDifficulty:6
ApproachRate:7
SliderMultiplier:1.8
SliderTickRate:1

[Events]
//Background and Video events
0,0,"where are you.jpg",0,0
//Break Periods
2,125440,132344
2,141249,142101
//Storyboard Layer 0 (Background)
//Storyboard Layer 1 (Fail)
//Storyboard Layer 2 (Pass)
//Storyboard Layer 3 (Foreground)
//Storyboard Sound Samples
//Background Colour Transformations
3,100,0,0,0

[TimingPoints]
562,487.80487804878,4,2,1,80,1,0
22513,-100,4,2,2,80,0,0
22635,-100,4,2,1,80,0,0
39586,-100,4,2,1,80,0,1
44952,-200,4,2,1,80,0,1
45683,-100,4,2,1,80,0,1
70318,-100,4,2,1,80,0,0
94220,-100,4,2,1,80,0,1
99586,-200,4,2,1,80,0,1
100318,-100,4,2,1,80,0,1
115196,-200,4,2,1,80,0,1
116171,-100,4,2,1,80,0,1
124952,-100,4,2,1,80,0,0
143001,-100,4,2,1,80,0,1
143122,-100,4,2,1,80,0,0
144464,-100,4,2,1,80,0,1
173732,-100,4,2,1,80,0,0
174220,-100,4,2,1,80,0,1
174342,-100,4,2,1,80,0,0

[Colours]
Combo1 : 255,128,192
Combo2 : 128,0,255
Combo3 : 255,0,128
Combo4 : 128,128,255

[HitObjects]
64,192,8366,5,4,0:0:0:0:
176,48,8854,1,8,0:0:0:0:
224,128,9098,1,2,0:0:0:0:
312,112,9342,2,0,P|368:112|408:224,1,180,2|8,0:0|0:0,0:0:0:0:
280,336,10318,6,0,P|232:328|208:296,1,90,2|0,0:0|0:0,0:0:0:0:
120,304,10805,2,0,P|144:220|232:212,2,180,8|0|8,0:0|0:0|0:0,0:0:0:0:
296,348,12269,6,0,P|344:344|372:316,1,90,2|0,0:0|0:0,0:0:0:0:
304,260,12757,2,0,P|332:232|380:228,1,90,8|0,0:0|0:0,0:0:0:0:
380,140,13244,2,0,P|332:136|304:108,1,90,0|0,0:0|0:0,0:0:0:0:
256,192,13732,12,12,15683,0:0:0:0:
256,296,16171,5,4,0:0:0:0:
324,236,16415,1,0,0:0:0:0:
340,324,16659,1,8,0:0:0:0:
256,296,16903,1,0,0:0:0:0:
324,236,17147,2,0,P|288:208|244:204,1,90,2|0,0:0|0:0,0:0:0:0:
168,252,17635,2,0,P|123:247|88:219,1,90,8|0,0:0|0:0,0:0:0:0:
160,164,18122,1,0,0:0:0:0:
216,96,18366,5,0,0:0:0:0:
256,76,18488,1,0,0:0:0:0:
300,76,18610,2,0,P|344:72|376:40,1,90,8|0,0:0|0:0,0:0:0:0:
464,24,19098,2,0,P|448:64|456:112,1,90,2|0,0:0|0:0,0:0:0:0:
497,269,19586,2,0,P|513:228|508:184,1,90,8|0,0:0|0:0,0:0:0:0:
428,216,20074,6,0,B|368:204|320:264|252:228,1,180,0|8,0:0|0:0,0:0:0:0:
204,156,20805,1,0,0:0:0:0:
164,236,21049,1,2,0:0:0:0:
220,308,21293,1,0,0:0:0:0:
254,228,21537,2,0,B|284:155|348:171|388:115|380:51|316:3|256:64|256:64|188:3|124:51|116:115|172:148|188:152,1,540,10|2,0:0|0:0,0:0:0:0:
186,152,23488,1,8,0:0:0:0:
256,316,23976,6,0,P|300:316|336:288,1,90
284,212,24464,2,0,P|336:288|412:268,2,180,8|2|8,0:0|0:0|0:0,0:0:0:0:
284,212,25927,1,0,0:0:0:0:
256,128,26171,5,0,0:0:0:0:
256,128,26293,1,0,0:0:0:0:
256,128,26415,2,0,P|208:132|172:108,1,90,8|0,0:0|0:0,0:0:0:0:
104,52,26903,2,0,P|81:90|86:134,1,90,2|0,0:0|0:0,0:0:0:0:
144,204,27391,2,0,P|140:288|60:316,1,180,8|0,0:0|0:0,0:0:0:0:
144,204,28366,6,0,P|180:172|224:164,1,90,8|0,0:0|0:0,0:0:0:0:
268,240,28854,2,0,P|312:240|356:220,1,90,2|0,0:0|0:0,0:0:0:0:
364,132,29342,1,8,0:0:0:0:
436,188,29586,1,0,0:0:0:0:
364,132,29830,1,0,0:0:0:0:
472,276,30318,2,0,P|412:336|324:312,2,180,8|2|8,0:0|0:0|0:0,0:0:0:0:
436,188,31537,5,0,0:0:0:0:
364,132,31781,1,0,0:0:0:0:
448,100,32025,1,0,0:0:0:0:
436,188,32269,1,8,0:0:0:0:
364,132,32513,2,0,P|332:100|288:92,1,90,0|2,0:0|0:0,0:0:0:0:
196,192,33001,1,0,0:0:0:0:
196,192,33488,5,0,0:0:0:0:
124,140,33732,1,0,0:0:0:0:
112,228,33976,1,0,0:0:0:0:
196,192,34220,1,8,0:0:0:0:
208,104,34464,2,0,P|256:104|292:80,1,90,0|2,0:0|0:0,0:0:0:0:
396,164,34952,1,0,0:0:0:0:
396,164,35440,6,0,P|380:208|392:248,1,90
368,336,35927,2,0,P|328:312|280:308,1,90,0|8,0:0|0:0,0:0:0:0:
216,364,36415,2,0,P|171:358|133:335,1,90,0|2,0:0|0:0,0:0:0:0:
96,252,36903,5,0,0:0:0:0:
108,144,37147,1,8,0:0:0:0:
212,72,37391,1,0,0:0:0:0:
256,192,37635,12,0,39098,0:0:0:0:
256,304,39586,5,4,0:0:0:0:
328,248,39830,1,0,0:0:0:0:
304,160,40074,2,0,P|264:140|244:100,1,90,8|0,0:0|0:0,0:0:0:0:
156,76,40561,2,0,P|164:120|156:164,1,90,2|0,0:0|0:0,0:0:0:0:
223,296,41049,2,0,P|215:252|224:208,1,90,8|0,0:0|0:0,0:0:0:0:
252,124,41537,1,0,0:0:0:0:
340,136,41781,2,0,P|384:120|412:88,1,90,0|8,0:0|0:0,0:0:0:0:
412,88,42513,5,2,0:0:0:0:
452,168,42757,1,0,0:0:0:0:
464,212,42879,1,0,0:0:0:0:
452,256,43001,1,8,0:0:0:0:
380,308,43244,2,0,P|340:316|300:348,1,90
210,345,43732,2,0,P|175:317|132:308,1,90,0|8,0:0|0:0,0:0:0:0:
60,256,44220,1,0,0:0:0:0:
48,212,44342,1,0,0:0:0:0:
60,168,44464,1,2,0:0:0:0:
100,88,44708,1,0,0:0:0:0:
176,136,44952,6,0,P|244:140|300:104,1,135,8|0,0:0|0:0,0:0:0:0:
356,36,45927,5,8,0:0:0:0:
424,96,46171,1,0,0:0:0:0:
444,184,46415,2,0,P|412:216|404:260,1,90,2|0,0:0|0:0,0:0:0:0:
452,336,46903,2,0,P|483:304|492:261,1,90,12|0,0:0|0:0,0:0:0:0:
444,184,47391,5,4,0:0:0:0:
424,96,47635,1,0,0:0:0:0:
356,156,47879,1,8,0:0:0:0:
444,184,48122,2,0,P|392:244|300:228,1,180
244,160,48854,6,0,P|201:145|158:153,1,90,8|0,0:0|0:0,0:0:0:0:
96,220,49342,1,0,0:0:0:0:
96,312,49586,2,0,P|136:336|180:336,1,90,0|8,0:0|0:0,0:0:0:0:
244,272,50074,1,0,0:0:0:0:
312,328,50318,2,0,P|380:336|436:296,1,135,2|0,0:0|0:0,0:0:0:0:
456,340,50806,2,0,P|423:258|456:176,1,180,8|0,0:0|0:0,0:0:0:0:
408,100,51537,5,0,0:0:0:0:
340,44,51781,1,8,0:0:0:0:
284,116,52025,2,0,P|236:112|200:92,1,90,0|2,0:0|0:0,0:0:0:0:
136,28,52513,1,0,0:0:0:0:
100,108,52757,2,0,P|184:104|224:24,2,180,8|0|4,0:0|0:0|0:0,0:0:0:0:
32,48,53976,5,0,0:0:0:0:
16,136,54220,1,2,0:0:0:0:
100,108,54464,1,0,0:0:0:0:
32,48,54708,1,8,0:0:0:0:
16,136,54952,2,0,P|32:176|76:196,1,90,0|4,0:0|0:0,0:0:0:0:
124,272,55440,2,0,P|96:307|89:351,1,90,0|8,0:0|0:0,0:0:0:0:
180,344,55927,2,0,P|207:308|214:264,1,90,0|2,0:0|0:0,0:0:0:0:
216,176,56415,1,0,0:0:0:0:
160,108,56659,2,0,P|208:176|296:168,2,180,8|0|8,0:0|0:0|0:0,0:0:0:0:
248,88,57879,6,0,P|292:72|340:88,1,90,0|2,0:0|0:0,0:0:0:0:
388,152,58367,1,0,0:0:0:0:
476,136,58610,1,8,0:0:0:0:
448,220,58854,2,0,P|428:280|368:312,1,135
324,312,59342,2,0,P|280:332|256:368,1,90,0|8,0:0|0:0,0:0:0:0:
128,353,59830,6,0,P|169:335|196:300,1,90,0|2,0:0|0:0,0:0:0:0:
116,260,60318,1,0,0:0:0:0:
28,272,60562,2,0,P|56:192|144:176,1,180,8|0,0:0|0:0,0:0:0:0:
228,204,61293,1,0,0:0:0:0:
256,168,61415,1,0,0:0:0:0:
248,124,61537,1,8,0:0:0:0:
172,76,61781,5,0,0:0:0:0:
248,124,62025,2,0,L|340:124,1,90,2|0,0:0|0:0,0:0:0:0:
462,208,62513,2,0,L|372:208,1,90,12|0,0:0|0:0,0:0:0:0:
312,276,63001,1,0,0:0:0:0:
372,208,63245,1,0,0:0:0:0:
339,124,63488,1,8,0:0:0:0:
284,196,63732,2,0,L|192:196,1,90,0|2,0:0|0:0,0:0:0:0:
32,272,64464,6,0,L|120:286,1,90,8|0,0:0|0:0,0:0:0:0:
208,320,64952,1,0,0:0:0:0:
296,344,65196,1,0,0:0:0:0:
380,308,65440,2,0,L|480:292,1,90,8|0,0:0|0:0,0:0:0:0:
500,208,65927,5,2,0:0:0:0:
480,120,66171,1,0,0:0:0:0:
436,132,66293,1,0,0:0:0:0:
396,108,66415,2,0,P|348:108|308:124,1,90,8|0,0:0|0:0,0:0:0:0:
276,208,66903,1,2,0:0:0:0:
224,136,67147,1,0,0:0:0:0:
310,124,67391,1,12,0:0:0:0:
276,208,67635,2,0,P|252:248|216:272,1,90,0|2,0:0|0:0,0:0:0:0:
56,192,68366,5,8,0:0:0:0:
96,112,68610,1,0,0:0:0:0:
56,192,68854,1,0,0:0:0:0:
140,228,69098,2,0,P|180:244|220:276,1,90,0|8,0:0|0:0,0:0:0:0:
280,332,69586,5,0,0:0:0:0:
348,276,69830,1,2,0:0:0:0:
348,276,70318,1,12,0:0:0:0:
388,100,70805,5,0,0:0:0:0:
308,56,71049,1,0,0:0:0:0:
312,144,71293,1,8,0:0:0:0:
388,100,71537,2,0,P|408:144|404:184,1,90,0|2,0:0|0:0,0:0:0:0:
332,240,72025,1,0,0:0:0:0:
244,256,72269,2,0,P|200:260|164:288,1,90,8|0,0:0|0:0,0:0:0:0:
232,344,72757,1,0,0:0:0:0:
340,360,73001,5,0,0:0:0:0:
384,344,73122,1,0,0:0:0:0:
416,312,73244,2,0,P|436:268|432:228,1,90,8|0,0:0|0:0,0:0:0:0:
364,168,73732,2,0,P|344:212|348:256,1,90,2|0,0:0|0:0,0:0:0:0:
432,228,74220,2,0,P|452:184|448:140,1,90,8|0,0:0|0:0,0:0:0:0:
388,76,74708,5,0,0:0:0:0:
256,200,75196,1,8,0:0:0:0:
256,20,75683,1,2,0:0:0:0:
188,76,75927,1,0,0:0:0:0:
100,56,76171,2,0,P|72:92|68:136,1,90,8|0,0:0|0:0,0:0:0:0:
116,212,76659,1,0,0:0:0:0:
196,256,76903,2,0,P|232:284|248:332,1,90,0|8,0:0|0:0,0:0:0:0:
404,232,77635,5,2,0:0:0:0:
452,164,77879,1,0,0:0:0:0:
384,108,78122,1,8,0:0:0:0:
256,236,78610,5,0,0:0:0:0:
168,212,78854,1,0,0:0:0:0:
192,300,79098,1,8,0:0:0:0:
256,236,79342,1,0,0:0:0:0:
320,300,79586,2,0,P|356:320|404:324,1,90,2|0,0:0|0:0,0:0:0:0:
464,256,80074,2,0,P|444:172|360:144,1,180,8|0,0:0|0:0,0:0:0:0:
324,224,80805,5,0,0:0:0:0:
288,196,80927,1,0,0:0:0:0:
272,152,81049,2,0,P|276:108|304:72,1,90,8|0,0:0|0:0,0:0:0:0:
390,52,81537,2,0,P|350:68|303:73,1,90,2|0,0:0|0:0,0:0:0:0:
220,36,82025,2,0,P|132:52|88:124,1,180,8|0,0:0|0:0,0:0:0:0:
180,280,83001,6,0,P|224:268|260:240,1,90,8|0,0:0|0:0,0:0:0:0:
264,152,83488,2,0,P|220:164|184:192,1,90,2|0,0:0|0:0,0:0:0:0:
259,242,83976,2,0,P|303:230|339:202,1,90,8|0,0:0|0:0,0:0:0:0:
344,112,84464,1,0,0:0:0:0:
344,112,84952,1,8,0:0:0:0:
168,112,85440,1,2,0:0:0:0:
168,112,85928,1,8,0:0:0:0:
256,136,86171,5,0,0:0:0:0:
216,216,86415,2,0,L|172:296,1,90,4|0,0:0|0:0,0:0:0:0:
228,364,86903,2,0,L|312:204,1,180,8|2,0:0|0:0,0:0:0:0:
400,216,87635,2,0,L|356:294,1,90,0|8,0:0|0:0,0:0:0:0:
268,288,88122,2,0,L|311:209,1,90
352,128,88610,1,0,0:0:0:0:
268,96,88854,1,2,0:0:0:0:
204,160,89098,2,0,P|172:192|124:208,1,90
122,319,89586,2,0,P|154:287|196:272,1,90,0|8,0:0|0:0,0:0:0:0:
284,288,90074,5,0,0:0:0:0:
372,280,90318,2,0,P|416:272|456:244,1,90,2|0,0:0|0:0,0:0:0:0:
465,155,90805,2,0,P|421:163|384:188,1,90,2|0,0:0|0:0,0:0:0:0:
290,311,91293,2,0,P|334:304|372:279,1,90,2|0,0:0|0:0,0:0:0:0:
204,296,91781,2,0,P|160:304|120:332,1,90,2|0,0:0|0:0,0:0:0:0:
44,284,92269,5,0,0:0:0:0:
12,252,92391,1,0,0:0:0:0:
8,200,92513,1,0,0:0:0:0:
40,168,92635,1,0,0:0:0:0:
76,156,92757,1,0,0:0:0:0:
120,140,92879,1,0,0:0:0:0:
148,104,93001,1,0,0:0:0:0:
140,60,93122,1,0,0:0:0:0:
116,20,93244,6,0,P|164:16|204:-4,1,90
256,68,93732,2,0,L|256:160,1,90
256,192,94220,5,4,0:0:0:0:
212,272,94464,1,0,0:0:0:0:
304,272,94708,1,8,0:0:0:0:
256,192,94952,2,0,L|256:100,1,90
300,24,95440,1,0,0:0:0:0:
212,24,95683,5,8,0:0:0:0:
124,44,95927,1,0,0:0:0:0:
104,132,96171,1,2,0:0:0:0:
164,196,96415,2,0,P|152:240|120:268,1,90,0|8,0:0|0:0,0:0:0:0:
28,268,96903,1,0,0:0:0:0:
72,188,97147,5,0,0:0:0:0:
32,108,97391,1,0,0:0:0:0:
52,68,97513,1,0,0:0:0:0:
92,48,97635,2,0,P|136:56|180:40,1,90,8|0,0:0|0:0,0:0:0:0:
313,109,98122,2,0,P|270:101|228:116,1,90,2|0,0:0|0:0,0:0:0:0:
134,210,98610,2,0,P|177:218|220:204,1,90,8|0,0:0|0:0,0:0:0:0:
296,256,99098,1,0,0:0:0:0:
360,320,99342,1,0,0:0:0:0:
384,280,99464,1,0,0:0:0:0:
388,236,99586,6,0,P|356:180|292:160,1,135,8|0,0:0|0:0,0:0:0:0:
204,184,100561,5,8,0:0:0:0:
132,128,100805,1,0,0:0:0:0:
176,48,101049,2,0,P|236:64|312:44,1,135
352,52,101537,2,0,P|392:72|416:112,1,90,8|0,0:0|0:0,0:0:0:0:
424,200,102025,5,2,0:0:0:0:
384,280,102269,1,0,0:0:0:0:
296,296,102513,1,8,0:0:0:0:
228,236,102757,2,0,B|168:192|104:236|104:236|72:200,1,180
36,120,103488,6,0,P|80:112|124:128,1,90,8|0,0:0|0:0,0:0:0:0:
208,148,103976,1,2,0:0:0:0:
292,136,104220,2,0,P|332:160|376:160,1,90,0|8,0:0|0:0,0:0:0:0:
352,72,104708,1,0,0:0:0:0:
352,72,104952,2,0,P|420:80|460:128,1,135
460,176,105440,2,0,P|428:248|460:340,1,180,8|2,0:0|0:0,0:0:0:0:
372,356,106171,5,0,0:0:0:0:
296,308,106415,1,8,0:0:0:0:
216,348,106659,2,0,P|168:344|132:324,1,90
100,240,107147,1,0,0:0:0:0:
144,160,107391,2,0,P|228:156|264:76,2,180,8|2|12,0:0|0:0|0:0,0:0:0:0:
76,100,108610,6,0,P|36:120|16:164,1,90
44,244,109098,1,0,0:0:0:0:
128,272,109342,1,8,0:0:0:0:
216,248,109586,2,0,P|260:256|304:296,1,90,0|2,0:0|0:0,0:0:0:0:
364,344,110074,2,0,P|371:300|399:264,1,90,0|8,0:0|0:0,0:0:0:0:
464,200,110561,2,0,P|420:188|380:160,1,90
308,112,111049,1,0,0:0:0:0:
272,192,111293,2,0,P|216:244|116:248,2,180,8|2|8,0:0|0:0|0:0,0:0:0:0:
308,112,112513,6,0,P|352:124|400:112,1,90
464,60,113001,1,0,0:0:0:0:
508,140,113244,1,8,0:0:0:0:
472,224,113488,2,0,P|416:248|392:316,1,135
388,336,113976,2,0,P|344:356|300:356,1,90,0|8,0:0|0:0,0:0:0:0:
228,308,114464,2,0,P|183:309|142:328,1,90
80,264,114952,1,0,0:0:0:0:
100,176,115196,6,0,P|180:140|200:56,1,180,8|8,0:0|0:0,0:0:0:0:
288,44,116415,5,0,0:0:0:0:
288,44,116659,2,0,L|380:44,1,90
416,124,117147,2,0,L|326:124,1,90,8|0,0:0|0:0,0:0:0:0:
260,184,117635,1,6,0:0:0:0:
344,212,117879,1,0,0:0:0:0:
326,124,118122,1,8,0:0:0:0:
260,184,118366,2,0,L|168:184,1,90
256,340,119098,6,0,L|348:336,1,90,8|0,0:0|0:0,0:0:0:0:
424,292,119586,1,2,0:0:0:0:
460,208,119830,2,0,P|464:160|456:120,1,90,0|8,0:0|0:0,0:0:0:0:
288,56,120561,5,0,0:0:0:0:
224,120,120805,1,0,0:0:0:0:
180,112,120927,1,0,0:0:0:0:
148,80,121049,2,0,P|100:80|60:96,1,90,8|0,0:0|0:0,0:0:0:0:
116,168,121537,1,2,0:0:0:0:
40,216,121781,1,0,0:0:0:0:
120,256,122025,1,8,0:0:0:0:
116,168,122269,2,0,P|160:168|200:188,1,90
320,324,123001,5,8,0:0:0:0:
388,264,123244,1,0,0:0:0:0:
304,236,123488,1,2,0:0:0:0:
320,324,123732,2,0,L|388:264,1,90,0|8,0:0|0:0,0:0:0:0:
436,188,124220,1,2,0:0:0:0:
388,112,124464,2,4,B|332:116|304:84|304:84|268:104|216:84,1,180,4|12,0:0|0:0,0:0:0:0:
128,148,133244,6,0,P|120:192|128:236,1,90,4|0,0:0|0:0,0:0:0:0:
208,280,133732,2,0,P|216:235|208:191,1,90,8|0,0:0|0:0,0:0:0:0:
303,191,134220,2,0,P|295:235|304:280,1,90,2|0,0:0|0:0,0:0:0:0:
383,236,134708,2,0,P|392:192|384:148,1,90,8|0,0:0|0:0,0:0:0:0:
304,192,135196,1,0,0:0:0:0:
256,116,135440,5,0,0:0:0:0:
208,192,135683,1,8,0:0:0:0:
164,116,135927,1,0,0:0:0:0:
208,192,136171,2,0,L|208:284,1,90,2|0,0:0|0:0,0:0:0:0:
288,324,136659,2,0,L|288:234,1,90,8|0,0:0|0:0,0:0:0:0:
288,144,137147,6,0,P|300:100|332:72,1,90
424,76,137635,2,0,P|412:120|380:148,1,90,8|0,0:0|0:0,0:0:0:0:
288,144,138122,1,2,0:0:0:0:
224,208,138366,2,0,P|188:236|172:280,1,90,0|8,0:0|0:0,0:0:0:0:
260,288,138854,1,0,0:0:0:0:
344,320,139098,5,0,0:0:0:0:
344,320,139220,1,0,0:0:0:0:
344,320,139342,1,0,0:0:0:0:
344,320,139464,1,0,0:0:0:0:
344,320,139586,1,0,0:0:0:0:
344,320,139708,1,0,0:0:0:0:
344,320,139830,1,0,0:0:0:0:
344,320,139952,1,0,0:0:0:0:
344,320,140074,2,0,L|364:364,8,45,2|0|0|0|8|0|0|0|4,0:0|0:0|0:0|0:0|0:0|0:0|0:0|0:0|0:0,0:0:0:0:
256,56,143001,5,4,0:0:0:0:
256,192,144464,1,4,0:0:0:0:
256,328,145196,1,0,0:0:0:0:
256,328,145440,1,8,0:0:0:0:
372,192,145927,5,2,0:0:0:0:
360,104,146171,1,0,0:0:0:0:
316,96,146293,1,0,0:0:0:0:
276,112,146415,2,0,P|232:120|188:104,1,90,8|0,0:0|0:0,0:0:0:0:
82,185,146903,2,0,P|125:177|168:192,1,90
256,212,147391,1,8,0:0:0:0:
328,268,147635,2,0,P|370:282|413:274,2,90,0|2|0,0:0|0:0|0:0,0:0:0:0:
256,212,148366,2,0,L|256:32,2,180,8|0|8,0:0|0:0|0:0,0:0:0:0:
256,304,149586,5,0,0:0:0:0:
172,340,149830,2,0,P|104:316|80:260,1,135,2|0,0:0|0:0,0:0:0:0:
92,240,150318,2,0,P|104:196|104:152,1,90,12|0,0:0|0:0,0:0:0:0:
32,96,150805,5,4,0:0:0:0:
96,32,151049,1,0,0:0:0:0:
176,68,151293,1,8,0:0:0:0:
224,144,151537,2,0,P|308:136|360:60,1,180
444,28,152269,1,8,0:0:0:0:
488,108,152513,1,0,0:0:0:0:
460,192,152757,1,0,0:0:0:0:
372,196,153001,2,0,P|384:240|416:272,1,90,0|8,0:0|0:0,0:0:0:0:
472,340,153488,5,0,0:0:0:0:
384,360,153732,2,0,P|344:348|296:352,1,90,2|0,0:0|0:0,0:0:0:0:
256,332,154098,1,0,0:0:0:0:
216,352,154220,2,0,P|132:328|112:244,1,180,8|0,0:0|0:0,0:0:0:0:
200,264,154952,1,0,0:0:0:0:
256,192,155196,1,8,0:0:0:0:
268,104,155440,2,0,P|308:88|356:88,1,90,0|2,0:0|0:0,0:0:0:0:
428,140,155927,1,0,0:0:0:0:
476,216,156171,2,0,B|416:252|360:188|296:216,2,180,8|0|12,0:0|0:0|0:0,0:0:0:0:
428,140,157391,6,0,L|353:86,1,90,0|2,0:0|0:0,0:0:0:0:
268,104,157879,1,0,0:0:0:0:
220,180,158122,1,8,0:0:0:0:
132,172,158366,2,0,L|48:212,1,90,0|4,0:0|0:0,0:0:0:0:
32,300,158854,2,0,L|113:261,1,90,0|8,0:0|0:0,0:0:0:0:
188,308,159342,2,0,L|269:269,1,90,0|8,0:0|0:0,0:0:0:0:
320,192,159830,1,0,0:0:0:0:
324,104,160074,2,0,P|392:144|392:240,2,180,8|0|8,0:0|0:0|0:0,0:0:0:0:
248,152,161293,6,0,P|204:156|160:140,1,90,0|2,0:0|0:0,0:0:0:0:
80,104,161781,2,0,P|83:148|68:190,1,90,0|8,0:0|0:0,0:0:0:0:
20,268,162269,2,0,P|108:272|160:200,1,180
204,124,163001,1,8,0:0:0:0:
256,196,163244,5,0,0:0:0:0:
348,196,163488,1,2,0:0:0:0:
368,284,163732,1,0,0:0:0:0:
300,344,163976,2,0,P|208:356|140:304,2,180,8|0|8,0:0|0:0|0:0,0:0:0:0:
368,284,165196,5,0,0:0:0:0:
408,204,165440,2,0,P|420:168|384:112,1,90,2|0,0:0|0:0,0:0:0:0:
320,80,165927,1,8,0:0:0:0:
256,144,166171,1,0,0:0:0:0:
192,80,166415,6,0,P|144:88|112:116,1,90,4|0,0:0|0:0,0:0:0:0:
105,202,166903,2,0,P|149:195|184:168,1,90,8|0,0:0|0:0,0:0:0:0:
256,112,167391,1,2,0:0:0:0:
256,204,167635,1,0,0:0:0:0:
256,204,167757,1,0,0:0:0:0:
256,204,167879,2,0,L|272:296,1,90,8|0,0:0|0:0,0:0:0:0:
348,344,168366,1,0,0:0:0:0:
436,336,168610,2,0,P|440:292|428:248,1,90,0|8,0:0|0:0,0:0:0:0:
308,116,169342,5,2,0:0:0:0:
256,44,169586,1,0,0:0:0:0:
212,60,169708,1,0,0:0:0:0:
184,92,169830,2,0,P|140:108|92:104,1,90,8|0,0:0|0:0,0:0:0:0:
44,32,170318,1,2,0:0:0:0:
12,116,170561,1,0,0:0:0:0:
98,106,170805,1,8,0:0:0:0:
68,192,171049,2,0,P|124:244|216:216,1,180
268,144,171781,5,8,0:0:0:0:
304,228,172025,1,0,0:0:0:0:
216,217,172269,1,0,0:0:0:0:
304,228,172513,2,0,P|316:276|300:320,1,90,0|8,0:0|0:0,0:0:0:0:
240,376,173001,5,2,0:0:0:0:
152,380,173244,2,0,P|64:364|40:284,1,180,2|12,0:0|0:0,0:0:0:0:
192,192,174220,1,4,0:0:0:0:
