osu file format v9

[General]
AudioFilename: 02 - Stamp.mp3
AudioLeadIn: 0
PreviewTime: 22116
Countdown: 0
SampleSet: Normal
StackLeniency: 0.7
Mode: 0
LetterboxInBreaks: 0

[Editor]
Bookmarks: 39712,41894,59348,76526,78985,96439,116071,131348,135712,153167,177167
DistanceSpacing: 1
BeatDivisor: 4
GridSize: 8

[Metadata]
Title:Stamp
Artist:Nishino Kana
Creator:Lizbeth
Version:Normal
Source:Soul Eater
Tags:Lissette kiiwa toejamms Liz & Liss collab collaboration

[Difficulty]
HPDrainRate:5
CircleSize:4
OverallDifficulty:5
ApproachRate:5
SliderMultiplier:1.2
SliderTickRate:2

[Events]
//Background and Video events
0,0,"astomoe.jpeg"
//Break Periods
//Storyboard Layer 0 (Background)
//Storyboard Layer 1 (Fail)
//Storyboard Layer 2 (Pass)
//Storyboard Layer 3 (Foreground)
Sprite,Foreground,Centre,"SB\Liz&Liss.png",320,240 M,0,-928,177162,418,354 S,0,-928,177162,0.85664
//Storyboard Sound Samples
//Background Colour Transformations
3,100,163,162,255

[TimingPoints]
13526,545.454545454546,4,1,1,20,1,0
18571,-100,4,1,1,20,0,0
18844,-100,4,1,1,20,0,0
19116,-100,4,1,1,20,0,0
19389,-100,4,1,1,20,0,0
19662,-100,4,1,1,20,0,0
19935,-100,4,2,1,30,0,0
22116,-100,4,2,1,40,0,0
24435,-133.333333333333,4,2,1,40,0,0
24571,-133.333333333333,4,1,1,40,0,0
25116,-100,4,1,1,30,0,0
26480,-100,4,1,1,30,0,0
41344,-200,4,2,1,40,0,0
41889,-200,4,1,1,30,0,0
42026,-200,4,2,1,40,0,0
46116,-200,4,1,1,30,0,0
46389,-200,4,2,1,40,0,0
48026,-100,4,1,1,30,0,0
58389,-100,4,1,1,30,0,0
59207,-100,4,2,1,40,0,0
61526,-133.333333333333,4,1,1,30,0,0
62207,-100,4,1,1,30,0,0
78980,-83.3333333333333,4,2,1,40,0,1
79048,-83.3333333333333,4,1,1,30,0,1
94116,-83.3333333333333,4,1,1,30,0,1
94662,-83.3333333333333,4,1,1,20,0,1
95207,-83.3333333333333,4,1,1,10,0,1
95753,-83.3333333333333,4,1,1,5,0,1
96435,-100,4,2,1,40,0,0
98616,-200,4,1,1,30,0,0
98753,-200,4,2,1,40,0,0
102844,-200,4,1,1,30,0,0
103116,-200,4,2,1,40,0,0
107344,-100,4,1,1,30,0,0
115935,-100,4,2,1,40,0,0
129162,-100,4,2,1,40,0,0
135162,-100,4,1,1,30,0,0
153162,-83.3333333333333,4,1,1,40,0,1
170480,-83.3333333333333,4,1,1,30,0,1
171571,-83.3333333333333,4,1,1,20,0,1
172662,-83.3333333333333,4,1,1,40,0,1
172798,-100,4,2,1,40,0,0

[Colours]
Combo1 : 255,149,149
Combo2 : 255,255,108
Combo3 : 186,117,255
Combo4 : 176,255,98

[HitObjects]
184,64,13525,2,0,B|80:128,3,120
192,184,15707,6,0,B|312:216,3,120
384,312,17889,5,0
472,232,18435,2,0,B|472:168,1,60
416,152,18980,2,0,B|392:96,1,60
336,104,19525,2,0,B|256:72,1,60
232,120,20071,6,0,B|168:152|96:112,3,120,2|2|2|2
104,256,22253,5,2
104,256,23344,1,0
104,256,24435,2,0,B|144:288|200:272,1,89.9999973177911,2|8
232,256,25253,2,0,B|256:184,1,60,0|2
200,168,25798,2,0,B|176:112,2,60,2|10|0
248,136,26616,6,0,B|272:64|352:72,1,120,0|8
312,192,27707,2,0,B|291:254|219:254,1,120,0|8
352,312,28798,2,0,B|376:240|456:248,1,120,0|8
480,200,29616,2,0,B|496:144,1,60,0|2
440,120,30162,2,0,B|432:56,1,60,2|10
376,72,30707,2,0,B|320:40,1,60
208,72,31525,6,0,B|168:136,1,60,8|0
232,152,32071,2,0,B|256:216,1,60
200,240,32616,2,0,B|136:272|144:360,3,120,8|0|8|2
88,312,34525,2,0,B|48:256,1,60,2|10
88,216,35071,2,0,B|112:152,1,60,0|0
216,104,35889,6,0,B|256:48|352:72,2,120,8|0|8
320,168,37526,2,0,B|352:224,1,60
288,224,38071,2,0,B|272:296,1,60,10|0
216,264,38616,2,0,B|160:304,1,60
152,240,39162,2,0,B|80:224,1,60,10|0
408,72,41889,6,0,B|448:112|424:160,2,90,0|0|0
344,136,44071,2,0,B|312:192|336:264,1,120
104,352,46253,6,0,B|56:264|96:168,1,180,0|0
72,56,48435,5,0
184,104,48980,1,0
296,56,49526,1,8
408,104,50071,1,8
440,224,50616,6,0,B|424:296,1,60
376,320,51162,1,8
296,224,51707,2,0,B|280:160,1,60
232,128,52253,1,8
144,208,52798,2,0,B|96:256|120:336,2,120,0|8|0
120,152,54162,6,0,B|120:72,1,60,0|8
176,96,54707,2,0,B|192:40,1,60,8|0
248,56,55253,2,0,B|304:8,1,60,0|8
336,56,55798,2,0,B|408:40,2,60,0|0|0
336,120,56616,2,0,B|408:136,2,60,8|0|0
216,144,57707,5,0
120,216,58253,1,0
184,312,58798,1,0
304,288,59344,5,2
304,288,60435,1,0
304,288,61526,2,0,B|352:280|368:216,1,89.9999973177911,0|8
336,192,62344,2,0,B|368:136,1,60,0|2
304,136,62889,2,0,B|304:64,2,60,2|10|0
248,128,63707,6,0,B|216:56|136:48,1,120,0|8
144,168,64798,2,0,B|96:112|24:160,1,120,0|8
88,256,65889,2,0,B|8:264|8:352,2,120,0|8|2
136,296,67253,2,0,B|176:352,1,60,2|2
224,312,67798,2,0,B|288:296,1,60,2|0
400,320,68616,6,0,B|432:192,1,120,8|0
352,112,69707,2,0,B|320:240,2,120,8|0|8
296,96,71071,2,0,B|256:40,1,60,0|2
216,88,71616,2,0,B|160:104,1,60,2|10
144,48,72162,2,0,B|88:32,1,60,2|0
64,152,72980,6,0,B|32:224|96:272,1,120,8|0
184,192,74071,2,0,B|248:232|200:320,1,120,8|0
210,297,74889,1,0
256,344,75162,2,0,B|320:336,1,60,8|0
304,280,75707,2,0,B|352:232,1,60,2|2
304,192,76253,2,0,B|304:112,1,60,10|0
168,64,78980,5,2
104,96,79253,1,0
72,160,79526,2,0,B|112:224|72:304,1,144.000003433228,8|0
208,352,80616,2,0,B|176:288|224:200,1,144.000003433228,8|0
280,176,81435,5,0
344,216,81707,1,8
416,208,81980,2,0,B|424:128,1,72.0000017166138,0|2
360,96,82526,2,0,B|336:16,1,72.0000017166138,2|10
272,48,83071,2,0,B|200:16,1,72.0000017166138
128,128,83889,5,8
80,184,84162,1,0
96,256,84435,1,0
240,224,84980,1,8
312,224,85253,1,0
352,288,85526,6,0,B|432:328,1,72.0000017166138
456,256,86071,2,0,B|391:223,1,72.0000017166138,8|0
408,152,86616,1,2
336,152,86889,1,2
280,104,87162,1,10
208,104,87435,1,0
136,104,87707,6,0,B|56:160,1,72.0000017166138
112,208,88253,2,0,B|184:160,1,72.0000017166138,8|0
208,232,88798,2,0,B|128:288,2,72.0000017166138,0|0|8
272,200,89616,1,0
344,208,89889,5,0
376,272,90162,1,0
448,256,90435,1,8
480,192,90707,2,0,B|512:152|472:120,1,72.0000017166138,0|2
416,96,91253,2,0,B|408:48|456:32,2,72.0000017166138,2|2|0
384,160,92071,6,0,B|336:224|232:208,1,144.000003433228,0|8
224,144,92889,1,0
192,80,93162,2,0,B|104:112,1,72.0000017166138
128,176,93707,2,0,B|64:232,1,72.0000017166138,8|0
64,296,94253,5,2
128,328,94525,1,0
192,288,94798,2,0,B|272:336,1,72.0000017166138,2|0
320,296,95344,1,2
384,328,95616,1,0
440,288,95889,2,0,B|504:328,1,72.0000017166138,2|0
400,56,98344,5,0
400,56,98616,2,0,B|448:96|440:176,1,120,0|0
368,192,100253,1,0
288,192,100798,2,0,B|248:240|264:304,1,120
192,344,102435,1,0
104,320,102980,2,0,B|136:256|104:192,1,120,0|0
80,120,104616,5,0
168,144,105162,1,0
256,168,105707,1,0
344,192,106253,1,0
432,216,106798,1,0
432,216,107344,6,0,B|432:296,1,60
376,272,107889,2,0,B|352:328,1,60
296,296,108435,2,0,B|240:328,1,60
216,272,108980,1,0
216,272,109525,6,0,B|216:200,1,60
160,216,110071,2,0,B|128:160,1,60
80,192,110616,2,0,B|24:168,1,60
0,224,111162,1,0
56,328,111707,6,0,B|120:360|184:320,1,120,0|0
208,280,112525,2,0,B|208:216,1,60,0|0
264,232,113071,2,0,B|280:160,1,60,0|0
336,192,113616,1,0
392,208,113889,5,0
504,176,114435,1,8
464,64,114980,1,0
352,104,115525,1,8
296,96,115798,1,0
240,88,116071,5,2
240,88,116616,1,0
64,72,117162,6,0,B|64:144,1,60,2|0
144,88,117707,2,0,B|144:152,1,60
232,144,118253,5,2
232,144,118798,1,0
408,104,120435,5,2
408,104,120980,1,0
424,208,121525,5,2
424,208,122071,1,0
440,304,122616,5,2
440,304,123162,1,0
448,32,124798,5,2
288,80,125889,5,0
128,120,126980,5,2
280,144,129162,5,2
392,208,130253,5,0
504,272,131344,5,2
80,136,135707,6,0,B|32:88,2,60,0|0|8
200,112,136798,2,0,B|216:32,2,60,0|0|8
168,232,137889,2,0,B|176:296|256:328,2,120,0|8|0
128,192,139253,6,0,B|48:176,2,60,0|8|8
136,136,140071,2,0,B|152:72|216:40,1,120,0|8
328,56,141162,2,0,B|312:128|248:152,1,120,0|8
292,274,142253,2,0,B|312:216|368:184,1,120,0|8
480,202,143344,2,0,B|464:256|408:296,1,120,0|8
368,256,144162,1,8
368,256,144435,5,0
280,336,144980,1,8
168,288,145525,1,0
64,352,146071,1,8
64,232,146616,6,0,B|40:88,1,120,0|8
152,56,147707,2,0,B|144:176,1,120,0|0
184,216,148526,1,8
232,256,148798,6,0,B|288:120,1,120,0|8
328,112,149616,2,0,B|400:128,1,60,0|0
352,176,150162,2,0,B|392:224,2,60,0|8|0
336,232,150980,6,0,B|344:280|312:304,2,60,0|0|8
224,200,152071,2,0,B|200:224|208:280,2,60
272,248,152889,1,0
248,312,153162,6,0,B|416:344,1,144.000003433228,0|8
440,288,153980,1,0
408,224,154253,2,0,B|368:136|416:64,1,144.000003433228,0|8
352,40,155071,1,0
296,88,155344,1,0
232,56,155616,6,0,B|160:56,1,72.0000017166138,0|8
160,128,156162,2,0,B|72:152,1,72.0000017166138,0|2
120,216,156707,2,0,B|56:264,2,72.0000017166138,2|10|0
192,200,157526,5,0
224,264,157798,1,0
296,256,158071,1,8
328,112,158616,1,0
400,104,158889,1,0
432,168,159162,1,8
416,312,159707,2,0,B|320:312|352:336|248:336,1,144.000003433228,0|8
216,296,160526,6,0,B|160:240,1,72.0000017166138,0|2
96,264,161071,2,0,B|80:176,1,72.0000017166138,2|10
16,168,161616,1,0
32,96,161889,6,0,B|80:24|176:32,1,144.000003433228,0|8
224,152,162980,2,0,B|328:152|352:80,1,144.000003433228,0|8
480,152,164071,6,0,B|488:224,1,72.0000017166138
416,208,164616,2,0,B|424:280,1,72.0000017166138,8|0
352,264,165162,2,0,B|272:264,1,72.0000017166138,2|2
272,336,165707,2,0,B|176:336,1,72.0000017166138,10|0
168,272,166253,6,0,B|72:280|72:168,1,144.000003433228,0|8
144,168,167071,1,0
176,104,167344,2,0,B|208:32,1,72.0000017166138
280,32,167889,2,0,B|248:112,1,72.0000017166138,8|0
288,160,168435,2,0,B|352:200|448:152,1,144.000003433228,0|8
376,24,169526,5,2
304,24,169798,1,2
232,40,170071,2,0,B|152:40,1,72.0000017166138,2|0
128,112,170616,5,0
200,112,170889,1,0
264,144,171162,2,0,B|368:144,1,72.0000017166138
368,216,171707,5,0
296,216,171980,1,0
248,272,172253,2,0,B|160:272,1,72.0000017166138
256,192,172798,12,0,177162
