osu file format v9

[General]
AudioFilename: 02 - Stamp.mp3
AudioLeadIn: 0
PreviewTime: 22116
Countdown: 0
SampleSet: Normal
StackLeniency: 0.7
Mode: 0
LetterboxInBreaks: 0

[Editor]
DistanceSpacing: 1
BeatDivisor: 4
GridSize: 8

[Metadata]
Title:Stamp
Artist:Nishino Kana
Creator:Lizbeth
Version:Kiiwa
Source:Soul Eater
Tags:Lissette kiiwa toejamms Liz & Liss collab collaboration

[Difficulty]
HPDrainRate:5
CircleSize:4
OverallDifficulty:7
ApproachRate:8
SliderMultiplier:1.6
SliderTickRate:1

[Events]
//Background and Video events
0,0,"astomoe.jpeg"
//Break Periods
2,42089,48776
2,98616,104412
//Storyboard Layer 0 (Background)
//Storyboard Layer 1 (Fail)
//Storyboard Layer 2 (Pass)
//Storyboard Layer 3 (Foreground)
Sprite,Foreground,Centre,"SB\Kiiwa.png",320,240 M,0,0,172798,426,354 S,0,0,172798,0.8156799
//Storyboard Sound Samples
//Background Colour Transformations
3,100,163,162,255

[TimingPoints]
13526,545.454545454546,4,1,0,35,1,0
15707,-100,4,1,0,40,0,0
15980,-100,4,2,0,70,0,0
16253,-100,4,1,0,40,0,0
16526,-100,4,2,0,70,0,0
16798,-100,4,1,0,40,0,0
17071,-100,4,2,0,70,0,0
17344,-100,4,1,0,40,0,0
17616,-100,4,2,0,70,0,0
17889,-100,4,1,0,35,0,0
18435,-100,4,1,0,40,0,0
18980,-100,4,1,0,35,0,0
19526,-100,4,1,0,30,0,0
20071,-100,4,1,0,25,0,0
21707,-100,4,1,0,20,0,0
22253,-100,4,1,0,30,0,0
26616,-100,4,1,0,20,0,0
27162,-100,4,1,0,25,0,0
27707,-100,4,1,0,30,0,0
39707,-100,4,1,0,30,0,0
40253,-100,4,1,0,25,0,0
40798,-100,4,1,0,20,0,0
41344,-100,4,1,0,15,0,0
41889,-100,4,1,0,10,0,0
50616,-100,4,1,0,30,0,0
52798,-133.333333333333,4,1,0,30,0,0
53344,-100,4,1,0,30,0,0
63707,-100,4,1,0,20,0,0
64253,-100,4,1,0,25,0,0
64798,-100,4,1,0,30,0,0
76798,-100,4,1,0,20,0,0
77344,-100,4,1,0,25,0,0
77889,-100,4,1,0,30,0,0
78435,-100,4,1,0,35,0,0
78980,-83.3333333333333,4,1,0,40,0,1
82253,-83.3333333333333,4,2,0,60,0,1
82798,-83.3333333333333,4,1,0,40,0,1
83071,-83.3333333333333,4,2,0,40,0,1
83344,-83.3333333333333,4,1,0,40,0,1
86616,-83.3333333333333,4,2,0,60,0,1
87162,-83.3333333333333,4,1,0,40,0,1
87435,-83.3333333333333,4,2,0,40,0,1
87707,-83.3333333333333,4,1,0,40,0,1
90980,-83.3333333333333,4,2,0,60,0,1
91526,-83.3333333333333,4,1,0,40,0,1
91798,-83.3333333333333,4,2,0,40,0,1
92071,-83.3333333333333,4,1,0,40,0,1
94253,-100,4,1,0,30,0,0
94798,-100,4,1,0,25,0,0
95344,-100,4,1,0,20,0,0
95889,-100,4,1,0,15,0,0
96435,-100,4,1,0,10,0,0
107344,-100,4,1,0,30,0,0
116071,-100,4,1,0,40,0,0
116616,-100,4,1,0,25,0,0
117162,-100,4,1,0,30,0,0
117435,-100,4,1,0,25,0,0
117707,-100,4,1,0,30,0,0
117980,-100,4,1,0,25,0,0
118253,-100,4,1,0,40,0,0
118798,-100,4,1,0,30,0,0
135162,-100,4,1,0,40,0,0
135707,-100,4,1,0,30,0,0
153162,-83.3333333333333,4,1,0,40,0,1
156435,-83.3333333333333,4,2,0,60,0,1
156980,-83.3333333333333,4,1,0,40,0,1
157253,-83.3333333333333,4,2,0,40,0,1
157526,-83.3333333333333,4,1,0,40,0,1
160798,-83.3333333333333,4,2,0,60,0,1
161344,-83.3333333333333,4,1,0,40,0,1
161616,-83.3333333333333,4,2,0,40,0,1
161889,-83.3333333333333,4,1,0,40,0,1
165162,-83.3333333333333,4,2,0,60,0,1
165707,-83.3333333333333,4,1,0,40,0,1
165980,-83.3333333333333,4,2,0,40,0,1
166253,-83.3333333333333,4,1,0,40,0,1
169526,-83.3333333333333,4,2,0,60,0,1
170071,-83.3333333333333,4,1,0,40,0,1
170344,-83.3333333333333,4,2,0,40,0,1
170616,-83.3333333333333,4,1,0,40,0,1
172798,-100,4,1,0,30,0,0

[Colours]
Combo1 : 255,149,149
Combo2 : 255,255,108
Combo3 : 186,117,255
Combo4 : 176,255,98

[HitObjects]
192,72,13525,5,0
360,128,14071,1,0
304,296,14616,1,0
136,240,15162,1,0
158,154,15707,5,0
158,154,15980,1,0
277,94,16253,1,0
277,94,16525,1,0
337,213,16798,1,0
337,213,17071,1,0
216,272,17344,1,0
216,272,17616,1,0
304,288,17889,5,0
128,256,18435,1,0
312,280,18707,5,0
232,176,18980,1,0
120,248,19253,1,0
218,273,19525,5,0
232,168,19798,1,0
246,63,20071,1,0
256,192,20207,12,0,21707
398,236,22253,6,0,B|340:228|324:206,2,80,0|0|8
280,83,23344,6,0,B|302:135|291:161,2,80,0|0|8
208,264,24435,6,0,B|241:215|294:204,2,80,0|0|8
139,332,25253,5,0
226,205,25525,1,0
77,257,25798,1,0
228,298,26071,1,8
128,177,26344,1,0
159,248,26616,5,2
256,120,27162,1,10
353,248,27707,1,2
304,184,27980,5,0
208,184,28253,1,8
256,112,28525,1,0
256,192,28798,12,8,30435
192,112,30980,5,0
192,112,31253,1,0
144,176,31525,1,8
144,176,31798,1,0
72,208,32071,2,0,B|24:224,2,40
136,256,32616,2,0,B|160:304|160:368,1,80,8|0
176,304,33025,1,0
192,280,33162,6,0,B|248:256|328:288|320:368,1,160,0|8
368,272,33980,1,0
400,344,34253,2,0,B|448:312|440:256,1,80
456,200,34798,2,0,B|456:152|422:109,1,80,8|0
392,56,35344,6,0,B|348:23|303:16,1,80,0|0
320,96,35889,1,8
352,168,36162,2,0,B|376:232|376:288,1,120
416,296,36707,1,0
336,280,36980,1,8
424,304,37253,1,0
328,272,37526,5,2
256,192,37662,12,8,39162
296,336,39707,5,0
232,264,39980,1,0
232,360,40253,1,8
280,280,40526,1,0
192,312,40798,5,0
232,264,41071,1,0
280,280,41344,1,8
296,336,41616,1,0
232,360,41889,1,4
256,192,49526,12,0,50616
464,112,51162,5,8
400,152,51435,1,0
328,192,51707,2,0,B|280:216|248:216,1,80
280,288,52253,1,8
328,192,52526,1,0
280,288,52798,6,0,B|216:304|168:272|144:232,1,120,0|8
328,208,53616,1,0
168,261,53889,1,0
336,224,54162,5,0
312,104,54435,1,0
216,24,54707,1,8
160,80,54980,6,0,B|96:144,1,80
176,168,55526,2,0,B|80:208,1,80,8|0
24,232,56071,5,0
176,168,56344,1,0
328,104,56616,1,8
328,104,56889,1,0
256,192,57162,12,0,58798
136,136,59344,5,0
216,176,59616,1,0
136,136,59889,1,8
364,116,60435,5,0
289,165,60707,1,0
364,116,60980,1,8
264,320,61526,5,0
258,230,61798,1,0
264,320,62071,1,8
332,268,62344,5,0
188,276,62616,1,0
308,356,62889,1,0
258,230,63162,1,8
204,364,63435,1,0
332,268,63707,5,2
256,96,64253,1,10
180,268,64798,1,2
256,328,65071,5,0
180,268,65344,1,8
332,268,65616,1,0
256,192,65889,12,8,67526
344,264,68071,5,0
344,264,68344,1,0
408,216,68616,1,8
408,216,68889,1,0
472,168,69162,2,0,B|496:112|496:96,2,40
400,136,69707,2,0,B|352:96|304:96,1,80,8|0
320,120,70116,1,0
312,144,70253,6,0,B|304:208|224:224|176:176,1,160,0|8
152,112,71071,1,0
112,184,71344,2,0,B|72:232|16:240,2,80,0|0|8
152,112,72162,2,0,B|192:64|248:56,1,80
296,48,72707,5,0
352,104,72980,2,0,B|400:152|480:176,1,120,8|0
472,128,73526,1,0
456,208,73798,1,0
464,288,74071,1,8
392,256,74344,1,0
464,200,74616,5,2
256,192,74889,12,8,76253
120,296,76798,6,0,B|128:312|128:312|152:328,3,40
208,272,77344,2,0,B|213:255|213:255|208:226,3,40,8|0|0|0
288,216,77889,2,0,B|304:224|304:224|320:248,3,40,0|0|8|0
360,176,78435,2,8,B|363:158|363:158|382:136,3,40,8|0|8|0
464,104,78980,5,4
368,80,79253,1,0
360,176,79526,1,8
456,200,79798,1,0
464,104,80071,5,0
392,240,80344,1,0
304,128,80616,1,8
392,152,80889,5,0
320,208,81162,2,0,B|256:216|224:152,1,96.0000022888184
168,112,81707,2,0,B|144:64|144:8,2,96.0000022888184,8|0|2
168,112,82526,1,2
236,172,82798,2,0,B|260:220|260:276,1,96.0000022888184,8|2
248,360,83344,5,0
259,264,83616,1,0
328,200,83889,1,8
328,200,84162,1,0
236,172,84435,5,0
176,240,84707,1,0
328,200,84980,1,8
328,200,85253,1,0
392,128,85526,6,0,B|424:80|416:32,1,96.0000022888184
328,64,86071,2,0,B|296:112|216:104|176:56|200:0,1,192.000004577637,8|2
184,112,86889,1,2
136,200,87162,2,0,B|96:240|48:248,1,96.0000022888184,8|2
56,152,87707,5,0
136,200,87980,1,0
232,216,88253,1,8
232,216,88798,5,0
328,232,89071,1,0
408,280,89344,1,8
408,280,89616,1,0
408,184,89889,6,0,B|424:136|480:104,1,96.0000022888184
467,111,90435,1,8
376,96,90707,2,0,B|264:80,1,96.0000022888184,0|2
184,64,91253,1,2
216,152,91525,1,8
280,82,91798,1,2
208,160,92071,6,0,B|168:216|160:280,1,96.0000022888184
128,336,92616,1,8
216,296,92889,1,0
312,304,93162,2,0,B|368:312|416:352,2,96.0000022888184,0|0|8
216,296,93980,1,0
144,232,94253,5,0
216,168,94525,1,0
120,176,94798,1,8
200,224,95071,1,0
168,136,95344,5,0
120,176,95616,1,0
144,232,95889,1,8
200,224,96162,1,0
216,168,96435,1,4
256,192,105162,12,0,107344
392,120,107889,5,8
336,176,108162,1,0
256,192,108435,1,0
256,192,108980,1,0
250,345,109525,5,0
229,269,109798,1,0
256,192,110071,1,8
256,192,110616,1,0
125,110,111162,5,0
202,130,111435,1,0
256,192,111707,1,0
256,192,112253,1,8
309,253,112525,5,0
317,138,112798,1,0
202,130,113071,1,0
194,245,113344,1,0
256,192,113616,5,0
256,192,113889,12,8,115525
256,96,116071,5,4
256,96,116616,1,0
256,96,117162,5,0
192,200,117435,1,0
256,96,117707,5,0
320,200,117980,1,0
256,248,118253,5,0
256,248,118798,1,0
320,296,120435,5,0
192,296,121525,1,0
256,192,122616,1,0
256,192,123162,1,0
256,112,124798,5,0
136,112,125889,1,0
16,112,126980,1,0
256,272,129162,5,0
376,272,130253,1,0
496,272,131344,1,0
256,192,132435,12,0,135162
160,112,135707,5,0
152,192,135980,1,0
120,264,136253,2,0,B|96:304|56:320,1,80,8|0
62,317,136798,1,0
120,264,137071,1,0
200,248,137344,1,8
280,264,137616,1,0
352,304,137889,5,0
200,248,138162,1,0
248,352,138435,1,8
280,264,138707,5,0
312,176,138980,1,0
344,88,139253,1,0
264,104,139525,2,0,B|200:96|176:56,1,80,8|0
256,24,140071,5,0
191,74,140344,1,0
264,104,140616,1,8
256,24,140889,1,0
184,80,141162,6,0,B|104:149,1,80
192,176,141707,2,0,B|112:216,1,80,8|0
48,240,142253,5,0
192,176,142525,1,0
336,112,142798,1,8
264,144,143071,5,0
192,176,143344,1,0
256,224,143616,1,0
320,272,143889,5,8
384,224,144162,2,0,B|416:192|464:168,1,80,8|0
448,176,144707,1,0
376,144,144980,6,0,B|352:112|352:64,1,80,8|0
424,32,145525,1,0
352,69,145798,1,0
272,88,146071,2,0,B|208:104|128:88,1,120,8|0
176,64,146616,5,0
128,128,146889,1,0
96,200,147162,2,0,B|72:272|80:312,1,80,8|0
72,360,147707,1,0
136,312,147980,1,0
216,288,148253,1,0
296,296,148526,1,8
368,328,148798,6,0,B|424:360|512:312|488:240,1,160,0|8
504,192,149616,1,0
432,224,149889,2,0,B|400:192|336:176,1,80
288,168,150435,2,0,B|245:152|180:165,1,80,8|0
128,168,150980,5,2
256,192,151253,12,8,152616
152,128,153162,6,0,B|112:80|56:56,1,96.0000022888184
152,128,153707,2,0,B|213:117|262:80,1,96.0000022888184,8|0
152,128,154253,2,0,B|130:186|137:247,1,96.0000022888184,0|0
128,320,154798,1,8
216,288,155071,1,0
312,288,155344,2,0,B|400:296|456:344,1,144.000003433228
408,368,155889,5,8
472,296,156162,1,0
504,208,156435,2,0,B|512:152|504:104,1,96.0000022888184,2|2
512,16,156980,1,8
424,56,157253,1,2
505,112,157526,5,0
416,152,157798,1,0
320,144,158071,2,0,B|256:136|208:96,1,96.0000022888184,8|0
152,56,158616,5,0
288,0,158889,1,0
320,144,159162,1,8
224,120,159435,5,0
152,56,159707,1,0
320,144,159980,1,0
320,144,160253,1,8
224,120,160526,1,0
152,56,160798,6,0,B|112:128|64:128,1,96.0000022888184,2|2
0,168,161344,1,8
88,208,161616,1,2
160,272,161889,6,0,B|192:328|312:312|312:240,1,192.000004577637,0|8
224,200,162707,1,0
311,246,162980,1,0
408,240,163253,2,0,B|464:224|488:176,2,96.0000022888184,0|8|0
311,246,164071,5,0
408,240,164344,1,0
352,160,164616,1,8
256,168,164889,1,0
160,176,165162,5,2
240,56,165435,1,2
352,160,165707,1,8
256,168,165980,5,2
208,248,166253,2,0,B|200:296|272:344|344:288|336:248,1,192.000004577637,0|8
352,160,167071,1,0
384,72,167344,2,0,B|424:16|472:-8,2,96.0000022888184,0|0|8
288,88,168162,1,0
192,80,168435,6,0,B|120:80|56:16,1,144.000003433228
112,8,168980,1,8
24,56,169253,1,0
72,144,169526,5,2
168,256,169798,1,0
224,128,170071,1,8
152,168,170344,5,2
240,208,170616,1,0
328,248,170889,2,0,B|376:280|400:328,1,96.0000022888184,0|8
312,376,171435,1,0
393,316,171707,1,0
464,256,171980,5,0
400,184,172253,1,8
328,248,172526,1,0
472,264,172798,5,2
