osu file format v9

[General]
AudioFilename: 02 - Stamp.mp3
AudioLeadIn: 0
PreviewTime: 22116
Countdown: 0
SampleSet: Normal
StackLeniency: 0.7
Mode: 0
LetterboxInBreaks: 0

[Editor]
Bookmarks: 39712,41894,76526,78985,96439,98621,116071,135712,153167,177167
DistanceSpacing: 1.2
BeatDivisor: 4
GridSize: 8

[Metadata]
Title:Stamp
Artist:Nishino Kana
Creator:Lizbeth
Version:Hard
Source:Soul Eater
Tags:Lissette kiiwa toejamms Liz & Liss collab collaboration

[Difficulty]
HPDrainRate:7
CircleSize:5
OverallDifficulty:7
ApproachRate:7
SliderMultiplier:1.4
SliderTickRate:2

[Events]
//Background and Video events
0,0,"astomoe.jpeg"
//Break Periods
//Storyboard Layer 0 (Background)
//Storyboard Layer 1 (Fail)
//Storyboard Layer 2 (Pass)
//Storyboard Layer 3 (Foreground)
Sprite,Foreground,Centre,"SB\Liz&Liss.png",320,240 M,0,-928,177162,418,354 S,0,-928,177162,0.85664
//Storyboard Sound Samples
//Background Colour Transformations
3,100,163,162,255

[TimingPoints]
13526,545.454545454546,4,1,1,20,1,0
18571,-100,4,1,1,20,0,0
19662,-100,4,1,1,20,0,0
19935,-100,4,2,1,30,0,0
22116,-100,4,2,1,40,0,0
24435,-133.333333333333,4,2,1,40,0,0
24571,-133.333333333333,4,1,1,40,0,0
25526,-100,4,1,1,30,0,0
41344,-200,4,2,1,40,0,0
41889,-200,4,2,1,40,0,0
46116,-200,4,1,1,30,0,0
46389,-200,4,2,1,40,0,0
47889,-100,4,1,1,30,0,0
58389,-100,4,1,1,30,0,0
59207,-100,4,2,1,40,0,0
61526,-133.333333333333,4,1,1,30,0,0
62616,-100,4,1,1,30,0,0
78980,-83.3333333333333,4,2,1,40,0,1
79048,-83.3333333333333,4,1,1,30,0,1
94116,-83.3333333333333,4,1,1,30,0,1
94662,-83.3333333333333,4,1,1,20,0,1
95207,-83.3333333333333,4,1,1,10,0,1
95753,-83.3333333333333,4,1,1,5,0,1
96435,-100,4,2,1,40,0,0
98616,-200,4,1,1,30,0,0
98753,-200,4,2,1,40,0,0
102844,-200,4,1,1,30,0,0
103116,-200,4,2,1,40,0,0
107344,-100,4,1,1,30,0,0
115935,-100,4,2,1,40,0,0
129162,-100,4,2,1,40,0,0
135162,-100,4,1,1,30,0,0
153162,-83.3333333333333,4,2,1,50,0,1
153298,-83.3333333333333,4,1,1,40,0,1
170480,-83.3333333333333,4,1,1,30,0,1
171571,-83.3333333333333,4,1,1,20,0,1
172662,-83.3333333333333,4,1,1,40,0,1
172798,-100,4,2,1,40,0,0

[Colours]
Combo1 : 255,149,149
Combo2 : 255,255,108
Combo3 : 186,117,255
Combo4 : 176,255,98

[HitObjects]
144,48,13525,1,0
104,120,14071,1,0
128,200,14616,1,0
88,272,15162,1,0
160,328,15707,5,0
216,264,16253,1,0
288,304,16798,1,0
336,240,17344,1,0
416,272,17889,1,0
448,192,18435,5,0
448,192,18707,1,0
368,144,18980,1,0
368,144,19253,1,0
416,64,19525,1,0
416,64,19798,1,0
328,56,20071,6,0,B|256:8|176:72,1,140,2|2
224,136,20889,1,0
224,136,21025,1,0
224,136,21162,2,0,B|176:160|136:128,2,70,2|2|2
48,328,22253,5,2
72,320,23344,1,0
104,304,24435,2,0,B|152:272|128:200,1,104.999996870756,2|8
131,210,25253,1,0
64,160,25525,1,2
64,160,25798,1,2
88,72,26071,1,10
88,72,26344,1,0
168,80,26616,6,0,B|208:16|312:40,1,140,0|8
248,112,27435,1,0
216,192,27707,2,0,B|304:208|344:120,1,140,0|8
264,96,28525,1,0
192,56,28798,2,0,B|232:-8|336:16,1,140,0|8
392,48,29616,1,0
408,128,29889,1,2
472,176,30162,1,2
480,256,30435,1,10
480,256,30707,1,0
456,336,30980,1,0
136,320,31525,6,8,B|112:248,1,70,8|0
200,264,32071,2,0,B|216:192,1,70
136,176,32616,2,0,B|72:128|96:48,1,140,8|0
168,96,33435,1,0
200,16,33707,2,0,B|264:64|245:142,1,140,8|2
246,139,34525,1,2
216,224,34798,1,10
216,224,35071,1,0
296,256,35344,1,0
464,56,35889,6,0,B|480:144,1,70,8|0
392,104,36435,2,0,B|376:176,1,70
288,56,36980,2,0,B|304:128,1,70,8|0
208,72,37526,1,0
208,72,37798,1,0
152,136,38071,1,2
152,136,38344,1,0
168,216,38616,1,2
168,216,38889,1,2
104,272,39162,1,2
104,272,39435,1,0
160,336,39707,5,0
160,336,39980,1,0
80,256,40253,1,0
80,256,40526,1,0
192,208,40798,1,0
192,208,41071,1,0
288,136,41344,5,0
288,136,41616,2,0,B|275:197|344:224,1,105
368,200,42707,2,0,B|464:224|456:344,1,175
360,352,44616,1,2
264,328,45162,1,0
264,328,45435,5,0
224,320,45707,1,0
192,288,45980,1,0
184,248,46253,1,0
192,208,46526,1,0
112,176,47071,2,0,B|104:136|56:136,1,70
128,72,48162,5,0
208,40,48435,1,0
280,88,48707,1,0
360,56,48980,1,0
416,120,49253,2,0,B|416:160|464:184,1,70,0|8
376,208,49798,2,0,B|376:256|320:264,2,70,8|8|0
376,208,50616,5,0
272,48,51162,1,8
168,216,51707,2,0,B|136:152|32:152,1,140,0|8
50,152,52526,1,0
32,272,52798,6,0,B|112:256,1,70
168,312,53344,2,0,B|248:328,1,70,8|0
288,264,53889,2,0,B|360:248,1,70,0|0
416,304,54435,5,8
472,240,54707,1,8
480,160,54980,2,0,B|480:112|424:96,2,70,0|0|8
480,160,55798,1,0
400,192,56071,1,0
320,176,56344,1,0
240,200,56616,1,8
168,160,56889,1,0
88,192,57162,6,0,B|40:120|112:48,1,140,0|8
200,48,57980,1,0
200,48,58116,1,0
200,48,58253,1,0
312,104,58526,5,8
208,192,58798,1,8
320,256,59071,1,8
392,352,59344,5,2
408,336,60435,1,0
424,320,61526,2,0,B|472:280|472:208,1,104.999996870756,0|8
470,229,62344,1,0
432,152,62616,1,2
432,152,62889,1,2
360,112,63162,1,10
360,112,63435,1,0
280,136,63707,6,0,B|248:64|152:56,1,140,0|8
200,160,64526,1,0
200,160,64798,2,0,B|136:104|56:160,1,140,0|8
152,224,65616,1,0
152,224,65889,2,0,B|56:232|64:336,2,140,0|8|2
152,224,67253,1,2
216,280,67526,1,10
216,280,67798,1,0
288,240,68071,1,0
464,48,68616,6,0,B|480:128,1,70,8|0
392,104,69162,2,0,B|384:192,1,70
304,64,69707,2,0,B|312:136,1,70,8|0
232,104,70253,2,0,B|216:256,1,140,0|8
217,243,71071,1,0
144,200,71344,1,2
144,120,71616,1,2
40,152,71889,1,10
48,232,72162,1,2
56,312,72435,1,0
360,344,72980,6,0,B|416:352|440:304,2,70,8|0|0
376,264,73798,1,0
288,264,74071,2,0,B|296:176|384:160,1,140,8|0
376,264,74889,1,0
376,264,75162,1,8
448,312,75435,1,0
448,312,75707,1,2
472,232,75980,1,2
472,232,76116,1,0
472,232,76253,1,10
248,80,78980,6,0,B|192:64|160:144,1,84.0000020027161,2|0
184,208,79526,1,8
184,208,79662,1,0
184,208,79798,1,0
192,312,80071,2,0,B|160:360|96:336,2,84.0000020027161,0|0|8
272,256,80889,6,0,B|352:280,1,84.0000020027161
448,248,81435,1,0
360,200,81707,1,8
440,136,81980,1,0
440,136,82253,1,2
360,72,82526,1,2
360,72,82798,2,0,B|448:8,2,84.0000020027161,10|0|0
224,64,83616,5,0
160,144,83889,1,8
160,144,84162,1,0
80,80,84435,2,0,B|24:80|16:144,1,84.0000020027161
48,224,84980,1,8
144,240,85253,1,0
240,216,85526,6,0,B|336:168,1,84.0000020027161,0|0
296,280,86071,2,0,B|384:240,1,84.0000020027161,8|0
352,344,86616,1,2
352,344,86889,1,2
440,296,87162,1,10
440,296,87435,1,0
480,208,87707,1,0
336,168,87980,6,0,B|328:224|240:224,1,84.0000020027161,0|8
200,160,88526,2,0,B|152:160|136:208,1,84.0000020027161
168,304,89071,2,0,B|136:344|72:328,2,84.0000020027161,0|8|0
256,256,89889,1,0
256,256,90162,1,0
352,280,90435,1,8
352,280,90707,1,0
432,224,90980,5,2
448,128,91253,1,2
384,48,91525,1,10
280,40,91798,1,0
320,160,92071,6,0,B|224:184,1,84.0000020027161,0|0
144,240,92616,2,0,B|256:264,1,84.0000020027161,8|0
320,320,93162,2,0,B|144:352,1,168.000004005432,0|8
64,312,93980,1,0
40,216,94253,5,2
64,120,94525,1,0
176,216,94798,1,2
264,264,95071,1,0
280,88,95344,1,2
376,64,95616,1,0
400,208,95889,1,8
432,304,96162,1,0
400,56,98344,5,0
400,56,98616,2,0,B|432:88|432:128,1,70,0|0
352,160,99435,1,0
352,160,99707,2,0,B|368:200|344:232,1,70
264,216,100798,6,0,B|256:304|160:312,1,140
64,152,102435,1,0
64,152,102980,2,0,B|72:72|160:56,1,140,0|0
224,56,104616,5,0
288,88,105162,1,0
352,120,105707,1,0
416,152,106253,1,0
480,184,106798,1,0
480,184,107344,6,0,B|496:280,1,70
400,240,107889,2,0,B|392:320,1,70,0|0
312,208,108435,2,0,B|280:280,1,70
256,152,108980,1,0
256,152,109525,6,0,B|312:96,1,70
184,96,110071,2,0,B|208:16,1,70,0|0
88,96,110616,2,0,B|72:24,1,70
32,160,111162,1,0
96,304,111435,5,0
96,304,111707,2,0,B|128:232|224:248,1,140,0|0
248,320,112525,1,0
248,320,112798,1,0
320,272,113071,1,0
320,272,113344,1,0
384,320,113616,1,0
384,320,113889,2,0,B|464:312|488:232,3,140,0|8|0|8
448,24,116071,5,2
336,48,116616,1,0
192,88,117162,5,2
272,88,117435,1,0
56,64,117707,5,0
136,64,117980,1,0
208,152,118253,5,2
256,152,118798,1,0
80,112,120435,5,2
320,144,120980,1,0
152,224,121525,5,2
416,216,122071,1,0
176,280,122616,5,2
440,256,123162,1,0
232,80,124798,5,2
368,80,125889,5,0
488,80,126980,5,2
80,120,129162,5,2
288,216,130253,5,0
504,288,131344,5,2
56,80,135707,6,0,B|64:160,1,70
128,40,136253,1,8
144,120,136525,1,0
216,72,136798,2,0,B|224:152,1,70
304,32,137344,1,8
304,112,137616,1,0
384,80,137889,2,0,B|456:112|464:200,2,140,0|8|0
384,168,139253,5,8
376,248,139525,1,8
296,240,139798,2,0,B|264:272|280:320,1,70,8|0
192,280,140344,1,0
160,352,140616,1,8
80,320,140889,2,0,B|80:368|32:384,2,70
80,320,141707,1,8
80,320,141980,5,0
64,240,142253,1,0
144,256,142525,1,0
128,160,142798,1,8
216,216,143071,1,0
216,96,143344,1,0
320,88,143616,5,0
400,136,143889,1,8
448,224,144162,1,8
440,320,144435,2,0,B|376:280|288:312,1,140,0|8
242,235,145253,2,0,B|280:248|309:225,1,70
256,152,145798,2,0,B|208:144|168:176,1,70,0|8
88,96,146344,1,0
88,96,146616,2,0,B|160:112|240:56,2,140,0|8|0
72,176,147980,6,0,B|64:256,2,70,0|0|8
144,224,148798,2,0,B|144:296,1,70
216,248,149344,1,8
296,216,149616,1,0
296,216,149889,1,0
312,136,150162,1,0
312,136,150435,1,8
312,136,150980,5,0
384,88,151253,2,0,B|400:136|384:184,1,70,0|8
120,136,152071,1,0
48,96,152344,2,0,B|32:128|48:184,2,70,8|8|8
184,48,153162,6,0,B|280:32,1,84.0000020027161,2|0
328,112,153707,1,8
328,112,153980,1,0
400,184,154253,2,0,B|512:168,1,84.0000020027161
448,264,154798,1,8
448,264,155071,1,0
384,344,155344,2,0,B|288:296,1,84.0000020027161
296,168,155889,5,8
224,96,156162,1,0
256,240,156435,1,2
160,208,156707,1,2
248,328,156980,1,10
144,328,157253,1,0
40,192,157526,6,0,B|16:144|64:88,1,84.0000020027161,0|0
120,40,158071,2,0,B|152:88|112:136,1,84.0000020027161,8|0
128,224,158616,1,0
152,320,158889,1,0
256,288,159162,1,8
232,192,159435,1,0
216,88,159707,5,0
312,112,159980,1,0
408,80,160253,1,8
504,112,160526,1,0
408,48,160798,1,2
312,136,161071,1,2
216,64,161344,1,10
112,128,161616,1,0
24,56,161889,6,0,B|-16:96|16:144,1,84.0000020027161,0|0
48,224,162435,2,0,B|80:256|152:232,1,84.0000020027161,8|0
216,184,162980,2,0,B|296:128|408:208,1,168.000004005432,0|8
296,256,163798,1,0
218,317,164071,2,0,B|288:376|376:320,1,168.000004005432,0|8
296,256,164889,1,0
400,256,165162,5,2
480,200,165435,1,2
488,96,165707,1,10
416,24,165980,1,0
416,24,166116,1,0
416,24,166253,6,0,B|304:48,1,84.0000020027161,0|0
312,136,166798,2,0,B|240:200,1,84.0000020027161,8|0
160,144,167344,2,0,B|80:168,2,84.0000020027161,0|0|8
160,144,168162,1,0
192,240,168435,5,0
192,240,168980,1,0
96,208,169253,5,0
0,232,169526,1,2
128,304,169798,5,2
224,280,170071,1,2
312,152,170344,5,0
216,176,170616,1,0
344,256,170889,5,0
440,232,171162,1,0
264,168,171435,5,0
168,184,171707,1,0
392,240,171980,5,0
488,216,172253,1,0
216,176,172526,5,0
120,192,172798,1,0
256,192,172935,12,0,177162
