osu file format v9

[General]
AudioFilename: 02 - Stamp.mp3
AudioLeadIn: 0
PreviewTime: 22116
Countdown: 0
SampleSet: Normal
StackLeniency: 0.7
Mode: 0
LetterboxInBreaks: 0

[Editor]
Bookmarks: 39712,41894,59348,76526,96439,98621,116071,131348,135712,153167,177167
DistanceSpacing: 0.8
BeatDivisor: 4
GridSize: 8

[Metadata]
Title:Stamp
Artist:Nishino Kana
Creator:Lizbeth
Version:Easy
Source:Soul Eater
Tags:Lissette kiiwa toejamms Liz & Liss collab collaboration

[Difficulty]
HPDrainRate:2
CircleSize:3
OverallDifficulty:2
ApproachRate:3
SliderMultiplier:1
SliderTickRate:2

[Events]
//Background and Video events
0,0,"astomoe.jpeg"
//Break Periods
//Storyboard Layer 0 (Background)
//Storyboard Layer 1 (Fail)
//Storyboard Layer 2 (Pass)
//Storyboard Layer 3 (Foreground)
Sprite,Foreground,Centre,"SB\Liz&Liss.png",320,240 M,0,-928,177162,418,354 S,0,-928,177162,0.85664
//Storyboard Sound Samples
//Background Colour Transformations
3,100,163,162,255

[TimingPoints]
13526,545.454545454546,4,1,1,20,1,0
18571,-100,4,1,1,20,0,0
19935,-100,4,2,0,30,0,0
22116,-100,4,2,1,40,0,0
24571,-100,4,1,1,40,0,0
25526,-100,4,1,0,30,0,0
41344,-200,4,2,1,40,0,0
41889,-200,4,1,1,30,0,0
42026,-200,4,2,1,40,0,0
46116,-200,4,1,1,30,0,0
46389,-200,4,2,1,40,0,0
48026,-100,4,1,1,30,0,0
59207,-100,4,2,1,40,0,0
61526,-100,4,1,1,30,0,0
78980,-100,4,2,1,40,0,1
79048,-100,4,1,1,30,0,1
94662,-100,4,1,1,20,0,1
95207,-100,4,1,1,10,0,1
95753,-100,4,1,1,5,0,1
96435,-100,4,2,1,40,0,0
98616,-200,4,1,1,30,0,0
98753,-200,4,2,1,40,0,0
102844,-200,4,1,1,30,0,0
103116,-200,4,2,1,40,0,0
104344,-100,4,2,1,40,0,0
107344,-100,4,1,1,30,0,0
115935,-100,4,2,1,40,0,0
135162,-100,4,1,1,30,0,0
153162,-83.3333333333333,4,2,1,40,0,1
153298,-83.3333333333333,4,1,1,40,0,1
170480,-83.3333333333333,4,1,1,30,0,1
171571,-83.3333333333333,4,1,1,20,0,1
172662,-83.3333333333333,4,1,1,40,0,1
172798,-100,4,2,1,40,0,0

[Colours]
Combo1 : 255,149,149
Combo2 : 255,255,108
Combo3 : 186,117,255
Combo4 : 176,255,98

[HitObjects]
184,64,13526,2,0,B|88:128,3,100
144,192,15707,6,0,B|248:208,3,100
272,280,17889,5,0
352,296,18435,1,0
416,248,18980,1,0
432,168,19526,1,0
376,112,20071,6,0,B|336:152|272:128,3,100,0|2|0|2
208,104,22253,5,2
208,104,23344,1,0
208,104,24435,2,0,B|144:104|128:160,1,100
128,232,25526,1,2
184,288,26071,1,2
264,288,26616,6,0,B|272:232|352:224,1,100,0|8
408,256,27707,1,0
344,304,28253,2,0,B|336:358|274:363,1,100,8|0
200,336,29344,1,8
120,344,29889,1,2
56,296,30435,1,10
56,216,30980,1,0
112,160,31526,6,0,B|72:120|96:48,1,100,8|0
168,96,32616,2,0,B|192:152|248:160,1,100,8|0
256,80,33707,2,0,B|304:112|352:72,1,100,8|2
424,40,34798,1,10
488,88,35344,1,0
448,160,35889,6,0,B|376:152|360:216,3,100,8|0|8|0
320,264,38071,1,2
248,304,38616,1,2
168,296,39162,1,2
408,72,41889,6,0,B|472:120|456:216,1,150
368,224,44071,2,0,B|336:264|360:328,1,100
184,312,46253,6,0,B|120:256|40:304,1,150,0|0
32,224,48435,5,0
48,144,48980,1,0
120,112,49526,1,8
192,144,50071,1,8
256,192,50616,6,0,B|232:296,1,100,0|8
312,304,51707,2,0,B|331:356|416:336,1,100,0|8
424,264,52798,2,0,B|472:232|456:160,2,100,0|8|0
377,195,54435,1,8
296,176,54980,6,0,B|192:208,1,100,0|8
152,144,56071,2,0,B|48:176,2,100,0|8|0
224,104,57707,6,0,B|232:48|304:24,2,100,8|0|0
288,152,59344,5,2
288,152,60435,1,0
288,152,61526,2,0,B|344:168|344:240,1,100,0|8
328,304,62616,1,2
256,344,63162,1,10
176,320,63707,6,0,B|160:256|88:248,1,100,0|8
152,184,64798,2,0,B|88:168|72:112,1,100,0|8
136,72,65889,2,0,B|120:16|48:16,2,100,0|8|2
144,152,67526,1,10
96,216,68071,1,0
152,272,68616,6,0,B|232:336,1,100,8|0
256,256,69707,2,0,B|336:320,2,100,8|0|8
208,192,71344,1,2
200,112,71889,1,10
264,64,72435,1,0
336,88,72980,6,0,B|304:144|344:192,1,100,8|0
416,176,74071,2,0,B|448:232|416:280,1,100,8|0
376,336,75162,1,8
296,352,75707,1,2
224,320,76253,1,10
72,72,78980,6,0,B|136:152,1,100,2|8
80,208,80071,2,0,B|80:264|152:288,1,100,0|8
208,320,81162,6,0,B|320:288,1,100,0|8
320,216,82253,2,0,B|376:192,2,50,2|0|10
248,176,83344,6,0,B|192:80,1,100,0|8
272,64,84435,2,0,B|320:32|368:72,1,100,0|8
432,120,85526,6,0,B|400:232,1,100,0|8
344,272,86616,2,0,B|384:328,2,50,2|0|10
272,240,87707,6,0,B|224:272|168:232,1,100,0|8
120,184,88798,2,0,B|72:152|8:192,1,100,0|8
48,256,89889,5,0
104,312,90435,1,8
184,312,90980,1,2
248,264,91526,1,10
264,184,92071,6,0,B|296:136|360:160,1,100,0|8
408,216,93162,2,0,B|472:224|504:176,1,100,0|8
472,112,94253,5,0
400,80,94798,1,2
328,112,95344,1,0
256,88,95889,1,2
400,56,98616,6,0,B|456:104|448:200,1,150,0|0
368,168,100798,2,0,B|320:232|344:320,1,150
272,352,102980,2,0,B|258:292|222:269,1,100,0|0
144,240,104616,6,0,B|96:264|40:248,4,100
112,168,107344,5,0
128,88,107889,1,0
200,48,108435,1,0
280,64,108980,1,0
256,136,109526,5,0
272,216,110071,1,0
352,240,110616,1,0
432,216,111162,1,0
432,136,111707,6,0,B|432:80|376:48,3,100,0|8|0|8
352,128,113889,5,0
320,200,114435,1,0
240,208,114980,1,0
184,152,115526,1,0
232,88,116071,5,2
232,88,116616,1,0
152,64,117162,5,2
152,64,117707,1,0
80,96,118253,5,2
80,96,118798,1,0
320,160,120435,5,2
320,160,120980,1,0
384,208,121526,5,2
384,208,122071,1,0
448,256,122616,5,2
448,256,123162,1,0
448,24,124798,5,2
296,72,125889,5,0
144,112,126980,5,2
320,152,129162,5,2
176,224,130253,5,0
24,280,131344,5,2
128,112,135707,6,0,B|80:200,1,100,0|8
152,240,136798,2,0,B|208:344,1,100,0|8
272,304,137889,6,0,B|304:256|376:272,2,100,0|8|0
232,232,139526,5,8
240,152,140071,1,0
296,96,140616,1,8
376,96,141162,1,0
424,160,141707,1,8
400,240,142253,6,0,B|352:272|352:344,1,100,0|8
272,304,143344,2,0,B|232:352|168:336,1,100,0|8
152,264,144435,5,0
152,264,144980,1,8
120,192,145526,1,0
120,192,146071,1,8
184,144,146616,2,0,B|144:104|152:40,1,100,0|8
232,72,147707,2,0,B|272:128|264:184,1,100,0|8
200,208,148798,1,0
224,288,149344,5,8
296,320,149889,1,0
376,312,150435,1,8
440,264,150980,1,0
464,184,151526,1,8
408,128,152071,2,0,B|400:88|432:80,2,50,0|8|8
312,120,153162,6,0,B|248:104,2,60.0000014305115,2|0|8
272,208,154253,2,0,B|344:232,2,60.0000014305115,0|0|8
256,304,155344,6,0,B|128:264,1,120.000002861023,0|8
200,192,156435,2,0,B|216:120|152:80,1,120.000002861023,2|10
104,168,157526,5,0
104,168,158071,1,8
168,240,158616,1,0
168,240,159162,1,8
248,184,159707,6,0,B|320:208|376:152,1,120.000002861023,0|8
296,96,160798,2,0,B|352:56|416:88,1,120.000002861023,2|10
480,152,161889,6,0,B|512:232|448:280,2,120.000002861023,0|8|0
392,200,163526,1,8
296,224,164071,6,0,B|288:80|120:96,1,240.000005722046,0|2
128,192,165707,1,10
128,192,166253,6,0,B|128:328|296:328,1,240.000005722046
376,288,167889,1,8
376,288,168435,6,0,B|408:160,1,120.000002861023,0|8
312,200,169526,2,0,B|344:80,1,120.000002861023,2|2
248,96,170616,6,0,B|176:64|128:120,1,120.000002861023,0|8
200,184,171707,2,0,B|144:248|72:192,1,120.000002861023,0|8
256,192,172798,12,0,177162
