osu file format v14

[General]
AudioFilename: No.1-.mp3
AudioLeadIn: 0
PreviewTime: -1
Countdown: 1
SampleSet: Normal
StackLeniency: 0.7
Mode: 0
LetterboxInBreaks: 1
WidescreenStoryboard: 0

[Editor]
DistanceSpacing: 2
BeatDivisor: 1
GridSize: 4
TimelineZoom: 1

[Metadata]
Title:No.1
TitleUnicode:No.1
Artist:Nishino Kana
ArtistUnicode:Nishino Kana
Creator:Hidden
Version:Normal
Source:
Tags:Nishino Kana no1 no.1
BeatmapID:842852
BeatmapSetID:385953

[Difficulty]
HPDrainRate:3
CircleSize:4
OverallDifficulty:4
ApproachRate:4
SliderMultiplier:1.4
SliderTickRate:1

[Events]
//Background and Video events
0,0,"bakabaka.jpg",0,0
//Break Periods
//Storyboard Layer 0 (Background)
//Storyboard Layer 1 (Fail)
//Storyboard Layer 2 (Pass)
//Storyboard Layer 3 (Foreground)
//Storyboard Sound Samples

[TimingPoints]
5099,487.80487804878,4,1,0,100,1,0
20703,-100,4,1,0,100,0,0
52416,-66.6666666666667,4,1,0,100,0,0
53879,-100,4,1,0,100,0,0
59733,-66.6666666666667,4,1,0,100,0,0
63635,-100,4,1,0,100,0,0
66074,-133.333333333333,4,1,0,100,0,0
66556,-100,4,1,0,100,0,1
98269,-100,4,1,0,100,0,0
132903,-100,4,1,0,100,0,1
164611,-100,4,1,0,100,0,0

[HitObjects]
72,232,20708,5,0,0:0:0:0:
272,160,21196,1,0,0:0:0:0:
128,52,21684,1,0,0:0:0:0:
152,160,22172,2,0,P|196:256|240:284,1,140
312,192,23147,1,0,0:0:0:0:
448,192,23635,2,0,P|404:96|360:68,1,140
256,48,24611,5,0,0:0:0:0:
420,104,25098,1,0,0:0:0:0:
368,192,25586,2,0,P|312:204|260:148,1,140
256,324,26562,5,0,0:0:0:0:
120,224,27050,1,0,0:0:0:0:
256,48,27538,2,0,B|368:96|180:40|368:108|180:52|368:120|180:64|368:132|180:76|260:148,1,140
256,264,28513,2,0,B|296:228|220:228|360:228|356:320|344:212,2,140
320,152,29977,1,0,0:0:0:0:
208,104,30464,2,0,B|120:76|120:152|196:52|84:72,2,140
220,328,31928,5,0,0:0:0:0:
112,308,32416,1,0,0:0:0:0:
144,208,32903,2,0,P|244:184|288:192,2,140
256,88,34367,5,0,0:0:0:0:
356,188,34855,1,0,0:0:0:0:
340,312,35342,1,0,0:0:0:0:
268,236,35830,1,0,0:0:0:0:
456,196,36318,1,0,0:0:0:0:
336,84,37294,5,0,0:0:0:0:
280,200,37781,2,0,B|304:232|296:260|192:260|188:236|256:224,2,140
256,288,39245,1,0,0:0:0:0:
256,176,39733,1,0,0:0:0:0:
356,224,40220,1,0,0:0:0:0:
144,192,40708,5,0,0:0:0:0:
208,112,41196,2,0,P|112:88|88:108,1,140
76,112,42172,1,0,0:0:0:0:
208,112,42659,1,0,0:0:0:0:
344,144,43147,2,0,B|420:212|444:184|416:244|384:248,1,140
256,264,44123,2,0,B|216:300|292:300|152:300|156:208|168:316,2,140
256,144,45586,1,0,0:0:0:0:
408,168,46074,2,0,B|372:128|372:204|372:64|464:68|356:80,2,140
256,268,47538,5,0,0:0:0:0:
364,264,48025,2,0,L|488:192,1,140
148,120,49001,2,0,L|24:192,1,140
336,124,49977,1,0,0:0:0:0:
144,224,50464,1,0,0:0:0:0:
348,256,50952,1,0,0:0:0:0:
204,104,51440,1,0,0:0:0:0:
240,312,51928,1,0,0:0:0:0:
320,140,52416,2,0,B|448:56|360:168|236:220|280:32|396:-40|272:252|332:140,2,210.000008010865
256,216,53879,5,0,0:0:0:0:
180,96,54367,1,0,0:0:0:0:
332,96,54855,1,0,0:0:0:0:
320,192,55342,2,0,B|276:236|240:236|196:188,1,140
56,128,56318,6,0,P|88:56|160:64,1,140
144,136,57294,2,0,P|112:208|40:200,1,140
404,104,58269,1,0,0:0:0:0:
472,212,58757,1,0,0:0:0:0:
352,268,59245,1,0,0:0:0:0:
248,208,59733,2,0,B|200:144|188:144|180:252|160:252|144:144|124:148|108:248,1,210.000008010865
60,124,60708,5,0,0:0:0:0:
248,72,61196,1,0,0:0:0:0:
480,268,61684,2,0,B|440:352|428:352|420:244|400:244|384:352|364:348|340:280,1,210.000008010865
192,184,62659,1,0,0:0:0:0:
380,132,63147,1,0,0:0:0:0:
248,240,63635,2,0,B|316:216|300:168|208:352|240:224|260:224|220:176|248:236,1,140
392,192,64611,5,0,0:0:0:0:
120,192,65098,5,0,0:0:0:0:
256,40,65586,5,0,0:0:0:0:
256,284,66074,6,0,L|256:60,1,210.000008010865
120,112,67538,5,0,0:0:0:0:
44,192,68025,1,0,0:0:0:0:
120,272,68513,1,0,0:0:0:0:
196,192,69001,1,0,0:0:0:0:
200,76,69489,2,0,B|260:52|252:152|268:180|264:24|264:112,1,140
256,192,70464,5,0,0:0:0:0:
256,232,70952,1,0,0:0:0:0:
392,272,71440,5,0,0:0:0:0:
468,192,71928,1,0,0:0:0:0:
392,112,72416,1,0,0:0:0:0:
316,192,72903,1,0,0:0:0:0:
312,308,73391,2,0,B|252:332|260:232|244:204|248:360|248:272,1,140
184,112,74367,5,0,0:0:0:0:
92,216,74855,2,0,B|108:292|24:204|160:184|152:312|108:168,2,140
160,72,76318,1,0,0:0:0:0:
256,256,76806,1,0,0:0:0:0:
444,208,77294,2,0,B|444:104|440:280|360:148,2,140
216,120,78757,5,0,0:0:0:0:
116,192,79245,1,0,0:0:0:0:
336,128,79733,5,0,0:0:0:0:
236,200,80220,1,0,0:0:0:0:
348,256,80708,1,0,0:0:0:0:
428,192,81196,2,0,B|360:168|376:120|468:304|436:176|416:176|456:128|428:188,1,140
208,128,82172,5,0,0:0:0:0:
132,192,82659,1,0,0:0:0:0:
200,304,83147,2,0,L|64:252,1,140
204,192,84123,2,0,L|344:160,1,140
384,252,85098,2,0,B|356:196|456:284|300:316|492:268|364:184|352:300,1,140
256,84,86074,2,0,B|248:152|272:156|272:156|192:156,1,140
468,196,87050,2,0,P|448:116|380:88,1,140
352,180,88025,2,0,P|372:260|440:288,1,140
196,220,89001,2,0,B|152:260|152:260|120:220|120:220|84:252,2,140
256,116,90464,5,0,0:0:0:0:
344,196,90952,2,0,P|340:276|284:308,1,140
256,116,91928,1,0,0:0:0:0:
256,312,92416,1,0,0:0:0:0:
40,264,92903,5,0,0:0:0:0:
192,208,93391,2,0,L|52:260,1,140
208,204,94367,1,0,0:0:0:0:
380,96,94855,2,0,P|432:124|380:148,2,140
256,192,96318,12,0,98269,0:0:0:0:
