osu file format v14

[General]
AudioFilename: No.1-.mp3
AudioLeadIn: 0
PreviewTime: -1
Countdown: 1
SampleSet: Normal
StackLeniency: 0.7
Mode: 0
LetterboxInBreaks: 1
WidescreenStoryboard: 1

[Editor]
DistanceSpacing: 2
BeatDivisor: 4
GridSize: 4
TimelineZoom: 1.6

[Metadata]
Title:No.1
TitleUnicode:No.1
Artist:Nishino Kana
ArtistUnicode:Nishino Kana
Creator:Hidden
Version:KHard
Source:
Tags:Nishino Kana no1 no.1
BeatmapID:848713
BeatmapSetID:385953

[Difficulty]
HPDrainRate:6
CircleSize:3.9
OverallDifficulty:5
ApproachRate:8.2
SliderMultiplier:1.7
SliderTickRate:1

[Events]
//Background and Video events
0,0,"bakabaka.jpg",0,0
//Break Periods
2,98469,102671
//Storyboard Layer 0 (Background)
//Storyboard Layer 1 (Fail)
//Storyboard Layer 2 (Pass)
//Storyboard Layer 3 (Foreground)
//Storyboard Sound Samples

[TimingPoints]
1196,487.80487804878,4,1,0,75,1,0
20708,-100,4,1,0,75,0,0
32415,-86.9565217391304,4,1,0,75,0,0
36806,-100,4,1,0,75,0,0
48020,-90.9090909090909,4,1,0,75,0,0
51928,-83.3333333333333,4,1,0,75,0,0
55830,-100,4,1,0,75,0,0
63635,-100,4,1,0,75,0,0
65586,-100,4,1,0,5,0,0
67537,-83.3333333333333,4,1,0,75,0,1
98269,-100,4,1,0,5,0,0
103391,-111.111111111111,4,1,0,75,0,0
110464,-100,4,1,0,75,0,0
132903,-100,4,1,0,75,0,1
135827,-100,4,1,0,75,0,1
139709,-100,4,1,0,75,0,1
164611,-100,4,1,0,5,0,0
167781,-100,4,1,0,75,0,0
180720,-83.3333333333333,4,1,0,75,0,0
188513,-100,4,1,0,75,0,0
196317,-76.9230769230769,4,1,0,75,0,0
227537,-76.9230769230769,4,1,0,5,0,0

[HitObjects]
108,76,20708,5,0,0:0:0:0:
264,104,20952,1,0,0:0:0:0:
196,232,21195,1,0,0:0:0:0:
176,136,21439,1,0,0:0:0:0:
92,192,21683,2,0,P|116:228|64:340,1,170
220,340,22415,1,0,0:0:0:0:
368,268,22659,6,0,L|280:220,1,85
208,168,23147,2,0,L|284:120,1,85
368,132,23635,1,0,0:0:0:0:
216,164,23878,1,0,0:0:0:0:
332,296,24122,2,0,P|336:240|292:144,1,127.5
244,100,24610,2,0,L|336:92,1,85
360,88,24976,1,0,0:0:0:0:
388,88,25098,1,0,0:0:0:0:
248,28,25342,5,0,0:0:0:0:
224,52,25464,1,0,0:0:0:0:
204,72,25586,2,0,P|152:76|104:56,1,85
56,172,26074,2,0,P|88:212|64:268,1,85
188,320,26561,1,0,0:0:0:0:
36,168,26805,1,0,0:0:0:0:
184,188,27049,1,0,0:0:0:0:
88,288,27293,1,0,0:0:0:0:
220,292,27537,6,0,L|232:200,1,85
288,64,28025,2,0,L|312:160,1,85
320,172,28391,1,0,0:0:0:0:
336,200,28513,6,0,P|380:240|516:260,1,170
436,172,29244,1,0,0:0:0:0:
336,200,29488,2,0,L|308:284,1,85
384,344,29976,1,0,0:0:0:0:
480,304,30220,1,0,0:0:0:0:
304,300,30464,2,0,B|328:252|328:252|340:220|340:220|316:168,1,127.5
260,224,30952,2,0,L|168:200,1,85
104,272,31439,5,0,0:0:0:0:
32,192,31683,1,0,0:0:0:0:
80,108,31927,2,0,P|128:96|196:100,1,85
228,176,32415,2,0,P|208:120|156:104,2,97.7500018644333
124,200,33147,1,0,0:0:0:0:
192,272,33391,2,0,P|160:304|88:320,2,97.7500018644333
252,196,34122,1,0,0:0:0:0:
320,144,34366,6,0,P|260:96|144:140,1,195.500003728867
224,196,35098,1,0,0:0:0:0:
280,316,35342,2,0,P|316:256|312:208,1,97.7500018644333
336,76,35830,1,0,0:0:0:0:
348,104,35952,1,0,0:0:0:0:
360,136,36074,1,0,0:0:0:0:
368,168,36195,1,0,0:0:0:0:
380,200,36317,1,0,0:0:0:0:
264,324,37049,5,0,0:0:0:0:
288,304,37171,1,0,0:0:0:0:
316,288,37293,2,0,P|312:252|264:208,1,85
172,204,37781,1,0,0:0:0:0:
292,104,38025,1,0,0:0:0:0:
164,112,38269,6,0,P|148:56|164:16,2,85
80,184,39000,1,0,0:0:0:0:
128,320,39244,1,0,0:0:0:0:
24,292,39488,1,0,0:0:0:0:
80,160,39732,2,0,B|216:104|216:104|240:144,1,170
228,144,40952,5,0,0:0:0:0:
244,176,41074,1,0,0:0:0:0:
240,216,41195,2,0,P|196:244|140:240,1,85
228,328,41683,1,0,0:0:0:0:
328,276,41927,1,0,0:0:0:0:
416,344,42171,2,0,P|452:280|404:216,1,127.5
404,216,42659,1,0,0:0:0:0:
308,152,42903,1,0,0:0:0:0:
280,140,43025,1,0,0:0:0:0:
256,128,43147,6,0,B|220:160|220:160|216:224,1,85
288,292,43635,1,0,0:0:0:0:
192,332,43878,1,0,0:0:0:0:
96,308,44122,2,0,P|60:264|136:188,2,170
188,236,45342,1,0,0:0:0:0:
224,212,45464,1,0,0:0:0:0:
248,176,45586,1,0,0:0:0:0:
244,132,45708,1,0,0:0:0:0:
224,100,45830,1,0,0:0:0:0:
196,92,45952,1,0,0:0:0:0:
176,68,46074,6,0,B|232:80|232:80|264:124|264:124|344:132,1,170
424,152,46805,1,0,0:0:0:0:
288,252,47049,2,0,L|380:228,1,85
476,336,47537,2,0,L|432:244,1,85
428,228,47903,1,0,0:0:0:0:
408,196,48025,6,0,B|368:164|368:164|304:168,1,93.5000028533936
296,168,48391,1,0,0:0:0:0:
264,168,48513,2,0,B|232:136|240:72,1,93.5000028533936
228,312,49000,1,0,0:0:0:0:
240,68,49244,1,0,0:0:0:0:
88,200,49488,2,0,L|192:188,1,93.5000028533936
304,56,49976,6,0,L|356:80,1,46.7500014266968
308,128,50220,2,0,L|344:168,1,46.7500014266968
296,204,50464,2,0,L|324:244,1,46.7500014266968
340,264,50708,1,0,0:0:0:0:
368,268,50830,1,0,0:0:0:0:
404,256,50952,1,0,0:0:0:0:
432,232,51074,1,0,0:0:0:0:
440,196,51195,1,0,0:0:0:0:
408,172,51317,1,0,0:0:0:0:
368,180,51439,1,0,0:0:0:0:
336,216,51561,1,0,0:0:0:0:
328,260,51683,1,0,0:0:0:0:
352,296,51805,1,0,0:0:0:0:
364,328,51927,6,0,P|296:304|176:344,1,191.250007295609
60,352,52659,1,0,0:0:0:0:
52,328,52781,1,0,0:0:0:0:
44,296,52903,1,0,0:0:0:0:
116,176,53147,1,0,0:0:0:0:
112,152,53269,1,0,0:0:0:0:
176,52,53513,1,0,0:0:0:0:
188,80,53635,1,0,0:0:0:0:
308,112,53878,5,0,0:0:0:0:
340,272,54122,1,0,0:0:0:0:
264,212,54366,1,0,0:0:0:0:
348,112,54610,1,0,0:0:0:0:
216,176,54854,2,0,B|340:172|340:172|372:188,1,152.999995330811
360,200,55342,2,0,P|396:244|444:272,1,101.999996887207
276,340,55830,6,0,L|188:308,1,85
120,288,56317,1,0,0:0:0:0:
28,136,56561,1,0,0:0:0:0:
184,212,56805,1,0,0:0:0:0:
20,248,57049,1,0,0:0:0:0:
136,120,57293,1,0,0:0:0:0:
96,200,57537,1,0,0:0:0:0:
116,220,57659,1,0,0:0:0:0:
136,228,57781,6,0,P|204:216|232:188,1,85
236,188,58147,1,0,0:0:0:0:
244,156,58269,2,0,P|280:104|324:96,1,85
384,80,58756,2,0,B|448:112|528:72|496:208,1,170
416,188,59488,1,0,0:0:0:0:
480,264,59732,2,0,P|432:284|392:332,1,85
380,328,60098,1,0,0:0:0:0:
348,336,60220,5,0,0:0:0:0:
252,324,60464,1,0,0:0:0:0:
220,312,60586,1,0,0:0:0:0:
188,300,60708,2,0,L|172:196,1,85
92,116,61195,1,0,0:0:0:0:
88,292,61439,6,0,L|80:236,1,42.5
48,240,61683,2,0,L|40:140,1,85
104,48,62171,1,0,0:0:0:0:
176,112,62415,1,0,0:0:0:0:
92,192,62659,2,0,B|120:220|172:220|172:220|188:268,1,127.5
256,336,63147,2,0,L|264:248,1,85
272,88,63635,6,0,B|232:96|296:172|296:172|392:184,1,170
288,248,64366,2,0,L|192:268,1,85
120,152,64854,1,0,0:0:0:0:
120,152,64976,1,0,0:0:0:0:
120,152,65098,2,0,L|136:64,1,85
256,192,65586,12,0,67049,0:0:0:0:
96,124,67537,6,0,P|152:80|168:44,1,101.999996887207
296,60,68025,2,0,P|240:104|224:140,1,101.999996887207,8|0,0:0|0:0,0:0:0:0:
352,288,68513,2,0,P|324:208|288:180,1,101.999996887207
384,56,69000,2,0,P|412:136|472:168,1,152.999995330811
504,168,69488,1,8,0:0:0:0:
424,256,69732,1,0,0:0:0:0:
400,284,69854,1,0,0:0:0:0:
372,312,69976,1,0,0:0:0:0:
312,224,70220,1,0,0:0:0:0:
280,200,70342,1,0,0:0:0:0:
260,176,70464,6,0,P|292:116|348:96,1,101.999996887207,8|0,0:0|0:0,0:0:0:0:
224,44,70952,6,0,P|212:100|72:120,1,203.999993774414
80,60,71683,1,0,0:0:0:0:
192,132,71927,1,8,0:0:0:0:
128,224,72171,1,0,0:0:0:0:
120,248,72293,1,0,0:0:0:0:
112,276,72415,5,0,0:0:0:0:
36,336,72659,1,0,0:0:0:0:
176,344,72903,1,8,0:0:0:0:
60,200,73147,1,0,0:0:0:0:
92,196,73269,1,0,0:0:0:0:
128,192,73391,6,0,P|168:152|180:92,1,101.999996887207
260,64,73878,1,8,0:0:0:0:
344,120,74122,1,0,0:0:0:0:
252,168,74366,1,0,0:0:0:0:
168,188,74610,1,0,0:0:0:0:
136,208,74732,1,0,0:0:0:0:
128,244,74854,1,8,0:0:0:0:
152,272,74976,1,0,0:0:0:0:
188,276,75098,6,0,L|308:264,2,101.999996887207
120,216,75830,2,0,P|96:156|112:116,1,101.999996887207
224,180,76317,1,0,0:0:0:0:
296,92,76561,1,0,0:0:0:0:
292,56,76683,1,0,0:0:0:0:
292,24,76805,2,0,L|408:32,1,101.999996887207,8|0,0:0|0:0,0:0:0:0:
460,112,77293,6,0,P|484:168|440:224,1,101.999996887207,8|0,0:0|0:0,0:0:0:0:
372,228,77781,1,0,0:0:0:0:
384,336,78025,1,0,0:0:0:0:
356,356,78147,1,0,0:0:0:0:
320,352,78269,6,0,P|264:328|188:360,2,101.999996887207,0|0|8,0:0|0:0|0:0,0:0:0:0:
356,356,79000,1,0,0:0:0:0:
384,336,79122,1,0,0:0:0:0:
400,292,79244,2,0,P|376:232|316:204,1,101.999996887207
168,248,79732,2,0,P|212:200|280:200,1,101.999996887207,8|0,0:0|0:0,0:0:0:0:
136,84,80220,1,0,0:0:0:0:
288,164,80464,1,0,0:0:0:0:
96,184,80708,1,8,0:0:0:0:
252,80,80952,1,0,0:0:0:0:
192,208,81195,6,0,L|212:340,2,101.999996887207,0|0|8,0:0|0:0|0:0,0:0:0:0:
296,152,81927,2,0,L|272:24,1,101.999996887207
192,72,82415,1,0,0:0:0:0:
216,84,82537,1,0,0:0:0:0:
240,112,82659,1,8,0:0:0:0:
240,148,82781,1,0,0:0:0:0:
228,184,82903,1,0,0:0:0:0:
204,204,83025,1,0,0:0:0:0:
176,212,83147,6,0,L|156:104,1,101.999996887207
144,96,83513,1,0,0:0:0:0:
144,96,83635,1,0,0:0:0:0:
56,176,83878,1,0,0:0:0:0:
68,200,84000,1,0,0:0:0:0:
84,232,84122,2,0,L|52:336,1,101.999996887207
180,336,84610,1,0,0:0:0:0:
200,196,84854,1,0,0:0:0:0:
332,208,85098,5,8,0:0:0:0:
456,264,85342,1,0,0:0:0:0:
392,140,85586,1,0,0:0:0:0:
364,284,85830,1,0,0:0:0:0:
464,184,86074,1,8,0:0:0:0:
332,208,86317,5,0,0:0:0:0:
304,188,86439,1,0,0:0:0:0:
280,168,86561,2,0,P|280:108|316:64,1,101.999996887207
408,192,87049,2,0,P|424:252|408:320,2,101.999996887207,8|0|0,0:0|0:0|0:0,0:0:0:0:
328,116,87781,1,0,0:0:0:0:
296,96,87903,1,0,0:0:0:0:
260,88,88025,6,0,P|204:104|164:160,1,101.999996887207,8|0,0:0|0:0,0:0:0:0:
140,244,88513,2,0,P|196:228|236:172,1,101.999996887207
136,144,89000,2,0,B|96:160|96:160|28:92|100:12,1,203.999993774414,0|8,0:0|0:0,0:0:0:0:
188,60,89732,2,0,L|248:72,1,50.9999984436036
220,176,90098,2,0,L|152:188,1,50.9999984436036
80,248,90464,1,0,0:0:0:0:
196,304,90708,1,0,0:0:0:0:
192,340,90830,1,0,0:0:0:0:
172,348,90952,6,0,L|156:244,1,101.999996887207
72,224,91439,5,8,0:0:0:0:
136,96,91683,2,0,L|152:160,2,50.9999984436036
212,32,92171,1,0,0:0:0:0:
288,156,92415,2,0,P|304:88|300:36,1,101.999996887207,8|0,0:0|0:0,0:0:0:0:
244,192,92903,6,0,P|224:248|288:316,1,152.999995330811
304,320,93391,2,0,P|348:316|412:340,1,101.999996887207
428,320,93756,1,0,0:0:0:0:
460,312,93878,1,0,0:0:0:0:
388,192,94122,1,0,0:0:0:0:
484,288,94366,1,8,0:0:0:0:
484,240,94854,6,0,B|452:148|452:148|504:116,1,152.999995330811
472,80,95342,1,8,0:0:0:0:
360,56,95586,1,0,0:0:0:0:
300,152,95830,2,0,P|352:176|392:216,2,101.999996887207,0|0|8,0:0|0:0|0:0,0:0:0:0:
256,192,96439,12,0,98269,0:0:0:0:
120,92,103391,5,0,0:0:0:0:
168,180,103635,1,0,0:0:0:0:
88,264,103878,2,0,P|68:304|40:340,2,76.4999976654053
108,168,104610,2,0,P|160:168|232:240,1,152.999995330811
172,304,105342,2,0,P|108:312|80:296,2,76.4999976654053
264,240,106074,2,0,P|268:184|200:108,1,152.999995330811
232,64,107293,5,0,0:0:0:0:
260,88,107415,1,0,0:0:0:0:
296,96,107537,2,0,P|312:44|304:8,1,76.4999976654053
408,40,108025,1,0,0:0:0:0:
480,104,108269,1,0,0:0:0:0:
404,168,108513,2,0,P|352:164|284:236,1,152.999995330811
376,276,109244,1,0,0:0:0:0:
456,328,109488,2,0,P|500:264|464:176,1,152.999995330811
400,168,110220,1,0,0:0:0:0:
336,80,110464,6,0,B|332:176|332:176|288:212,1,127.5
272,200,110952,2,0,L|172:200,1,85
212,104,111439,1,0,0:0:0:0:
132,48,111683,1,0,0:0:0:0:
36,120,111927,2,0,L|124:140,1,85
164,204,112415,2,0,P|160:252|80:304,1,127.5
64,292,112903,2,0,L|68:196,2,85
148,248,113635,1,0,0:0:0:0:
216,304,113878,1,0,0:0:0:0:
248,312,114000,1,0,0:0:0:0:
284,316,114122,1,0,0:0:0:0:
320,304,114244,1,0,0:0:0:0:
344,280,114366,6,0,P|340:224|296:192,1,85
256,156,114854,1,0,0:0:0:0:
304,80,115098,2,0,P|348:52|408:40,1,85
404,140,115586,2,0,P|452:124|488:88,2,85
372,164,116317,1,0,0:0:0:0:
384,192,116439,1,0,0:0:0:0:
388,228,116561,1,0,0:0:0:0:
372,256,116683,1,0,0:0:0:0:
340,272,116805,1,0,0:0:0:0:
304,272,116927,1,0,0:0:0:0:
272,264,117049,1,0,0:0:0:0:
248,240,117171,1,0,0:0:0:0:
232,216,117293,6,0,P|228:176|184:140,1,85
108,136,117781,2,0,P|140:196|140:240,1,85
284,24,118269,6,0,B|308:84|276:176|276:176|312:188,2,170
224,104,119488,1,0,0:0:0:0:
244,132,119610,1,0,0:0:0:0:
252,160,119732,2,0,P|236:200|200:252,1,85
328,264,120220,1,0,0:0:0:0:
448,320,120464,1,0,0:0:0:0:
432,296,120586,1,0,0:0:0:0:
424,276,120708,2,0,L|412:188,1,85
320,112,121195,2,0,P|332:164|232:212,1,170
176,48,122171,6,0,B|176:96|224:132|224:132|208:176,1,127.5
184,196,122659,2,0,L|84:236,1,85
36,144,123147,1,0,0:0:0:0:
184,120,123391,1,0,0:0:0:0:
64,48,123635,1,0,0:0:0:0:
120,188,123878,1,0,0:0:0:0:
156,40,124122,1,0,0:0:0:0:
112,112,124366,1,0,0:0:0:0:
120,120,124488,1,0,0:0:0:0:
128,128,124610,5,0,0:0:0:0:
208,184,124854,1,0,0:0:0:0:
260,116,125098,2,0,P|264:60|336:36,1,127.5
352,24,125586,2,0,L|464:28,1,85
480,128,126074,6,0,B|424:132|352:116|352:116|280:140,1,170
392,208,126805,1,0,0:0:0:0:
420,224,126927,1,0,0:0:0:0:
448,248,127049,2,0,P|424:292|376:332,1,85
316,280,127781,1,0,0:0:0:0:
308,308,127903,1,0,0:0:0:0:
304,332,128025,2,0,L|264:228,1,85
320,144,128513,1,0,0:0:0:0:
208,196,128756,1,0,0:0:0:0:
240,100,129000,1,0,0:0:0:0:
312,36,129244,1,0,0:0:0:0:
272,36,129366,1,0,0:0:0:0:
240,40,129488,1,0,0:0:0:0:
108,88,129732,1,0,0:0:0:0:
84,108,129854,1,0,0:0:0:0:
64,132,129976,6,0,P|40:176|56:240,1,85
120,216,130464,2,0,P|136:256|120:316,1,85
144,324,130830,1,0,0:0:0:0:
176,336,130952,2,0,P|224:316|280:320,1,85
216,224,131439,1,0,0:0:0:0:
288,176,131683,2,0,B|296:136|248:80|248:80|300:12,1,170
204,148,132415,1,0,0:0:0:0:
360,124,132659,2,0,L|468:152,1,85
444,236,133147,6,0,L|324:268,2,85
296,304,133878,2,0,P|284:252|300:200,1,85
340,88,134366,2,0,P|352:140|336:192,1,85
264,196,134854,1,0,0:0:0:0:
168,256,135098,1,0,0:0:0:0:
172,120,135342,1,0,0:0:0:0:
360,144,135586,1,0,0:0:0:0:
360,144,135830,2,0,P|380:192|280:256,1,170,0|8,0:0|0:0,0:0:0:0:
220,312,136561,1,0,0:0:0:0:
136,284,136805,2,0,L|124:148,1,127.5
96,144,137293,2,0,P|68:104|84:44,1,85,8|0,0:0|0:0,0:0:0:0:
216,56,137781,6,0,P|252:80|268:132,1,85
208,196,138269,1,0,0:0:0:0:
336,240,138513,1,0,0:0:0:0:
236,344,138756,2,0,P|220:288|232:240,1,85
316,196,139244,1,0,0:0:0:0:
124,196,139488,1,0,0:0:0:0:
176,104,139732,2,0,B|208:72|208:72|278:75|328:72,1,127.5
320,92,140220,2,0,L|428:92,1,85,8|0,0:0|0:0,0:0:0:0:
304,80,140708,1,0,0:0:0:0:
436,72,140952,1,0,0:0:0:0:
316,116,141195,1,8,0:0:0:0:
424,160,141439,1,0,0:0:0:0:
440,192,141561,1,0,0:0:0:0:
428,224,141683,6,0,P|380:240|312:228,1,85
316,236,142049,1,0,0:0:0:0:
288,220,142171,2,0,L|256:128,1,85
164,36,142659,1,0,0:0:0:0:
148,60,142781,1,0,0:0:0:0:
136,92,142903,2,0,P|120:144|112:200,2,85,0|8|0,0:0|0:0|0:0,0:0:0:0:
64,296,143635,6,0,P|100:268|112:224,2,85
184,336,144366,1,0,0:0:0:0:
220,332,144488,1,0,0:0:0:0:
252,328,144610,2,0,L|240:240,1,85
200,96,145098,1,0,0:0:0:0:
104,108,145342,1,0,0:0:0:0:
80,84,145464,1,0,0:0:0:0:
52,64,145586,1,8,0:0:0:0:
428,84,146074,1,2,0:0:0:0:
144,232,146561,1,4,0:0:0:0:
372,324,147049,1,8,0:0:0:0:
76,156,147537,6,0,P|64:104|72:44,1,85
80,48,147903,1,0,0:0:0:0:
108,32,148025,1,8,0:0:0:0:
192,76,148269,1,0,0:0:0:0:
220,104,148391,1,0,0:0:0:0:
248,132,148513,1,0,0:0:0:0:
284,144,148635,1,0,0:0:0:0:
324,148,148756,1,0,0:0:0:0:
364,136,148878,1,0,0:0:0:0:
392,120,149000,1,8,0:0:0:0:
392,84,149122,1,0,0:0:0:0:
368,56,149244,1,0,0:0:0:0:
336,76,149366,1,0,0:0:0:0:
320,100,149488,5,0,0:0:0:0:
324,136,149610,1,0,0:0:0:0:
348,160,149732,1,0,0:0:0:0:
384,172,149854,1,0,0:0:0:0:
420,176,149976,1,8,0:0:0:0:
452,192,150098,1,0,0:0:0:0:
476,224,150220,1,0,0:0:0:0:
476,264,150342,1,0,0:0:0:0:
468,304,150464,1,0,0:0:0:0:
440,328,150586,1,0,0:0:0:0:
404,336,150708,1,0,0:0:0:0:
368,332,150830,1,0,0:0:0:0:
336,308,150952,1,8,0:0:0:0:
352,276,151074,1,0,0:0:0:0:
384,248,151195,1,0,0:0:0:0:
416,224,151317,1,0,0:0:0:0:
424,188,151439,6,0,P|384:152|320:140,1,85
324,132,151805,1,0,0:0:0:0:
292,136,151927,2,0,P|232:144|184:176,1,85,8|0,0:0|0:0,0:0:0:0:
188,180,152293,1,0,0:0:0:0:
192,216,152415,2,0,P|172:280|80:304,1,170,0|8,0:0|0:0,0:0:0:0:
80,88,153391,5,0,0:0:0:0:
84,120,153513,1,0,0:0:0:0:
108,152,153635,1,0,0:0:0:0:
140,156,153756,1,0,0:0:0:0:
176,152,153878,5,8,0:0:0:0:
208,156,154000,1,0,0:0:0:0:
228,176,154122,1,0,0:0:0:0:
236,204,154244,1,0,0:0:0:0:
228,232,154366,2,0,L|176:248,3,42.5
164,292,154854,2,0,L|208:308,3,42.5,8|0|0|0,0:0|0:0|0:0|0:0,0:0:0:0:
236,320,155342,6,0,L|340:312,1,85
416,232,155830,2,0,L|328:224,1,85,8|0,0:0|0:0,0:0:0:0:
168,200,156317,1,0,0:0:0:0:
240,116,156561,1,0,0:0:0:0:
276,100,156683,1,0,0:0:0:0:
308,76,156805,1,0,0:0:0:0:
312,40,156927,1,0,0:0:0:0:
288,12,157049,1,0,0:0:0:0:
196,56,157293,6,0,L|104:64,1,85
60,152,157781,1,0,0:0:0:0:
156,216,158025,1,0,0:0:0:0:
136,232,158147,1,0,0:0:0:0:
116,248,158269,1,8,0:0:0:0:
208,324,158513,1,0,0:0:0:0:
104,328,158756,2,0,L|16:320,1,85
56,196,159244,6,0,P|80:140|76:104,1,85,8|0,0:0|0:0,0:0:0:0:
100,104,159610,2,0,L|188:104,1,85
216,128,159976,1,0,0:0:0:0:
256,236,160220,1,8,0:0:0:0:
376,240,160464,1,0,0:0:0:0:
336,124,160708,1,0,0:0:0:0:
344,100,161195,6,0,P|344:168|260:232,1,170,4|8,0:0|0:0,0:0:0:0:
216,160,161927,1,0,0:0:0:0:
169,231,162171,2,0,L|221:151,1,85
96,88,162659,2,0,B|112:144|112:224|112:224|68:260,1,170,0|4,0:0|0:0,0:0:0:0:
256,192,163269,12,0,165098,0:0:0:0:
84,92,167781,5,0,0:0:0:0:
216,176,168025,2,0,L|112:184,1,85
72,252,168513,2,0,P|116:284|240:292,1,170
308,240,169732,5,0,0:0:0:0:
264,164,169976,2,0,L|172:148,1,85
224,52,170464,2,0,B|272:64|272:64|320:100|320:100|384:112,1,170
256,36,171683,6,0,B|236:104|236:104|256:160|256:160|256:224,1,170
176,224,172415,1,0,0:0:0:0:
200,256,172537,1,0,0:0:0:0:
232,272,172659,1,0,0:0:0:0:
272,276,172781,1,0,0:0:0:0:
304,256,172903,1,0,0:0:0:0:
360,56,175586,5,0,0:0:0:0:
432,140,175830,2,0,P|376:152|320:152,1,85
280,196,176317,2,0,P|276:140|292:88,1,85
376,172,176805,2,0,P|384:228|320:340,1,170
264,296,177537,1,0,0:0:0:0:
224,288,177659,1,0,0:0:0:0:
192,272,177781,5,0,0:0:0:0:
256,184,178025,1,0,0:0:0:0:
164,248,178269,2,0,P|156:200|164:152,1,85
232,32,178756,2,0,B|240:108|220:156|220:156|164:172,1,170
132,92,179488,1,0,0:0:0:0:
40,160,179732,2,0,P|72:208|80:260,1,85
88,264,180098,1,0,0:0:0:0:
88,292,180220,1,0,0:0:0:0:
192,336,180464,1,0,0:0:0:0:
216,320,180586,1,0,0:0:0:0:
244,304,180708,5,12,0:0:0:0:
176,208,180952,1,0,0:0:0:0:
156,180,181074,1,0,0:0:0:0:
160,152,181195,2,0,P|196:112|256:104,1,101.999996887207
276,168,181683,1,0,0:0:0:0:
320,60,181927,1,0,0:0:0:0:
332,44,182049,1,0,0:0:0:0:
348,24,182171,1,0,0:0:0:0:
412,112,182415,1,0,0:0:0:0:
456,196,182659,6,0,P|400:236|288:176,1,203.999993774414
352,120,183391,2,0,P|392:168|328:280,1,203.999993774414
316,304,184000,1,0,0:0:0:0:
296,328,184122,1,0,0:0:0:0:
276,208,184366,1,0,0:0:0:0:
432,280,184610,1,0,0:0:0:0:
340,124,184854,1,0,0:0:0:0:
336,300,185098,1,0,0:0:0:0:
436,160,185342,1,0,0:0:0:0:
320,48,185586,6,0,P|256:68|232:132,1,101.999996887207
308,176,186074,2,0,P|328:228|296:296,1,101.999996887207
304,296,186439,1,0,0:0:0:0:
276,328,186561,2,0,B|212:280|210:180|210:180|168:176,1,203.999993774414
204,60,187293,1,0,0:0:0:0:
136,128,187537,2,0,L|108:24,1,101.999996887207
16,144,188025,2,0,L|48:256,1,101.999996887207
72,260,188391,5,0,0:0:0:0:
96,288,188513,2,0,B|100:352|188:360|188:360|232:316,1,170
140,44,189488,2,0,B|143:106|143:106|192:192|192:192|168:224,1,170
248,300,190464,2,0,P|236:248|248:116,1,170
240,60,191317,5,0,0:0:0:0:
248,72,191439,2,0,L|340:64,1,85
388,188,191927,2,0,L|392:92,1,85
292,144,192415,1,0,0:0:0:0:
464,124,192659,1,0,0:0:0:0:
388,216,192903,1,0,0:0:0:0:
320,280,193147,2,0,L|296:320,3,42.5
284,248,193635,2,0,L|312:200,3,42.5
280,168,194122,2,0,L|240:220,3,42.5
220,172,194610,2,0,L|168:152,3,42.5
156,136,195098,5,0,0:0:0:0:
160,96,195220,1,0,0:0:0:0:
184,68,195342,1,0,0:0:0:0:
216,52,195464,1,0,0:0:0:0:
256,48,195586,1,0,0:0:0:0:
288,48,195708,1,0,0:0:0:0:
320,56,195830,2,0,P|384:76|404:104,1,85
336,160,196317,6,0,P|304:208|356:304,1,165.749992412568
396,228,196805,2,0,L|520:232,1,110.499994941712
456,120,197293,1,0,0:0:0:0:
472,288,197537,1,0,0:0:0:0:
396,200,197781,2,0,L|264:184,1,110.499994941712
248,64,198269,6,0,B|224:156|224:156|248:236|248:236|192:260,1,220.999989883423
156,148,199000,1,0,0:0:0:0:
104,304,199244,2,0,P|96:244|104:192,1,110.499994941712
188,60,199732,2,0,P|188:124|176:188,1,110.499994941712
72,136,200220,1,0,0:0:0:0:
236,204,200464,1,0,0:0:0:0:
120,236,200708,2,0,L|4:236,1,110.499994941712
188,136,201195,1,0,0:0:0:0:
284,224,201439,1,0,0:0:0:0:
304,240,201561,1,0,0:0:0:0:
328,256,201683,5,0,0:0:0:0:
184,308,201927,1,0,0:0:0:0:
100,248,202171,2,0,B|84:188|84:188|176:188|176:188|236:132,1,220.999989883423
156,64,202903,1,0,0:0:0:0:
188,56,203025,2,0,L|308:52,1,110.499994941712
380,52,203391,1,0,0:0:0:0:
352,320,203635,1,0,0:0:0:0:
360,288,203756,6,0,L|344:168,1,110.499994941712
344,144,204122,1,0,0:0:0:0:
268,112,204366,1,0,0:0:0:0:
232,128,204488,1,0,0:0:0:0:
208,160,204610,2,0,P|208:224|264:256,2,110.499994941712
304,204,205342,1,0,0:0:0:0:
332,224,205464,1,0,0:0:0:0:
352,248,205586,2,0,P|348:304|280:340,1,110.499994941712
256,288,206074,6,0,P|200:280|136:276,2,110.499994941712
244,188,206805,1,0,0:0:0:0:
144,104,207049,2,0,L|268:80,2,110.499994941712
68,48,207781,1,0,0:0:0:0:
200,68,208025,6,0,P|228:128|204:208,1,110.499994941712
152,220,208513,1,0,0:0:0:0:
64,272,208756,2,0,L|88:380,1,110.499994941712
272,252,209244,1,0,0:0:0:0:
272,252,209366,1,0,0:0:0:0:
272,252,209488,1,0,0:0:0:0:
136,344,209732,1,0,0:0:0:0:
224,348,209976,6,0,P|272:320|344:348,1,110.499994941712
352,336,210342,1,0,0:0:0:0:
384,344,210464,2,0,P|452:312|452:248,1,110.499994941712
384,236,210952,1,0,0:0:0:0:
360,208,211074,1,0,0:0:0:0:
344,176,211195,1,0,0:0:0:0:
352,140,211317,1,0,0:0:0:0:
368,112,211439,6,0,L|240:104,1,110.499994941712
176,68,211927,1,0,0:0:0:0:
92,124,212171,1,0,0:0:0:0:
144,208,212415,2,0,B|180:212|208:220|208:220|252:208,1,110.499994941712
292,80,212903,2,0,P|320:144|300:196,1,110.499994941712
472,208,213391,2,0,B|412:224|412:224|352:212,1,110.499994941712
280,328,213878,6,0,L|292:204,2,110.499994941712
176,292,214610,1,0,0:0:0:0:
80,264,214854,1,0,0:0:0:0:
176,188,215098,1,0,0:0:0:0:
192,176,215220,1,0,0:0:0:0:
212,168,215342,1,0,0:0:0:0:
104,108,215586,1,0,0:0:0:0:
224,64,215830,6,0,P|256:112|204:256,1,220.999989883423
112,248,216561,1,0,0:0:0:0:
128,272,216683,1,0,0:0:0:0:
156,292,216805,2,0,P|232:292|284:264,1,110.499994941712
212,188,217293,2,0,P|192:256|140:312,1,110.499994941712
100,168,217781,6,0,B|36:104|36:104|60:64,1,110.499994941712
68,72,218147,1,0,0:0:0:0:
100,60,218269,2,0,B|172:40|172:40|216:56,1,110.499994941712
176,136,218756,1,0,0:0:0:0:
292,68,219000,1,0,0:0:0:0:
160,48,219244,2,0,L|52:104,1,110.499994941712
60,132,219610,1,0,0:0:0:0:
72,164,219732,6,0,P|128:200|216:184,2,110.499994941712
176,120,220464,1,0,0:0:0:0:
192,152,220586,1,0,0:0:0:0:
192,184,220708,2,0,P|168:248|128:280,1,110.499994941712
256,356,221195,2,0,L|256:240,1,110.499994941712
256,128,221683,6,0,B|336:104|336:104|428:156,1,165.749992412568
320,184,222171,2,0,B|348:228|348:228|324:304,1,110.499994941712
248,244,222659,1,0,0:0:0:0:
416,248,222903,1,0,0:0:0:0:
316,344,223147,1,0,0:0:0:0:
252,128,223635,5,0,0:0:0:0:
264,160,223756,2,0,B|300:204|300:204|300:280,1,110.499994941712
296,292,224122,1,0,0:0:0:0:
176,248,224366,1,0,0:0:0:0:
200,244,224488,1,0,0:0:0:0:
228,236,224610,1,0,0:0:0:0:
172,144,224854,1,0,0:0:0:0:
172,144,225098,1,0,0:0:0:0:
256,192,225220,12,0,227537,0:0:0:0:
