osu file format v14

[General]
AudioFilename: No.1-.mp3
AudioLeadIn: 0
PreviewTime: -1
Countdown: 1
SampleSet: Normal
StackLeniency: 0.7
Mode: 0
LetterboxInBreaks: 1
WidescreenStoryboard: 1

[Editor]
DistanceSpacing: 2
BeatDivisor: 8
GridSize: 4
TimelineZoom: 2.4

[Metadata]
Title:No.1
TitleUnicode:No.1
Artist:Nishino Kana
ArtistUnicode:Nishino Kana
Creator:Hidden
Version:Hard
Source:
Tags:no1 Hidden Intensity getche
BeatmapID:842853
BeatmapSetID:385953

[Difficulty]
HPDrainRate:5
CircleSize:4
OverallDifficulty:5
ApproachRate:7
SliderMultiplier:1.6
SliderTickRate:2

[Events]
//Background and Video events
0,0,"bakabaka.jpg",0,0
//Break Periods
2,98469,101759
2,188713,191516
//Storyboard Layer 0 (Background)
//Storyboard Layer 1 (Fail)
//Storyboard Layer 2 (Pass)
//Storyboard Layer 3 (Foreground)
//Storyboard Sound Samples

[TimingPoints]
5099,487.80487804878,4,1,0,100,1,0
20708,-100,4,1,0,100,0,0
36806,-100,4,1,0,100,0,0
48020,-66.6666666666667,4,1,0,100,0,0
51928,-50,4,1,0,100,0,0
57294,-100,4,1,0,100,0,0
59733,-66.6666666666667,4,1,0,100,0,0
63635,-100,4,1,0,100,0,0
66074,-66.6666666666667,4,1,0,100,0,0
66562,-100,4,1,0,100,0,1
98269,-100,4,1,0,100,0,0
109489,-133.333333333333,4,1,0,100,0,0
110464,-66.6666666666667,4,1,0,100,0,1
113879,-100,4,1,0,100,0,0
118269,-100,4,1,0,100,0,0
131684,-133.333333333333,4,1,0,100,0,0
132659,-100,4,1,0,100,0,0
133879,-100,4,1,0,100,0,1
159245,-133.333333333333,4,1,0,100,0,1
160220,-100,4,1,0,100,0,1
161196,-133.333333333333,4,1,0,100,0,1
164611,-100,4,1,0,100,0,0
165098,-66.6666666666667,4,1,0,100,0,0
168025,-100,4,1,0,100,0,0
171684,-133.333333333333,4,1,0,100,0,0
175830,-100,4,1,0,100,0,0
192416,-133.333333333333,4,1,0,100,0,0
195098,-200,4,1,0,100,0,0
196318,-50,4,1,0,100,0,1
196806,-66.6666666666667,4,1,0,100,0,1
197294,-100,4,1,0,100,0,1
197781,-133.333333333333,4,1,0,100,0,1
198269,-100,4,1,0,100,0,1
200220,-133.333333333333,4,1,0,100,0,1
200708,-100,4,1,0,100,0,1
201196,-66.6666666666667,4,1,0,100,0,1
201684,-50,4,1,0,100,0,1
202172,-100,4,1,0,100,0,1
209977,-66.6666666666667,4,1,0,100,0,1
211440,-100,4,1,0,100,0,1
213879,-133.333333333333,4,1,0,100,0,1
219245,-100,4,1,0,100,0,1
223635,-66.6666666666667,4,1,0,100,0,1
225098,-133.333333333333,4,1,0,100,0,1
225586,-133.333333333333,4,1,0,100,0,0
227538,-133.333333333333,4,1,0,100,0,1
229489,-133.333333333333,4,1,0,100,0,0
235342,-133.333333333333,4,1,0,100,0,1
237294,-133.333333333333,4,1,0,100,0,0

[HitObjects]
72,232,20708,5,0,0:0:0:0:
168,284,20952,1,0,0:0:0:0:
168,176,21196,1,8,0:0:0:0:
272,220,21440,1,0,0:0:0:0:
360,166,21684,2,0,P|356:122|320:104,1,80
256,158,22172,2,8,P|252:194|284:224,1,80
116,184,22659,2,0,P|152:176|176:216,1,80
168,280,23147,2,8,P|216:308|240:292,1,80
344,296,23635,2,0,P|375:276|392:236,1,80
400,144,24123,5,8,0:0:0:0:
320,72,24367,1,0,0:0:0:0:
164,152,24611,2,0,P|228:164|240:184,1,80
88,244,25098,2,8,P|152:256|164:272,1,80
360,256,25586,2,0,P|336:272|292:248,1,80
248,80,26074,5,8,0:0:0:0:
228,256,26318,1,0,0:0:0:0:
344,128,26562,1,0,0:0:0:0:
176,160,26806,1,0,0:0:0:0:
332,236,27050,1,8,0:0:0:0:
248,80,27294,1,0,0:0:0:0:
256,104,27538,2,8,B|296:184|204:184|268:256,1,160
368,192,28269,1,0,0:0:0:0:
332,84,28513,2,8,B|264:96|244:64|244:64|176:52,2,160
320,152,29733,5,0,0:0:0:0:
384,196,29977,1,8,0:0:0:0:
320,232,30220,1,0,0:0:0:0:
260,276,30464,2,8,B|300:292|300:292|324:328|424:328,2,160
168,256,31684,5,0,0:0:0:0:
76,300,31928,1,8,0:0:0:0:
184,156,32172,1,0,0:0:0:0:
92,200,32416,1,0,0:0:0:0:
200,56,32659,1,0,0:0:0:0:
108,72,32903,2,8,P|148:64|196:72,1,80
160,140,33391,2,0,P|200:148|245:141,1,80
232,280,33879,5,8,0:0:0:0:
352,240,34123,1,0,0:0:0:0:
376,104,34367,1,0,0:0:0:0:
448,192,34611,1,0,0:0:0:0:
232,280,34855,5,8,0:0:0:0:
160,196,35098,1,0,0:0:0:0:
256,144,35342,1,0,0:0:0:0:
352,240,35586,1,0,0:0:0:0:
376,96,35830,1,8,0:0:0:0:
472,192,36074,1,0,0:0:0:0:
236,328,36318,2,0,L|236:240,1,80
236,172,36806,6,8,P|256:128|288:120,1,80
364,124,37294,2,0,P|408:144|412:172,1,80
328,236,37781,2,8,B|332:268|332:268|320:276|320:276|280:276,1,80
200,268,38269,5,0,0:0:0:0:
100,196,38513,1,0,0:0:0:0:
112,112,38757,2,8,P|56:72|48:64,1,80
200,112,39245,5,0,0:0:0:0:
292,68,39489,1,0,0:0:0:0:
256,180,39733,2,8,P|312:140|316:128,1,80
256,180,40220,2,0,P|200:140|196:128,1,80
324,216,40708,5,8,0:0:0:0:
168,268,40952,1,0,0:0:0:0:
212,112,41196,2,0,P|172:72|144:72,1,80
124,64,41684,2,8,P|80:76|52:104,1,80
32,120,42172,1,0,0:0:0:0:
140,224,42416,1,0,0:0:0:0:
224,68,42659,1,8,0:0:0:0:
316,164,42903,1,0,0:0:0:0:
332,180,43147,6,8,B|416:248|440:220|412:280|384:280,1,160
316,328,43879,1,0,0:0:0:0:
256,264,44123,2,8,B|216:300|292:300|152:300|156:208|168:320,2,160
256,56,45342,1,0,0:0:0:0:
256,144,45586,1,8,0:0:0:0:
300,216,45830,1,0,0:0:0:0:
384,164,46074,2,8,B|351:97|334:177|376:39|444:63|355:47,2,160
256,140,47294,5,0,0:0:0:0:
204,228,47538,1,8,0:0:0:0:
308,228,47781,1,0,0:0:0:0:
160,104,48025,2,8,B|88:104|88:104|148:176|148:176|64:176,1,240.000009155274
256,184,48757,1,0,0:0:0:0:
352,104,49001,2,8,B|424:104|424:104|364:176|364:176|448:176,1,240.000009155274
256,56,49733,1,0,0:0:0:0:
256,192,49977,12,0,51196,0:0:0:0:
300,240,51440,5,8,0:0:0:0:
212,184,51684,1,0,0:0:0:0:
104,184,51928,2,0,B|59:165|59:165|60:52,2,160
152,92,52659,1,0,0:0:0:0:
240,40,52903,2,0,B|292:72|292:72|292:176,1,160
196,168,53391,1,8,0:0:0:0:
208,72,53635,2,0,P|152:88|112:176,1,160
252,192,54123,1,0,0:0:0:0:
256,300,54367,2,8,P|312:284|356:196,1,160
208,72,54855,2,0,P|136:104|104:188,1,160
255,295,55342,2,8,P|331:267|355:195,1,160
256,192,55830,5,0,0:0:0:0:
156,192,56074,2,0,B|76:192|76:192|24:264,1,160
80,328,56562,1,0,0:0:0:0:
176,328,56806,2,0,B|260:328|260:328|272:312|272:312|272:256,1,160
252,172,57294,2,8,P|248:128|276:96,2,80
332,68,58025,1,0,0:0:0:0:
436,160,58269,1,8,0:0:0:0:
356,264,58513,1,0,0:0:0:0:
216,112,58757,1,8,0:0:0:0:
244,252,59001,1,0,0:0:0:0:
332,296,59245,1,8,0:0:0:0:
244,356,59489,1,0,0:0:0:0:
196,184,59733,6,4,B|136:112|124:112|116:220|96:220|80:112|60:116|40:224,1,240.000009155274
64,200,60464,1,0,0:0:0:0:
140,112,60708,1,8,0:0:0:0:
252,88,60952,1,0,0:0:0:0:
368,112,61196,1,8,0:0:0:0:
448,180,61440,1,0,0:0:0:0:
480,264,61684,2,4,B|440:352|428:352|420:244|400:244|384:352|364:348|312:260,1,240.000009155274
248,232,62416,6,0,P|204:232|152:180,1,120.000004577637
264,232,62903,6,8,P|308:232|360:180,1,120.000004577637
304,320,63391,1,0,0:0:0:0:
184,296,63635,2,0,P|128:240|112:164,1,160
256,156,64367,1,0,0:0:0:0:
392,192,64611,5,8,0:0:0:0:
256,156,64855,1,0,0:0:0:0:
120,192,65098,5,8,0:0:0:0:
256,156,65342,1,0,0:0:0:0:
256,40,65586,5,8,0:0:0:0:
256,156,65830,1,8,0:0:0:0:
272,304,66074,2,8,B|300:232|300:232|224:192|224:192|256:120,2,240.000009155274
256,188,67294,5,0,0:0:0:0:
302,103,67538,5,2,0:0:0:0:
313,272,67781,1,0,0:0:0:0:
157,189,68025,1,2,0:0:0:0:
302,103,68269,1,0,0:0:0:0:
209,280,68513,1,2,0:0:0:0:
198,111,68757,1,0,0:0:0:0:
354,194,69001,1,2,0:0:0:0:
209,280,69245,1,0,0:0:0:0:
180,148,69489,2,0,B|223:87|223:87|308:108,1,160
256,196,70220,5,0,0:0:0:0:
332,236,70464,2,0,B|289:297|289:297|204:276,1,160
220,120,71440,5,2,0:0:0:0:
240,268,71684,1,0,0:0:0:0:
368,168,71928,1,2,0:0:0:0:
220,120,72172,5,0,0:0:0:0:
328,248,72416,5,2,0:0:0:0:
308,99,72659,1,0,0:0:0:0:
180,199,72903,1,2,0:0:0:0:
328,248,73147,5,0,0:0:0:0:
324,172,73391,2,0,B|288:208|288:208|232:184|232:184|236:132,1,160
284,240,74123,5,0,0:0:0:0:
196,152,74367,1,8,0:0:0:0:
176,280,74611,1,0,0:0:0:0:
80,192,74855,2,8,B|96:132|96:132|136:152|136:152|152:100,2,160
256,192,76074,1,0,0:0:0:0:
160,128,76318,1,0,0:0:0:0:
220,292,76562,1,0,0:0:0:0:
128,240,76806,1,8,0:0:0:0:
280,184,77050,1,0,0:0:0:0:
460,188,77294,6,0,B|428:104|424:280|344:148,2,160
256,192,78513,1,0,0:0:0:0:
72,40,78757,5,8,0:0:0:0:
132,92,79001,2,0,L|196:144,1,80
256,192,79489,1,0,0:0:0:0:
324,144,79733,2,8,L|388:96,2,80
256,192,80464,1,0,0:0:0:0:
184,252,80708,1,8,0:0:0:0:
320,288,80952,1,0,0:0:0:0:
392,212,81196,2,0,B|448:212|448:212|468:184,1,80
384,104,81684,1,0,0:0:0:0:
256,76,81928,1,0,0:0:0:0:
140,72,82172,5,0,0:0:0:0:
52,100,82416,1,0,0:0:0:0:
76,184,82659,1,8,0:0:0:0:
156,236,82903,1,0,0:0:0:0:
132,320,83147,2,0,P|100:316|44:288,1,80
220,236,83635,2,8,P|252:232|308:208,1,80
100,140,84123,2,0,P|68:136|12:112,1,80
240,80,84611,2,8,P|272:76|324:48,1,80
392,168,85098,2,0,B|344:216|428:240|376:316,1,160
256,240,85830,5,0,0:0:0:0:
256,84,86074,2,8,B|252:148|272:156|272:156|252:236,1,160
380,64,87050,2,0,P|412:68|464:96,1,80
292,148,87538,2,8,P|260:152|204:180,1,80
412,244,88025,2,0,P|444:248|500:276,1,80
272,304,88513,2,8,P|240:308|184:336,1,80
196,220,89001,2,0,B|152:260|152:260|120:220|120:220|76:256,2,160
172,92,90220,5,0,0:0:0:0:
256,124,90464,2,8,L|300:136|324:172,1,80
344,232,90952,2,4,P|332:260|280:288,2,80
152,216,91684,1,0,0:0:0:0:
256,116,91928,1,2,0:0:0:0:
260,320,92172,1,0,0:0:0:0:
360,228,92416,1,2,0:0:0:0:
228,184,92659,5,0,0:0:0:0:
140,104,92903,2,0,P|112:88|52:96,1,80
52,224,93391,2,8,P|72:252|120:256,4,80
132,144,94611,1,0,0:0:0:0:
264,72,94855,6,0,L|320:148,1,80
472,148,95342,2,8,P|452:160|424:208,1,80
300,280,95830,2,0,P|272:256|228:256,1,80
256,192,96318,12,8,98269,0:0:0:0:
224,88,102659,6,4,P|148:92|116:164,1,160
120,244,103391,5,0,0:0:0:0:
188,312,103635,2,8,P|224:328|264:316,1,80
280,220,104123,2,0,P|320:228|352:252,1,80
384,316,104611,2,0,P|436:288|444:264,1,80
460,184,105098,1,0,0:0:0:0:
424,80,105342,1,0,0:0:0:0:
332,156,105586,1,0,0:0:0:0:
460,184,105830,1,0,0:0:0:0:
424,80,106074,2,0,P|360:44|272:44,1,160
276,124,106806,5,0,0:0:0:0:
188,112,107050,1,0,0:0:0:0:
148,180,107294,2,0,B|120:196|120:196|80:160,1,80
48,124,107781,2,0,B|36:100|36:100|76:64,2,80
176,56,108513,2,0,B|228:72|228:72|228:112,1,80
132,156,109001,2,0,B|108:192|108:192|140:232,1,80
244,192,109489,2,0,L|424:192,1,180.000006866455
448,104,110464,6,4,P|396:56|328:48,1,120.000004577637
228,120,110952,2,8,P|252:188|308:208,1,120.000004577637
376,208,111440,1,0,0:0:0:0:
256,288,111684,1,0,0:0:0:0:
136,208,111928,1,8,0:0:0:0:
136,96,112172,2,0,B|168:48|168:48|232:48,1,120.000004577637
324,48,112659,2,8,B|376:48|376:48|400:112,1,120.000004577637
356,196,113147,1,0,0:0:0:0:
256,192,113391,5,0,0:0:0:0:
196,48,113635,1,0,0:0:0:0:
144,108,113879,2,8,P|100:100|60:120,2,80
256,112,114611,1,0,0:0:0:0:
368,108,114855,2,8,P|412:100|452:120,2,80
464,196,115586,1,0,0:0:0:0:
412,300,115830,1,8,0:0:0:0:
332,200,116074,1,0,0:0:0:0:
272,300,116318,2,8,P|180:328|120:312,1,160
72,240,117050,1,0,0:0:0:0:
176,192,117294,1,0,0:0:0:0:
200,296,117538,2,8,B|165:318|165:318|113:318,2,80
256,192,118269,5,0,0:0:0:0:
188,120,118513,2,8,B|152:120|152:120|124:84,1,80
184,32,119001,1,0,0:0:0:0:
260,40,119245,2,0,B|300:56|300:56|308:104,2,80
272,172,119977,1,0,0:0:0:0:
244,288,120220,2,0,B|208:308|208:308|172:284,1,80
136,216,120708,2,8,B|116:184|116:184|140:144,1,80
176,92,121196,2,0,B|212:72|212:72|256:92,1,80
296,156,121684,2,8,B|312:192|312:192|288:232,1,80
252,288,122172,6,8,P|204:328|192:360,2,80
352,260,122903,1,0,0:0:0:0:
456,292,123147,2,0,P|492:236|496:208,1,80
456,160,123635,2,8,P|492:104|496:76,1,80
256,56,124123,2,0,L|344:56,1,80
128,136,124611,2,8,L|220:136,2,80
48,136,125342,1,0,0:0:0:0:
92,204,125586,2,8,P|52:240|52:272,1,80
88,336,126074,2,8,L|172:336,2,80
232,252,126806,2,0,L|148:252,1,80
268,252,127294,1,0,0:0:0:0:
132,192,127538,6,8,B|92:192|92:192|64:160,1,80
36,68,128025,2,0,B|72:48|72:48|112:48,1,80
192,68,128513,1,8,0:0:0:0:
280,128,128757,1,0,0:0:0:0:
320,232,129001,1,0,0:0:0:0:
216,304,129245,2,8,B|176:308|176:308|124:292,1,80
100,220,129733,5,0,0:0:0:0:
68,116,129977,2,0,P|124:92|132:72,1,80
216,244,130464,2,8,P|172:272|160:296,1,80
280,336,130952,1,2,0:0:0:0:
344,256,131196,1,2,0:0:0:0:
440,308,131440,1,2,0:0:0:0:
460,216,131684,2,0,P|480:132|428:52,1,180.000006866455
288,104,132659,5,2,0:0:0:0:
168,48,132903,2,0,P|120:44|80:52,1,80
52,164,133391,2,4,P|84:176|128:168,1,80
208,164,133879,5,2,0:0:0:0:
260,248,134123,1,0,0:0:0:0:
168,296,134367,1,2,0:0:0:0:
308,164,134611,1,0,0:0:0:0:
232,340,134855,1,2,0:0:0:0:
120,208,135098,1,0,0:0:0:0:
304,312,135342,1,2,0:0:0:0:
204,140,135586,1,0,0:0:0:0:
324,240,135830,2,4,L|484:240,1,160
488,180,136562,5,0,0:0:0:0:
488,120,136806,2,8,B|452:60|452:60|360:60,1,160
202,78,137781,5,2,0:0:0:0:
98,189,138024,1,0,0:0:0:0:
203,295,138268,1,2,0:0:0:0:
307,185,138511,1,0,0:0:0:0:
125,113,138757,1,2,0:0:0:0:
127,265,139000,1,0,0:0:0:0:
277,267,139244,1,2,0:0:0:0:
273,114,139487,1,0,0:0:0:0:
352,76,139733,2,4,L|424:224,1,160
344,292,140464,5,0,0:0:0:0:
236,344,140708,2,0,B|196:344|196:344|152:320,1,80
144,184,141196,2,8,B|96:204|96:204|96:236,1,80
252,240,141684,2,4,B|284:216|284:216|284:168,1,80
240,80,142172,1,8,0:0:0:0:
144,32,142416,2,0,B|100:44|100:44|100:88,2,80
100,116,143025,1,0,0:0:0:0:
80,128,143147,2,0,B|52:152|52:152|52:200,1,80
60,308,143635,2,8,P|104:336|136:336,1,80
212,296,144123,2,0,P|260:276|284:284,2,80
376,296,144855,1,0,0:0:0:0:
464,192,145098,5,8,0:0:0:0:
448,84,145342,2,0,P|408:48|380:48,1,80
296,72,145830,1,0,0:0:0:0:
152,148,146074,2,8,P|192:112|220:112,2,80
288,216,146806,1,0,0:0:0:0:
296,72,147050,1,8,0:0:0:0:
180,132,147294,1,0,0:0:0:0:
84,64,147538,2,8,L|244:64|244:64,1,160
184,152,148269,5,0,0:0:0:0:
84,156,148513,2,0,L|28:228,1,80
156,324,149001,2,0,L|212:248,1,80
380,256,149489,5,4,0:0:0:0:
328,320,149733,1,0,0:0:0:0:
432,320,149977,1,2,0:0:0:0:
380,168,150220,1,0,0:0:0:0:
296,224,150464,1,2,0:0:0:0:
456,224,150708,1,0,0:0:0:0:
456,108,150952,1,2,0:0:0:0:
296,108,151196,1,0,0:0:0:0:
144,108,151440,2,0,L|144:272,1,160
224,320,152172,5,0,0:0:0:0:
332,328,152416,2,0,B|392:296|392:296|392:204,1,160
260,48,153391,6,0,B|224:32|224:32|184:48,1,80
128,176,153879,2,2,B|133:215|133:215|172:240,1,80
280,280,154367,2,0,B|316:296|316:296|360:272,1,80
412,152,154855,2,2,B|406:112|406:112|372:92,1,80
256,92,155342,2,0,B|308:128|288:172|204:172|268:224,1,160
232,300,156074,5,0,0:0:0:0:
136,328,156318,1,8,0:0:0:0:
64,256,156562,2,0,B|48:216|48:216|52:176,1,80
56,96,157050,2,4,B|88:68|88:68|136:68,1,80
196,64,157538,2,0,B|242:63|242:63|272:90,1,80
260,176,158025,2,8,B|306:176|306:176|336:149,3,80
424,76,159001,1,0,0:0:0:0:
476,184,159245,6,0,P|488:228|456:292,1,120.000004577637
352,324,159977,1,0,0:0:0:0:
256,332,160220,6,0,P|220:328|184:304,2,80
296,248,160952,1,0,0:0:0:0:
248,160,161196,2,0,P|224:120|160:80,1,120.000004577637
72,72,161928,1,0,0:0:0:0:
72,168,162172,2,8,P|80:216|92:232,2,60.0000022888184
256,192,163147,12,4,164611,0:0:0:0:
324,300,165098,6,4,P|216:328|96:288,1,240.000009155274
80,168,165830,1,0,0:0:0:0:
100,52,166074,2,0,P|224:24|340:60,1,240.000009155274
380,132,166806,1,0,0:0:0:0:
260,208,167050,2,0,L|500:208,1,240.000009155274
456,296,167781,5,0,0:0:0:0:
376,336,168025,2,8,B|292:348|292:348|216:348,1,160
136,348,168757,1,0,0:0:0:0:
64,288,169001,2,0,B|44:248|44:248|40:208,1,80
40,120,169489,1,8,0:0:0:0:
128,52,169733,2,0,B|184:52|184:52|208:68,1,80
248,144,170220,2,8,B|292:144|292:144|324:128,1,80
388,72,170708,2,0,P|420:56|456:80,1,80
468,208,171196,5,0,0:0:0:0:
344,240,171440,1,8,0:0:0:0:
444,328,171684,2,0,P|388:340|324:336,1,120.000004577637
240,296,172416,1,8,0:0:0:0:
152,232,172659,1,0,0:0:0:0:
208,164,172903,2,4,P|244:208|304:232,1,120.000004577637
372,192,173635,1,0,0:0:0:0:
448,128,173879,2,8,P|408:80|356:52,1,120.000004577637
280,88,174611,1,0,0:0:0:0:
224,148,174855,2,0,P|164:164|108:144,1,120.000004577637
72,64,175586,5,0,0:0:0:0:
72,144,175830,2,0,B|72:200|72:200|92:212,1,80
184,212,176318,2,8,B|184:268|184:268|160:284,2,80
256,124,177050,1,0,0:0:0:0:
344,68,177294,2,0,B|396:68|396:68|424:84,1,80
484,168,177781,2,0,B|432:168|432:168|408:192,1,80
416,296,178269,1,8,0:0:0:0:
324,240,178513,1,8,0:0:0:0:
420,188,178757,1,8,0:0:0:0:
324,124,179001,1,0,0:0:0:0:
212,84,179245,2,0,P|128:104|72:160,1,160
256,216,179977,5,0,0:0:0:0:
164,280,180220,2,8,B|120:280|120:280|84:268,1,80
256,216,180708,1,4,0:0:0:0:
348,280,180951,2,8,B|392:280|392:280|428:268,2,80
256,168,181684,5,0,0:0:0:0:
160,64,181928,1,0,0:0:0:0:
160,164,182172,2,0,L|160:252,2,80
160,312,182903,1,0,0:0:0:0:
228,312,183147,2,0,L|392:312,1,160
464,240,183879,1,0,0:0:0:0:
436,148,184123,2,8,P|448:104|424:80,1,80
336,192,184611,1,0,0:0:0:0:
240,152,184855,2,8,P|228:108|252:84,2,80
132,64,185586,5,0,0:0:0:0:
40,128,185830,1,0,0:0:0:0:
144,168,186074,1,8,0:0:0:0:
204,256,186318,2,0,L|288:256|288:256,1,80
328,168,186806,1,0,0:0:0:0:
332,252,187050,1,8,0:0:0:0:
256,300,187294,2,0,B|212:232|300:148|256:64,1,240
256,192,188513,1,4,0:0:0:0:
76,60,192416,5,10,0:0:0:0:
436,324,192903,1,10,0:0:0:0:
36,324,193391,1,10,0:0:0:0:
476,60,193879,1,10,0:0:0:0:
136,64,194367,1,10,0:0:0:0:
336,184,194733,1,10,0:0:0:0:
136,256,195098,2,4,L|136:136,1,120
224,76,196074,1,0,0:0:0:0:
360,40,196318,6,4,P|432:56|496:112,1,160
432,172,196806,2,8,P|396:144|324:132,1,120.000004577637
324,224,197294,6,0,P|364:228|392:256,1,80
352,332,197781,2,8,P|336:316|300:312,1,60.0000022888184
212,336,198269,2,0,P|120:344|56:328,1,160
104,220,199001,5,0,0:0:0:0:
208,168,199245,2,8,B|276:188|276:188|288:276,1,160
308,308,200220,6,0,P|328:328|364:332,1,60.0000022888184
396,252,200708,2,8,P|348:240|320:216,1,80
344,128,201196,2,0,P|384:160|456:168,1,120.000004577637
492,88,201684,2,8,P|416:72|340:20,1,160
244,48,202172,2,0,P|164:40|88:60,1,160
48,144,202903,1,0,0:0:0:0:
72,260,203147,2,2,B|92:304|92:304|132:304,1,80
172,252,203635,6,0,B|192:204|192:204|224:184,1,80
268,128,204123,1,4,0:0:0:0:
336,196,204367,1,0,0:0:0:0:
364,104,204611,2,0,B|416:132|416:132|428:156,1,80
468,236,205098,2,0,B|440:288|440:288|412:296,1,80
336,328,205586,1,8,0:0:0:0:
244,288,205830,1,0,0:0:0:0:
300,216,206074,2,0,B|340:224|340:224|364:256,2,80
424,208,206806,2,0,B|388:144|388:144|300:136,1,160
188,184,207538,5,8,0:0:0:0:
104,140,207781,1,0,0:0:0:0:
172,96,208025,2,0,L|244:56,1,80
296,140,208513,1,8,0:0:0:0:
232,184,208757,2,0,L|160:228,2,80
296,140,209489,1,8,0:0:0:0:
360,104,209733,1,0,0:0:0:0:
424,64,209977,2,4,P|480:152|440:276,1,240.000009155274
368,304,210708,5,0,0:0:0:0:
352,220,210952,1,8,0:0:0:0:
284,276,211196,1,0,0:0:0:0:
188,276,211440,2,0,B|140:276|140:276|112:260,1,80
72,164,211928,5,4,0:0:0:0:
168,108,212172,1,0,0:0:0:0:
256,164,212416,1,2,0:0:0:0:
344,108,212659,1,0,0:0:0:0:
440,219,212903,1,2,0:0:0:0:
344,276,213147,1,0,0:0:0:0:
256,220,213391,1,2,0:0:0:0:
168,276,213634,1,0,0:0:0:0:
71,219,213879,2,0,P|35:175|36:112,1,120.000004577637
56,52,214611,5,0,0:0:0:0:
244,52,214855,2,8,L|124:52,1,120.000004577637
332,128,215830,2,0,L|280:168,1,60.0000022888184
180,260,216318,2,2,L|232:216,1,60.0000022888184
332,256,216806,2,0,L|280:216,1,60.0000022888184
180,124,217294,2,2,L|232:168,1,60.0000022888184
256,192,217781,12,0,218757,0:0:0:0:
148,120,219245,5,8,0:0:0:0:
228,64,219489,2,4,P|276:52|304:72,1,80
364,120,219977,5,0,0:0:0:0:
364,184,220220,2,2,P|364:232|344:256,1,80
304,280,220708,2,8,P|256:288|224:284,2,80
256,184,221440,1,0,0:0:0:0:
184,272,221684,5,2,0:0:0:0:
152,184,221928,1,0,0:0:0:0:
256,184,222172,1,2,0:0:0:0:
288,272,222416,1,0,0:0:0:0:
376,184,222659,2,0,L|376:272,2,80
332,88,223391,5,0,0:0:0:0:
216,72,223635,2,2,B|140:72|140:72|96:100,1,120.000004577637
180,192,224123,2,8,B|256:192|256:192|300:164,1,120.000004577637
296,72,224611,2,2,B|372:72|372:72|416:96,1,120.000004577637
256,144,225098,6,0,B|224:192|256:192|292:192|256:248,1,120.000004577637
256,192,225830,12,0,227050,0:0:0:0:
256,192,227538,5,4,0:0:0:0:
