osu file format v9

[General]
AudioFilename: go_for_it.mp3
AudioLeadIn: 0
PreviewTime: 66503
Countdown: 0
SampleSet: Normal
StackLeniency: 0.7
Mode: 0
LetterboxInBreaks: 0

[Editor]
DistanceSpacing: 1
BeatDivisor: 4
GridSize: 8

[Metadata]
Title:GO FOR IT!!
Artist:Nishino Kana
Creator:IchiGUN
Version:Hard
Source:
Tags:-Bakari- kosiga Black_Cherry_Ita BCI

[Difficulty]
HPDrainRate:6
CircleSize:4
OverallDifficulty:6
ApproachRate:7
SliderMultiplier:1.7
SliderTickRate:2

[Events]
//Background and Video events
0,0,"BG.jpg"
//Break Periods
2,9662,24889
//Storyboard Layer 0 (Background)
//Storyboard Layer 1 (Fail)
//Storyboard Layer 2 (Pass)
//Storyboard Layer 3 (Foreground)
Sprite,Foreground,Centre,"SB\IchiGUN.png",320,240 M,0,15789,15993,515,430 F,0,15789,15993,0,1 M,0,15789,25789,515,430,495,430 F,0,15993,22523,1 F,0,22523,25789,1,0
//Storyboard Sound Samples
//Background Colour Transformations
3,100,163,162,255

[TimingPoints]
1299,408.163265306122,4,1,1,70,1,0
66605,-100,4,1,1,70,0,1
92727,-100,4,1,1,70,0,0
99258,-100,4,1,1,40,0,0
100891,-100,4,1,1,55,0,0
102523,-100,4,1,1,70,0,0
123747,-100,4,1,1,70,0,1
149870,-100,4,1,1,70,0,0

[Colours]
Combo1 : 215,77,187
Combo2 : 138,255,21
Combo3 : 226,226,7

[HitObjects]
256,192,7829,5,8
336,160,8034,2,0,B|360:112,2,42.5
272,104,8442,2,0,B|240:56,2,42.5
184,120,8850,5,0
168,32,9054,1,0
128,48,9156,1,0
104,80,9258,1,0
96,120,9360,1,0
104,160,9462,1,4
72,56,25789,5,4
256,344,26605,1,0
336,320,26809,2,0,B|376:304|376:304|384:248,1,85
408,184,27217,1,0
416,156,27319,1,0
424,128,27421,1,0
392,48,27625,2,0,B|352:32|352:32|296:32,1,85,0|8
261,102,28034,1,0
183,68,28238,1,0
14,75,28646,6,0,B|-8:118|32:166,1,85
101,188,29054,2,0,B|165:180|213:244|173:308,1,170,0|8
99,270,29666,1,0
99,270,30074,5,0
96,352,30278,2,0,B|32:360|-16:296|24:232,1,170,0|0
152,128,31095,5,8
32,144,31299,1,0
104,232,31503,1,0
152,128,31707,1,0
88,64,31911,2,0,B|80:8,4,42.5
256,96,32727,6,0,B|280:64|280:64|360:56|400:128,1,170,8|0
320,152,33340,1,0
240,184,33544,2,0,B|256:224|304:240,1,85
384,208,33952,2,0,B|392:184|392:184|464:176|480:104|432:48,1,170,0|8
288,24,34768,5,0
376,104,34972,1,0
264,136,35176,1,0
264,136,35278,1,0
264,136,35381,1,0
190,93,35585,5,0
126,36,35789,1,0
112,120,35993,2,0,B|64:128|32:184,1,85,8|0
120,216,36401,2,0,B|136:272|80:320,1,85
32,248,36809,2,0,B|0:288|16:336,1,85
80,376,37217,2,0,B|160:392|184:320|256:320,1,170,0|8
312,288,37829,5,0
384,320,38034,1,0
464,296,38238,1,0
486,260,38340,1,0
497,219,38442,1,0
500,176,38544,1,0
492,134,38646,2,0,B|476:86,2,42.5,0|0|4
328,88,39258,6,0,B|256:0,1,85,8|0
200,64,39666,2,0,B|96:48,1,85
40,96,40074,1,0
8,176,40278,2,0,B|112:216|72:344,1,170
80,312,40891,1,8
153,355,41095,6,0,B|200:355|243:371,1,85,0|0
216,288,41503,2,0,B|256:288|256:288|288:256,1,85
328,328,41911,2,0,B|368:248|456:296|470:215|470:215|416:176,1,255,0|8
464,112,42727,1,0
432,88,42829,1,0
400,64,42932,1,0
312,56,43136,5,0
232,16,43340,2,0,B|200:80|248:152|320:144,1,170,0|0
365,300,44157,5,8
278,218,44361,1,0
251,334,44565,1,0
162,255,44768,1,0
88,297,44973,2,0,B|54:323,4,42.5,8|0|0|0|0
2,150,45789,6,0,B|13:86|123:106|134:43,1,170,8|0
212,20,46402,1,0
200,104,46606,2,0,B|216:144|264:160,1,85
268,244,47014,2,0,B|320:252|364:216|368:137|336:96,1,170,0|8
488,32,47830,5,0
418,80,48034,1,0
351,129,48238,1,0
192,32,48646,2,0,B|152:24|152:24|120:96|24:112,1,170,0|8
16,32,49258,2,0,B|96:104|16:200,1,170
43,267,49870,1,0
104,208,50074,2,0,B|152:272|96:336|96:336|136:384|216:376,1,255,0|8
464,360,51095,5,0
512,288,51299,1,0
496,248,51401,1,0
480,208,51503,1,0
416,152,51707,1,0
376,144,51809,1,0
336,136,51911,1,4
208,24,52319,6,0,B|160:16|128:48,1,85,8|0
189,106,52727,1,0
106,129,52932,1,0
48,191,53136,2,0,B|16:223|27:275,1,85
80,336,53544,2,0,B|136:256|248:304,1,170,0|8
308,333,54156,2,0,B|399:366|463:262,1,170,0|8
463,193,54768,1,0
488,112,54972,6,0,B|416:48,1,85
336,56,55381,2,0,B|368:136,1,85,0|8
280,120,55789,2,0,B|176:112,1,85
112,104,56197,1,0
112,104,56401,1,0
32,248,56809,1,0
160,360,57217,1,8
160,360,57421,1,0
296,256,57829,5,0
264,336,58033,1,0
304,344,58136,1,0
344,336,58238,1,0
376,304,58340,1,0
384,264,58442,1,0
472,120,58850,6,0,B|408:208,1,85,8|0
376,112,59258,2,0,B|432:32,1,85
336,40,59666,1,0
256,24,59870,1,0
184,64,60074,1,0
24,112,60483,5,8
16,200,60687,2,0,B|0:248,2,42.5
80,256,61095,2,0,B|104:304,2,42.5
168,248,61503,1,0
168,248,61707,1,0
480,192,62115,5,8
424,128,62319,1,0
368,64,62523,1,0
72,192,62932,5,0
72,192,63136,1,4
32,264,63340,2,0,B|56:296|56:296|136:296|184:344,1,170,0|8
256,360,63952,1,4
336,336,64156,2,0,B|376:295|456:295|456:295|480:263,1,170
256,192,64972,12,2,66197
256,104,66605,6,0,B|280:144|256:192,1,85,4|0
331,223,67013,2,0,B|284:223|254:179,1,85,0|0
190,230,67421,2,0,B|212:189|266:185,1,85,0|0
256,272,67829,1,8
256,360,68034,1,0
256,272,68238,1,0
256,104,68646,1,0
256,16,68850,1,0
256,104,69054,1,0
87,84,69462,6,0,B|39:164,1,85,8|0
24,240,69870,1,0
56,320,70074,2,0,B|80:360|144:368,2,85
128,280,70687,1,0
184,216,70891,1,0
240,280,71095,1,8
256,112,71503,1,0
88,112,71911,1,0
256,112,72319,1,0
336,160,72523,6,0,B|352:144|360:112,2,42.5
296,192,72829,1,0
256,200,72931,1,0
216,192,73033,1,0
184,160,73135,1,0
256,112,73340,5,0
312,48,73544,2,0,B|400:0,1,85
416,88,73952,2,0,B|472:160,1,85
488,240,74360,1,8
456,320,74564,2,0,B|432:360|368:368,2,85
384,280,75177,1,0
328,216,75381,1,0
272,280,75585,1,0
256,112,75993,1,8
104,32,76401,5,0
168,136,76605,1,0
48,136,76809,1,0
408,32,77217,5,0
344,136,77421,1,0
464,136,77625,1,8
464,136,77829,1,0
493,303,78238,2,0,B|449:291|404:326,1,85
328,320,78646,2,0,B|320:376,2,42.5
248,288,79054,5,0
304,224,79258,1,8
264,208,79360,1,0
224,208,79462,1,0
192,232,79564,1,0
164,272,79666,1,4
89,313,79870,6,0,B|40:312|13:280,1,85,0|8
80,232,80278,2,0,B|112:152,1,85
24,144,80687,2,0,B|0:48,1,85,0|8
80,24,81095,5,0
120,16,81197,1,0
160,32,81299,1,4
168,120,81503,2,0,B|176:160|176:160|224:200,1,85,0|8
288,144,81911,2,0,B|328:128|328:128|360:80,1,85
392,16,82319,1,0
392,16,82523,1,8
488,160,82932,5,4
448,240,83136,1,0
392,176,83340,1,8
448,240,83544,5,0
368,256,83748,1,0
416,328,83952,1,0
336,344,84156,2,0,B|304:376|256:376,2,85,8|0|0
264,296,84768,5,0
192,336,84972,1,8
112,352,85176,1,0
112,352,85278,1,0
112,352,85381,1,0
24,344,85585,2,0,B|24:296|72:272,1,85,0|8
16,112,86197,6,0,B|96:152,1,85
16,188,86605,2,0,B|96:148,1,85,8|0
168,160,87013,1,0
256,304,87421,1,8
344,160,87829,5,0
168,160,88238,1,0
256,88,88646,5,0
320,256,88849,1,0
192,256,89054,1,0
496,112,89462,6,0,B|416:152,1,85
496,188,89870,2,0,B|416:148,1,85,8|0
344,160,90278,1,0
256,304,90686,1,8
256,304,91095,5,0
184,256,91299,1,0
152,224,91401,1,0
144,184,91503,1,0
240,176,91707,1,0
272,152,91809,1,0
280,112,91911,1,0
192,96,92115,1,0
120,48,92319,2,0,B|80:24,4,42.5,0|0|0|0|0
256,192,92829,12,4,94360
256,192,95993,5,4
256,192,96809,1,0
256,24,97217,1,0
256,24,97421,1,0
88,56,97829,1,0
24,112,98034,1,8
72,184,98238,1,0
16,248,98442,2,0,B|48:336|152:336,1,170
226,368,99054,6,0,B|298:344|298:344|266:224|394:192,1,255,0|8
480,72,100074,1,0
320,16,100483,1,0
168,96,100891,1,0
216,208,101197,2,0,B|240:160,1,42.5,8|0
280,96,101503,1,0
320,170,101707,2,0,B|344:218,4,42.5,0|0|0|0|8
285,256,102319,5,0
320,278,102421,1,0
362,276,102523,1,4
208,352,102932,2,0,B|104:384|48:304,1,170
11,238,103543,1,0
96,248,103747,2,0,B|128:304|200:280,1,85,8|0
170,202,104157,2,0,B|126:165|92:161|58:178|58:178|18:154,1,170
22,69,104768,5,0
136,32,104973,1,0
224,112,105177,1,0
336,72,105381,1,8
192,264,105789,1,0
360,248,106196,6,0,B|408:240|440:184,1,85
328,264,106606,2,0,B|312:208|368:160,1,85
424,224,107014,2,0,B|456:184|440:136,1,85,8|0
384,88,107422,2,0,B|344:72|304:80|304:80|216:24,1,170
184,104,108034,5,0
109,61,108237,1,0
32,96,108441,1,0
8,128,108543,1,0
0,168,108645,1,8
8,208,108748,1,0
26,246,108850,2,0,B|-6:286,2,42.5,0|0|4
152,352,109462,6,0,B|200:360|200:360|232:328,1,85
392,304,110075,1,0
392,304,110279,1,8
480,160,110687,2,0,B|471:62|350:48,1,170,0|8
288,40,111299,1,0
120,72,111707,1,0
120,72,111911,1,8
72,144,112115,6,0,B|24:224,1,85
16,304,112524,2,0,B|64:296|112:328,1,85
176,360,112932,2,0,B|224:376|280:328,1,85
328,304,113340,1,0
328,304,113544,1,8
456,192,113952,1,0
328,80,114360,1,0
328,80,114564,1,0
160,104,114972,5,0
119,28,115176,1,8
83,52,115279,1,0
67,89,115381,1,0
72,131,115483,1,0
97,166,115585,1,4
0,304,115993,6,0,B|64:216,1,85
96,304,116401,2,0,B|40:384,1,85
136,376,116809,1,8
216,344,117013,1,0
304,344,117217,1,0
448,256,117626,5,0
496,184,117830,2,0,B|512:136,2,42.5
432,128,118238,2,0,B|408:80,2,42.5
344,136,118646,1,0
344,136,118850,1,0
32,192,119258,5,0
88,256,119462,1,0
144,320,119666,1,0
440,192,120075,5,8
440,192,120279,1,4
480,120,120483,2,0,B|456:88|456:88|376:88|328:40,1,170
256,24,121095,1,4
176,48,121299,2,0,B|136:89|56:89|56:89|32:121,1,170,0|8
256,192,122115,12,2,123340
256,280,123748,6,0,B|256:192,1,85,4|0
192,144,124156,2,0,B|160:240,1,85
320,144,124564,2,0,B|352:240,1,85
256,280,124972,1,8
256,368,125177,1,0
256,280,125381,1,0
192,144,125789,2,0,B|220:80|295:80|320:145,1,170
448,368,126605,6,0,B|488:352|504:296,1,85,8|0
440,248,127013,1,0
488,176,127217,2,0,B|456:128|496:72,2,85
400,176,127830,1,0
400,88,128034,1,0
440,16,128238,1,8
288,88,128646,1,0
288,88,129054,1,8
216,240,129462,5,0
216,240,129666,1,0
293,201,129870,1,8
305,245,129972,1,0
292,284,130074,1,0
265,314,130176,1,0
221,326,130278,1,0
136,328,130483,5,0
64,368,130687,2,0,B|24:360|24:360|0:312,1,85
72,272,131095,2,0,B|88:184,1,85
16,140,131503,1,8
56,64,131707,2,0,B|80:24|144:16,2,85
136,104,132320,1,0
216,64,132524,1,0
304,64,132728,1,0
256,224,133136,1,8
408,352,133544,5,0
464,248,133748,1,0
344,248,133952,1,0
104,32,134360,5,0
48,136,134564,1,0
168,136,134768,1,8
48,136,134972,1,0
17,303,135381,2,0,B|25:348|88:363,1,85
144,312,135789,1,0
224,344,135993,2,0,B|192:384,2,42.5
308,355,136401,5,8
318,313,136503,1,0
309,274,136605,1,0
279,248,136707,1,0
238,234,136809,1,4
224,152,137013,2,0,B|280:144|312:192,1,85,0|8
368,224,137421,2,0,B|392:176|368:128,1,85
408,64,137830,2,0,B|472:128,1,85,0|8
496,200,138238,5,0
504,240,138340,1,0
512,280,138442,1,4
448,336,138646,2,0,B|360:320,1,85,0|8
280,312,139054,2,0,B|208:368,1,85
128,360,139462,1,0
128,360,139666,1,8
24,224,140075,5,4
64,144,140279,1,0
120,208,140483,1,8
64,144,140687,5,0
144,128,140891,1,4
96,56,141095,1,0
176,40,141299,2,0,B|215:9|264:32,2,85,8|0|0
228,106,141911,5,0
312,120,142115,1,8
337,38,142319,1,0
416,8,142524,1,0
456,20,142625,1,0
494,39,142728,2,0,B|494:87|446:111,1,85,0|8
496,272,143340,6,0,B|416:232,1,85
496,196,143748,2,0,B|416:236,1,85,8|0
344,224,144156,1,0
256,80,144564,1,8
168,224,144972,5,0
344,224,145381,1,0
256,296,145789,5,0
320,128,145992,1,0
192,128,146197,1,0
16,272,146605,6,0,B|96:232,1,85
16,196,147013,2,0,B|96:236,1,85,8|0
168,224,147421,1,0
200,144,147625,1,0
256,80,147829,1,8
256,80,148238,5,0
344,80,148442,2,0,B|392:56,2,42.5
352,168,148850,1,0
352,256,149054,2,0,B|312:239,2,42.5,0|0|8
352,168,149462,1,0
432,200,149666,1,0
256,192,149870,12,4,151503
256,256,151911,6,0,B|280:208|280:208|256:168,1,85,0|8
179,184,152319,2,0,B|171:130|205:96|249:75|308:103,1,170,0|8
353,151,152932,1,0
363,235,153136,1,4
