osu file format v9

[General]
AudioFilename: go_for_it.mp3
AudioLeadIn: 0
PreviewTime: 66503
Countdown: 0
SampleSet: Normal
StackLeniency: 0.7
Mode: 0
LetterboxInBreaks: 0

[Editor]
Bookmarks: 49258,54054
DistanceSpacing: 1
BeatDivisor: 4
GridSize: 4

[Metadata]
Title:GO FOR IT!!
Artist:Nishino Kana
Creator:IchiGUN
Version:BCInsane
Source:
Tags:-Bakari- kosiga Black_Cherry_Ita BCI

[Difficulty]
HPDrainRate:7
CircleSize:4
OverallDifficulty:7
ApproachRate:8
SliderMultiplier:1.8
SliderTickRate:2

[Events]
//Background and Video events
0,0,"BG.jpg"
//Break Periods
2,9662,25039
2,92927,95243
//Storyboard Layer 0 (Background)
//Storyboard Layer 1 (Fail)
//Storyboard Layer 2 (Pass)
//Storyboard Layer 3 (Foreground)
Sprite,Foreground,Centre,"SB\bci.png",320,240 M,0,15789,15993,515,430 F,0,15789,15993,0,1 M,0,15789,25789,515,430,495,430 F,0,15993,22523,1 F,0,22523,25789,1,0
//Storyboard Sound Samples
//Background Colour Transformations
3,100,163,162,255

[TimingPoints]
1299,408.163265306122,4,1,1,80,1,0
25891,-100,4,1,1,60,0,0
26095,-100,4,1,1,50,0,0
26299,-100,4,1,1,30,0,0
26503,-100,4,1,1,60,0,0
26707,-100,4,1,1,80,0,0
66605,-100,4,1,1,80,0,1
92727,-100,4,1,1,80,0,0
99156,-100,4,2,1,50,0,0
102523,-100,4,1,1,80,0,0
123747,-100,4,1,1,80,0,1
149870,-100,4,1,1,80,0,0

[Colours]
Combo1 : 215,77,187
Combo2 : 138,255,21
Combo3 : 226,226,7

[HitObjects]
292,104,7829,2,0,B|244:112|212:152|212:216|252:256,1,180,8|8
341,291,8442,2,0,B|320:246|269:227|212:242|183:291,1,180,0|8
89,241,9054,1,8
101,222,9156,1,0
116,205,9258,1,0
133,190,9360,1,0
151,176,9462,5,4
256,128,25789,5,4
208,272,25993,1,0
336,192,26197,1,8
176,192,26401,1,0
304,272,26605,1,0
400,244,26809,1,0
405,231,26911,1,0
408,220,27013,6,0,B|428:172|368:84|288:136,1,180,8|0
336,192,27625,2,0,B|280:216|224:188|216:128|236:92,1,180,0|0
160,44,28238,2,0,B|140:88|144:136,1,90,0|0
52,132,28646,1,8
56,163,28748,1,0
70,190,28850,1,0
94,211,28952,1,0
124,216,29054,6,0,B|180:216|180:216|216:252|216:304|196:344,1,180,0|8
116,300,29666,1,0
276,344,29870,2,0,B|324:348|364:328,1,90
392,312,30176,1,0
412,288,30278,2,0,B|424:240|416:192,1,90,8|0
400,172,30585,1,0
376,152,30687,6,0,B|300:128|300:128|200:152,1,180,0|8
68,64,31299,2,0,B|165:87|165:87|248:68,1,180,0|0
320,52,31911,1,8
349,62,32013,1,0
379,73,32115,1,0
408,83,32217,1,0
436,96,32319,6,0,B|472:120|460:200|408:216|408:216|408:260,1,180,0|8
380,148,32932,2,0,B|348:160|336:192|336:192|336:220,1,90
316,244,33238,1,0
292,264,33340,2,0,B|184:264,1,90,0|8
148,192,33748,1,0
156,180,33850,1,0
164,172,33952,6,0,B|268:172,1,90
288,88,34360,2,0,B|188:88,1,90,8|0
364,60,34768,2,0,B|384:104|364:168|308:184|260:168,1,180,0|8
288,88,35381,1,0
440,108,35585,6,0,B|440:160|396:204,1,90
448,284,35993,2,0,B|488:252|504:200,1,90,8|0
440,108,36401,1,0
364,60,36605,2,0,B|332:100|352:196|440:200,1,180,0|8
440,108,37217,6,0,B|392:104|320:168|360:248,1,180,0|8
427,198,37829,1,0
288,136,38034,1,0
276,165,38136,1,0
271,196,38238,1,0
272,227,38340,1,0
280,258,38442,1,8
427,198,38646,1,0
252,64,38850,6,0,B|216:88|204:144,1,90,4|0
128,92,39258,2,0,B|112:140|136:192,1,90,8|0
40,184,39666,2,0,B|52:236|88:272|140:280|192:248,1,180,0|8
132,180,40278,2,0,B|188:152|244:168|268:228|260:272,1,180
176,256,40891,5,8
344,224,41095,2,0,B|336:180|300:140,1,90
349,66,41503,2,0,B|387:99|405:143,1,90,0|8
484,100,41911,2,0,B|501:157|460:204,1,90
443,270,42319,5,0
443,270,42421,1,0
443,270,42523,2,0,B|403:310|339:298,1,90,8|0
304,230,42932,2,0,B|272:258|260:318|288:370|336:382,1,180,0|8
361,301,43544,1,0
212,184,43748,6,0,B|176:220|172:284,1,90
92,224,44156,2,0,B|76:268|96:316,2,90,8|0|0
132,144,44768,1,0
64,84,44972,1,8
89,66,45074,1,0
120,58,45176,1,0
151,58,45278,1,0
180,68,45381,6,0,B|240:68|240:68|272:96|328:96|364:68,1,180,0|8
368,148,45993,2,0,B|324:168|272:168|232:148|232:148|204:180,1,180,0|0
120,200,46605,2,0,B|128:252|188:280|236:256|236:256|288:256,1,180,8|0
236,340,47217,5,0
236,340,47319,1,0
236,340,47421,2,0,B|348:340,1,90,8|0
372,264,47829,2,0,B|272:264,1,90,0|0
420,328,48238,2,0,B|456:300|456:236|416:192,1,135,8|0
426,205,48646,6,0,B|408:160|424:112,1,90
512,100,49054,2,0,B|332:100,1,180,8|0
348,12,49666,1,0
296,184,49870,1,8
224,128,50074,1,0
224,128,50176,1,0
224,128,50278,6,0,B|172:132|128:172|128:236|160:280,1,180,0|8
224,212,50891,2,0,B|168:168|88:180|68:264,1,180
16,176,51503,1,8
36,151,51605,1,0
60,132,51707,1,0
88,116,51809,1,0
117,106,51911,6,0,B|172:96|216:112,1,90,4|0
336,232,52319,2,0,B|280:240|232:220,1,90,8|0
368,160,52727,2,0,B|408:180|432:232|412:296|348:308,1,180,0|8
336,232,53340,1,0
464,152,53544,6,0,B|483:188|491:232|489:281|453:329,1,180,0|8
336,232,54156,1,0
264,176,54360,2,0,B|236:216|252:264,1,90
168,296,54768,1,8
163,264,54870,1,0
162,233,54972,1,0
167,202,55074,1,0
176,172,55176,6,0,B|184:128|225:87,1,90
336,232,55585,2,0,B|320:280|276:312,1,90,8|0
204,272,55993,2,0,B|240:192|304:116,1,180,0|8
236,60,56605,1,0
384,164,56809,6,0,B|424:144|476:164|500:216|476:276,1,180,0|8
408,232,57421,1,0
372,304,57625,2,0,B|332:276|324:232,1,90
304,351,58034,1,8
282,329,58136,1,0
265,303,58238,1,0
252,274,58340,1,0
244,244,58442,6,0,B|208:215|208:215|160:200|132:144|152:104,1,180,0|8
240,124,59054,1,0
240,124,59156,1,0
240,124,59258,2,0,B|112:248,2,180,0|8|0
288,48,60278,1,0
288,48,60381,1,0
288,48,60483,6,0,B|340:80|344:128|332:184|272:200,1,180,8|0
360,248,61095,2,0,B|320:276|268:276,1,90,0|8
280,364,61503,2,0,B|220:360|192:308,1,90
132,268,61911,5,0
116,240,62013,1,0
116,208,62115,2,0,B|144:176|144:176|160:128,1,90,8|0
188,116,62421,1,0
216,124,62523,2,0,B|228:176|228:176|272:212,1,90
192,236,62932,2,0,B|216:288|316:296|332:208,1,180,8|0
416,240,63544,6,0,B|400:292|360:320,1,90,0|8
260,196,63952,1,0
316,136,64156,1,0
290,118,64258,1,0
259,113,64360,1,0
227,118,64462,1,0
201,136,64564,1,8
260,196,64768,1,0
256,192,64972,12,8,66197
256,192,66605,6,0,B|168:168|64:192,1,180,4|8
60,100,67217,1,0
72,264,67421,1,0
69,295,67523,1,0
82,323,67625,1,0
105,344,67727,1,0
134,354,67829,1,8
156,268,68034,1,0
196,188,68238,6,0,B|236:212|248:276|216:320,1,135
223,308,68646,2,0,B|320:308,1,90,8|0
420,232,69054,1,0
388,232,69156,1,0
357,232,69258,1,0
325,232,69360,1,0
294,232,69462,1,8
316,144,69666,1,0
224,308,69870,6,0,B|192:276|188:212|220:184,1,135
219,185,70278,2,0,B|207:141|215:97|255:69|295:73,1,135,8|0
308,48,70687,1,0
316,144,70891,1,0
316,144,70993,1,0
316,144,71095,1,8
396,188,71299,1,0
396,188,71401,1,0
396,188,71503,6,0,B|432:244|400:332,1,135
360,324,71911,2,0,B|312:344|256:324,1,90,8|0
308,256,72319,1,0
277,249,72421,1,0
204,284,72625,1,0
185,308,72727,1,8
272,328,72932,1,0
300,168,73136,6,0,B|264:164|208:164|160:204|136:248,1,180,0|8
184,308,73748,1,0
96,160,73952,2,0,B|60:120|60:72|88:36|88:36|140:36,1,180,0|8
200,96,74564,1,0
288,100,74768,6,0,B|328:128|384:128|440:92,1,135
432,132,75176,2,0,B|452:208|380:280,1,135,8|0
372,280,75585,2,0,B|280:260|196:316,1,180,0|8
248,376,76197,1,0
156,244,76401,6,0,B|136:204|140:152,1,90
220,120,76809,2,0,B|236:164|232:228,1,90,8|0
140,156,77217,2,0,B|92:176|36:152|20:96|24:56,1,180,0|8
112,80,77829,1,0
112,80,77932,1,0
112,80,78034,6,0,B|176:72|220:112|220:168,1,135
217,143,78442,2,0,B|264:164|316:144,1,90,8|0
360,204,78850,1,0
331,217,78952,1,0
301,225,79054,1,0
269,228,79156,1,0
238,226,79258,1,8
216,144,79462,1,0
236,308,79666,6,0,B|188:312|148:268|152:220|152:220|96:220,1,180,0|8
238,226,80278,1,0
216,144,80483,2,0,B|128:144,1,90
244,64,80891,2,0,B|148:64,1,90,8|0
316,24,81299,6,0,B|336:64|324:112|276:140,1,135
277,139,81707,2,0,B|256:188|280:240,1,90,8|0
193,228,82115,2,0,B|176:188|192:140,1,90,0|0
344,184,82523,1,8
344,184,82727,1,0
116,108,82932,6,0,B|96:160|96:220|112:272|136:308,1,180,4|8
68,356,83544,1,0
200,256,83748,2,0,B|224:228|288:212|336:228|368:256,1,180,4|8
396,340,84360,1,0
408,172,84564,6,0,B|376:136|392:80,1,90
480,76,84972,2,0,B|296:80,1,180,8|0
244,20,85585,1,0
296,156,85789,2,0,B|248:168|224:220|236:276,1,135,8|0
248,288,86197,6,0,B|160:272|160:272|56:288,1,180,0|8
160,356,86809,2,0,B|64:368,1,90
44,208,87217,2,0,B|136:196,2,90,0|8|0
36,120,87829,5,0
256,76,88238,1,8
468,120,88646,1,0
412,192,88850,1,0
468,264,89054,1,8
296,320,89462,6,0,B|240:336|152:320|120:272,1,180,0|8
48,320,90074,1,0
160,204,90278,2,0,B|200:232|244:236|244:236|252:180|304:164,1,180,0|8
328,240,90891,1,0
256,192,91095,12,4,92727
256,84,95993,6,0,B|168:112,1,90
256,292,96401,2,0,B|352:260,1,90,8|0
344,160,96809,2,0,B|156:224,1,180,0|8
120,144,97421,6,0,B|296:84,1,180
344,160,98034,2,0,B|392:176|448:160,1,90,8|0
456,252,98442,2,0,B|408:264|352:248,1,90
284,216,98850,2,0,B|216:200|132:220,1,135,8|0
144,184,99258,5,0
32,280,99462,1,0
72,144,99666,1,8
132,272,99870,1,0
0,200,100074,1,0
76,216,100278,1,0
328,184,100483,5,8
440,280,100687,1,0
400,144,100891,1,0
340,272,101095,1,0
472,200,101299,1,8
396,216,101503,1,0
300,112,101707,6,0,B|252:128|240:188|256:228|272:240,1,135
236,236,102115,1,8
205,243,102217,1,0
174,243,102319,1,0
144,235,102421,1,0
114,226,102523,6,0,B|62:238|62:238|14:226|-8:164|8:128,1,180,0|8
96,148,103136,1,0
124,64,103340,2,0,B|172:64|204:124|188:172,1,135
190,162,103748,2,0,B|280:164,1,90,8|0
328,88,104156,6,0,B|376:124|380:176|364:224|308:240,1,180,0|8
396,284,104768,2,0,B|348:328|296:328|256:300|240:248,1,180
204,344,105381,1,8
180,323,105483,1,0
166,294,105585,1,0
163,263,105687,1,0
168,232,105789,6,0,B|60:232|60:232|4:160,1,180,0|8
104,156,106401,2,0,B|212:156|212:156|268:228,1,180
344,192,107013,2,0,B|284:112,1,90,8|0
168,232,107421,6,0,B|184:276|224:308|280:304|316:276,1,180,0|8
356,360,108034,2,0,B|408:332|420:276|400:228|372:196,1,180
456,172,108646,1,8
436,147,108748,1,0
410,130,108850,1,0
379,123,108952,1,0
348,126,109054,6,0,B|252:100|252:100|152:100,1,180,0|8
96,48,109666,1,0
96,48,109768,1,0
96,48,109870,2,0,B|76:100|88:144|128:172|128:172|92:200,1,180,0|8
32,260,110483,1,0
32,260,110585,1,0
32,260,110687,6,0,B|64:292|120:288|152:256|152:256|176:272|200:264,1,180,0|8
164,348,111299,2,0,B|208:360|256:336,1,90
176,172,111707,2,0,B|124:164|76:196,1,90,0|8
256,136,112115,1,0
252,48,112319,6,0,B|304:36|348:80|356:132|328:180,1,180,0|8
420,136,112932,2,0,B|420:192|392:232,1,90
488,228,113340,2,0,B|472:280|416:312,1,90,0|8
256,136,113748,5,0
168,156,113952,2,0,B|132:212|132:212|120:244|156:296|212:272,1,180,0|8
280,236,114564,2,0,B|308:272|288:316|288:316|340:312|372:356,1,180
404,272,115176,1,8
429,290,115278,1,0
454,297,115380,1,0
469,270,115482,1,0
474,240,115585,6,0,B|452:160|452:160|476:56,1,180,0|8
384,56,116197,2,0,B|352:168,1,90
256,248,116605,2,0,B|288:136,1,90,0|8
384,56,117013,1,0
288,320,117217,6,0,B|236:336|184:312|168:260|184:208,1,180,0|8
256,248,117829,2,0,B|252:176|252:176|224:144|184:136|136:156,1,180
108,72,118442,1,8
138,65,118544,1,0
170,61,118646,1,0
201,60,118748,1,0
232,63,118850,6,0,B|340:64,1,90
476,116,119258,2,0,B|364:116,1,90,8|0
232,172,119666,2,0,B|340:173,1,90
476,225,120074,2,0,B|364:225,1,90,8|0
360,328,120483,6,0,B|328:324|300:292|296:260|296:260|216:260,1,180,0|8
232,172,121095,1,0
248,344,121299,2,0,B|196:368|144:352|112:296|124:240,1,180,0|8
232,172,121911,1,0
256,192,122115,12,8,123340
256,192,123748,22,0,B|76:192,1,180,0|8
40,108,124360,1,0
108,276,124564,1,0
139,276,124666,1,0
171,276,124768,1,0
202,276,124870,1,0
234,276,124972,1,8
256,192,125176,1,0
344,216,125381,22,0,B|380:252|380:308|344:360|296:352,1,180,0|8
276,268,125993,1,0
404,160,126197,1,0
428,140,126299,1,0
442,112,126401,1,0
446,81,126503,1,0
441,50,126605,1,8
360,84,126809,1,0
272,68,127013,22,0,B|184:60|184:60|124:80|116:140,1,180,0|8
128,208,127625,1,0
128,208,127727,1,0
128,208,127829,2,0,B|160:208|192:180|208:144|208:144|280:152,1,180,0|8
360,84,128442,1,0
256,232,128646,22,0,B|224:272|176:292,1,90
160,304,128952,1,0
132,292,129054,2,0,B|80:272|52:224,1,90,8|0
100,168,129462,1,0
126,192,129564,1,0
156,211,129666,1,0
187,192,129768,1,0
214,168,129870,1,8
158,97,130074,1,0
256,232,130278,6,0,B|296:200|280:144|280:144|328:152|368:132,1,180,0|8
312,60,130891,1,0
424,188,131095,2,0,B|388:216|352:220|352:220|344:272|288:308,1,180,0|8
256,232,131707,1,0
256,232,131809,1,0
256,232,131911,6,0,B|208:256|204:312|220:364|272:376,1,180,0|8
296,300,132523,1,0
212,160,132727,2,0,B|176:188|152:240,1,90
72,200,133136,2,0,B|104:152|140:120,1,90,8|0
148,108,133442,1,0
172,88,133544,6,0,B|192:60|232:48|232:48|344:48,1,180,0|8
420,88,134156,1,0
356,152,134360,1,0
440,188,134564,1,0
440,188,134666,1,0
440,188,134768,1,8
376,248,134972,1,0
376,248,135074,1,0
376,248,135176,6,0,B|308:248|308:248|256:264|256:264|200:264,1,180,0|8
244,188,135789,2,0,B|196:188|196:188|148:192|128:236,1,135
108,260,136197,2,0,B|64:248|16:260,1,90,0|8
0,184,136605,1,0
0,184,136707,1,0
0,184,136809,6,0,B|96:164|188:204,1,180,0|8
240,136,137421,2,0,B|196:112|128:104,1,90
180,20,137829,2,0,B|228:32|272:56,1,90,0|8
352,76,138238,1,0
352,76,138340,1,0
352,76,138442,6,0,B|388:112|392:168|360:216|312:224,2,180,0|8|0
288,136,139462,2,0,B|244:144|228:200,1,90,0|8
148,160,139870,1,0
148,160,139972,1,0
148,160,140074,6,0,B|168:112|224:72,1,90,0|0
124,40,140483,2,0,B|80:76|64:136,1,90,8|0
148,160,140891,2,0,B|116:204|64:208|28:184|28:184|0:224,1,180,0|8
4,312,141503,2,0,B|44:312|64:276|64:276|124:276|184:240,1,180
232,312,142115,6,0,B|176:340|132:352,1,90,8|0
278,376,142523,1,0
299,353,142625,1,0
308,323,142727,1,0
305,292,142829,1,0
290,264,142931,1,8
232,312,143136,1,0
176,244,143340,6,0,B|104:72,1,180,0|8
24,112,143952,1,0
196,56,144156,2,0,B|200:116|252:140|308:116|308:56,1,180,0|8
396,80,144768,1,0
396,80,144870,1,0
396,80,144972,5,0
260,320,145381,1,8
120,76,145789,1,0
68,148,145993,1,0
156,160,146197,1,8
104,232,146401,1,0
104,232,146503,1,0
104,232,146605,6,0,B|160:256|204:232|204:232|248:204|288:220,1,180,0|8
260,304,147217,1,0
248,136,147421,2,0,B|300:136|348:168,1,90
360,176,147727,1,0
384,200,147829,2,0,B|424:224|432:288|388:328,1,135,8|0
420,340,148238,6,0,B|224:340,1,180,0|8
188,268,148850,2,0,B|300:268|300:268|324:232|308:184,1,180
272,124,149462,1,8
272,124,149564,1,0
272,124,149666,1,0
213,191,149870,1,4
256,192,149972,12,4,151503
256,84,151911,6,0,B|344:112,1,90,0|8
256,292,152319,2,0,B|160:260,1,90,0|0
168,160,152727,2,0,B|356:224,1,180,8|4
