osu file format v12

[General]
AudioFilename: 03. Day 7.mp3
AudioLeadIn: 0
PreviewTime: 71840
Countdown: 0
SampleSet: Soft
StackLeniency: 0.7
Mode: 0
LetterboxInBreaks: 0

[Editor]
Bookmarks: 71840,96778,168778,200278
DistanceSpacing: 1
BeatDivisor: 4
GridSize: 4

[Metadata]
Title:Day 7
TitleUnicode:Day 7
Artist:Nishino Kana
ArtistUnicode:Nishino Kana
Creator:yanlu
Version:Collab
Source:
Tags:Love Place yuca CXu
BeatmapID:251475
BeatmapSetID:93138

[Difficulty]
HPDrainRate:7
CircleSize:4
OverallDifficulty:7
ApproachRate:8
SliderMultiplier:1.5
SliderTickRate:2

[Events]
//Background and Video events
0,0,"54321.jpg",0,0
//Break Periods
2,200278,211528
//Storyboard Layer 0 (Background)
//Storyboard Layer 1 (Fail)
//Storyboard Layer 2 (Pass)
//Storyboard Layer 3 (Foreground)
Sprite,Foreground,Centre,"Flash.jpg",320,240 S,0,28,,1.8 F,2,28,11278,1,0
Sprite,Foreground,Centre,"lyrics sb\a1.3.png",320,240 F,0,778,1153,0,1 M,0,778,6778,208,235,200,211 S,0,1153,,0.9 R,0,1153,,-0.04954834 F,0,1153,4153,1 F,2,4153,6778,1,0
Sprite,Foreground,Centre,"lyrics sb\a2.png",320,240 F,0,4153,4528,0,1 M,0,4153,8278,418,340,414,323 S,0,4528,,0.9 R,0,4528,,0.03303223 F,0,4528,6778,1 F,2,6778,8278,1,0
Sprite,Foreground,Centre,"lyrics sb\a1.3.png",320,240 F,0,7153,7528,0,1 M,0,7153,10903,197,235,199,214 S,0,7528,,0.9 F,0,7528,9778,1 R,0,7528,9778,-0.06606445,-0.03303223 F,0,9778,10903,1,0
Sprite,Foreground,Centre,"lyrics sb\a4.png",320,240 M,0,9778,,316,323,320,323 F,0,9778,9965,0,1 M,0,9778,11278,320,323,322,314 S,0,9965,10153,0.9,1.1 F,0,9965,11278,1 R,0,11184,11278,0,0.06606507 F,0,11278,11840,1,0
Sprite,Foreground,Centre,"lyrics sb\kiai~.png",320,240 S,0,11840,,0.8018064 M,0,11840,12028,252,287,246,254 M,0,12028,14840,246,254,246,256 M,0,14840,15028,246,256,245,192 M,0,15028,17840,245,192,245,193 M,0,17840,18028,245,193,259,122 M,0,18028,21215,259,122,259,123 M,0,21215,21403,259,123,272,62 M,0,21403,23840,272,62,271,64 F,0,23840,,0.9380645
Sprite,Foreground,Centre,"lyrics sb\kiai~.png",320,240 F,0,23840,24215,0,1 M,0,24028,26840,33,24 S,0,24028,26840,0.6861933 F,0,24215,35278,1 M,0,26840,27028,33,24,30,72 S,0,26840,27028,0.6861933,0.7027094 M,0,27028,30590,30,72,30,70 S,0,27028,30590,0.7027094 M,0,30590,30778,30,70,-15,127 S,0,30590,30778,0.7027094,0.8183223 M,0,30778,33028,-15,127,-14,127 M,0,33028,33215,-14,127,-34,186 M,0,33215,35278,-34,186 F,0,35278,36215,1,0
Sprite,Foreground,Centre,"lyrics sb\day1.2.3.png",320,240 F,0,36215,36590,0,1 S,0,36403,,0.7935483 M,0,36403,37528,302,277 F,0,36590,40153,1 M,0,37528,37715,302,277,276,240 M,0,37715,40153,276,240,277,241 F,0,40153,40340,1,0 M,0,40153,40528,277,241,35,252 F,0,40340,40528,0,1 F,0,40528,42215,1 M,0,40528,42403,35,252 F,1,42215,42403,1,0 F,0,42403,42496,0,1 M,0,42403,42590,35,252,301,184 F,0,42496,46153,1 M,0,42590,43528,301,184,298,184 M,0,43528,43715,298,184,280,140 M,0,43715,46153,280,140,271,141 F,0,46153,46340,1,0 M,0,46153,46528,271,141,36,159 F,0,46340,46528,0,1 M,0,46528,48403,36,159,26,160 F,0,46528,52528,1 M,0,48403,48590,26,160,309,91 M,0,48590,49528,309,91,299,92 M,0,49528,49715,299,92,245,54 M,0,49715,52528,245,54,247,54 F,0,52528,52715,1,0 M,0,52528,52903,247,54,38,64 F,0,52715,52903,0,1 M,0,52903,54403,38,64,38,63 F,0,52903,60028,1 M,0,54403,54590,38,63,286,-25 M,0,54590,57403,286,-25,276,-22 M,0,57403,57590,276,-22,73,-8 M,0,57590,60403,73,-8,61,-4 F,0,60028,60403,1,0
Sprite,Foreground,Centre,"lyrics sb\b1.png",320,240 S,0,60778,,0.710968 F,0,60778,61153,0,1 M,0,60778,66403,133,116,129,125 F,0,61153,66028,1 F,0,66028,66403,1,0
Sprite,Foreground,Centre,"lyrics sb\b2.png",320,240 S,0,66590,,0.7770323 F,0,66590,66965,0,1 M,0,66590,71278,142,128,135,123 F,0,66965,70528,1 F,0,70528,71278,1,0
Sprite,Foreground,Centre,"lyrics sb\kiai~.png",320,240 F,0,71840,72028,0,1 M,0,71840,74840,236,247 S,0,71840,83840,0.7605162 F,0,72028,83840,1 M,0,74840,75028,236,247,233,190 M,0,75028,77840,233,190,233,191 M,0,77840,78028,233,191,251,128 M,0,78028,81215,251,128,250,130 M,0,81215,81403,250,130,272,71 M,0,81403,83840,272,71,271,74 F,0,83840,83934,1,0 M,0,83840,84028,271,74,34,19 S,0,83840,84028,0.7605162,0.6614195 F,0,83934,84028,0,1 M,0,84028,86840,34,19,43,21 S,0,84028,86840,0.6614195 F,0,84028,95278,1 M,0,86840,87028,43,21,43,74 S,0,86840,87028,0.6614195,0.6944517 M,0,87028,90590,43,74,43,73 S,0,87028,90590,0.6944517 M,0,90590,90778,43,73,1,126 S,0,90590,90778,0.6944517,0.7687743 M,0,90778,93028,1,126,3,124 M,0,93028,93215,3,124,-20,184 M,0,93215,96028,-20,184,-20,182 F,0,95278,96403,1,0
Sprite,Foreground,Centre,"cg.png",320,240 M,0,11278,96778,317,240,316,240 S,0,96778,,0.8018066
Sprite,Foreground,Centre,"lyrics sb\day4.5.6.png",320,240 F,0,108215,108590,0,1 M,0,108403,109340,295,266 S,0,108403,126215,0.8018064,0.7852901 F,0,108590,130715,1 M,0,109340,109528,295,266,240,226 M,0,109528,112528,240,226,244,229 M,0,112528,112715,244,229,-15,241 M,0,112715,114590,-15,241,-13,241 M,0,114590,114778,-13,241,291,168 M,0,114778,115528,291,168,288,169 M,0,115528,115715,288,169,253,128 M,0,115715,117965,253,128,255,130 M,0,117965,118153,255,130,46,140 M,0,118153,120215,46,140 M,0,120215,120403,46,140,286,74 M,0,120403,121528,286,74,285,75 M,0,121528,121715,285,75,232,37 M,0,121715,124340,232,37,231,39 M,0,124340,124528,231,39,-21,53 M,0,124528,126215,-21,53,-15,52 M,0,126215,126403,-15,52,207,-1 S,0,126215,126403,0.7852901,0.7357419 M,0,126403,131278,207,-1 F,0,130715,132028,1,0
Sprite,Foreground,Centre,"lyrics sb\c1.png",320,240 S,0,132778,,0.6944517 F,0,132778,133153,0,1 M,0,132778,138028,128,120,131,124 F,0,133153,137278,1 F,0,137278,138215,1,0
Sprite,Foreground,Centre,"lyrics sb\c2.png",320,240 S,0,138590,,0.7687743 F,0,138590,138871,0,1 M,0,138590,143278,137,125,138,121 F,0,138871,142528,1 F,0,142528,143278,1,0
Sprite,Foreground,Centre,"lyrics sb\kiai~3.png",320,240 F,0,143840,144215,0,1 M,0,143840,146840,227,241 S,0,143840,158840,0.7687741 F,0,144215,167278,1 M,0,146840,147028,227,241,221,197 M,0,147028,149840,221,197,222,200 M,0,149840,150028,222,200,263,146 M,0,150028,153215,263,146,258,147 M,0,153215,153403,258,147,265,96 M,0,153403,155840,265,96,264,99 M,0,155840,156028,264,99,43,140 M,0,156028,158840,43,140,52,140 M,0,158840,159028,52,140,24,94 S,0,158840,159028,0.7687741,0.7192256 M,0,159028,162590,24,94,26,96 S,0,159028,162590,0.7192256 M,0,162590,162778,26,96,52,50 S,0,162590,162778,0.7192256,0.7439998 M,0,162778,165215,52,50,51,51 M,0,165215,165403,51,51,52,4 M,0,165403,168028,52,4,52,5 F,0,167278,168028,1,0
Sprite,Foreground,Centre,"lyrics sb\d1.png",320,240 S,0,168403,,0.8265805 F,0,168403,168778,0,1 M,0,168403,171215,282,211 F,0,168778,180215,1 M,0,171215,171403,282,211,275,161 M,0,171403,174590,275,161,275,162 M,0,174590,174778,275,162,259,114 M,0,174778,177590,259,114 M,0,177590,177778,259,114,30,130 M,0,177778,180403,30,130,30,131 F,0,180215,180590,1,0
Sprite,Foreground,Centre,"lyrics sb\d2.png",320,240 F,0,180778,181153,0,1 S,0,180965,,0.8348387 M,0,180965,182278,225,274,229,274 F,0,181153,182278,1 M,0,182278,182465,229,274 F,0,182278,182465,1,0 M,0,182465,182653,229,274,247,225 F,0,182465,182653,0,1 M,0,182653,183778,247,225,249,224 F,0,182653,183778,1 M,0,183778,183965,249,224 F,0,183778,183965,1,0 M,0,183965,184153,249,224,244,174 F,0,183965,184153,0,1 M,0,184153,185090,244,174,245,174 F,0,184153,197653,1 M,0,185090,185278,245,174,249,123 M,0,185278,186778,249,123 M,0,186778,186965,249,123,225,76 M,0,186965,188465,225,76,226,79 M,0,188465,188653,226,79,223,23 M,0,188653,192403,223,23,228,24 M,0,192403,192590,228,24,236,-28 M,0,192590,195403,236,-28,243,-26 M,0,195403,195590,243,-26,34,-15 M,0,195590,198778,34,-15,27,-12 F,0,197653,198778,1,0
Sprite,Foreground,Centre,"cg.png",320,240 F,0,107278,108403,0,1 F,0,108403,199153,1 M,0,108778,,316,239 S,0,199153,,0.8018066 F,0,199153,200278,1,0
Sprite,Foreground,Centre,"Flash.jpg",320,240 S,0,143184,,1.8 F,0,143184,143278,0,1 F,0,143278,144778,1,0
Sprite,Foreground,Centre,"Flash.jpg",320,240 S,0,206278,,1.8 F,0,206278,210778,0,0.2642581 F,2,210778,212278,0.2642581,1 F,2,212278,212746,1,0
Sprite,Foreground,Centre,"lyrics sb\last kiai~1.png",320,240 F,0,223246,223528,0,1 M,0,223246,226340,229,235 S,0,223246,235340,0.735742 F,0,223528,246778,1 M,0,226340,226528,229,235,228,192 M,0,226528,229340,228,192,228,194 M,0,229340,229528,228,194,248,148 M,0,229528,232715,248,148,248,150 M,0,232715,232903,248,150,280,105 M,0,232903,235340,280,105,279,107 M,0,235340,235528,279,107,35,132 S,0,235340,235528,0.735742,0.6861935 M,0,235528,238340,35,132,35,133 S,0,235528,238340,0.6861935 M,0,238340,238528,35,133,46,89 S,0,238340,238528,0.6861935,0.6944516 M,0,238528,242090,46,89,45,92 S,0,238528,242090,0.6944516 M,0,242090,242278,45,92,73,39 S,0,242090,242278,0.6944516,0.7192258 M,0,242278,244715,73,39,71,42 M,0,244715,244903,71,42,72,-5 M,0,244903,246778,72,-5,73,-4 F,0,246778,247246,1,0
Sprite,Foreground,Centre,"lyrics sb\last kiai~2.png",320,240 F,0,247340,247528,0,1 M,0,247340,250340,242,240 S,0,247340,262153,0.7522581 F,0,247528,270778,1 M,0,250340,250528,242,240,234,195 M,0,250528,253340,234,195 M,0,253340,253528,234,195,271,148 M,0,253528,256715,271,148,269,151 M,0,256715,256903,269,151,294,102 M,0,256903,259340,294,102 M,0,259340,259528,294,102,63,135 M,0,259528,262153,63,135,66,132 M,0,262153,262340,66,132,38,91 S,0,262153,262340,0.7522581,0.7109677 M,0,262340,266090,38,91,41,93 S,0,262340,266090,0.7109677 M,0,266090,266278,41,93,60,41 S,0,266090,266278,0.7109677,0.744 M,0,266278,268715,60,41,60,43 M,0,268715,268903,60,43,65,-2 M,0,268903,271903,65,-2,69,0 F,2,270778,271903,1,0
Sprite,Foreground,Centre,"cg.png",320,240 F,0,220903,221653,0,1 S,0,221653,,0.8018066 F,0,221653,271528,1 M,0,223528,,316,238 F,2,271528,272278,1,0
Sprite,Foreground,Centre,"Flash.jpg",320,240 S,0,271528,,1.8 F,0,271528,272278,0,0.5416775 F,0,272278,272465,0.5416775,0
Sprite,Foreground,Centre,"Light2.png",320,240 S,0,778,,1.379871 F,0,778,2278,0,1 R,0,778,11278,0.1156124,-0.7267097 F,0,2278,5278,1,0.4632258 F,0,5278,8278,0.4632258,0.236129 F,0,8278,11278,0.236129,0
Sprite,Foreground,Centre,"Light2.png",320,240 F,0,96778,98278,0,0.363355 R,0,96778,108028,0,-2.213161 S,0,98278,,1.445935 F,0,98278,101278,0.363355,0.4541937 F,0,101278,102778,0.4541937,0.3220646 F,0,102778,105778,0.3220646,0.1858066 F,0,105778,106528,0.1858066,0.3138066 F,0,106528,108403,0.3138066,0
Sprite,Foreground,Centre,"Light.png",320,240 M,0,206278,,334,305 R,0,206278,,-0.01651611 F,0,206278,206371,0.1741936,0.6407743 S,0,206278,206465,2.238709,5 P,0,206278,206465,H F,1,206371,207778,0.6407743,0 S,0,206465,206653,5 P,0,206465,206653,H P,0,206653,207028,H P,0,207028,207778,H
Sprite,Foreground,Centre,"Light.png",320,240 F,0,212746,212933,0 S,0,212746,214246,1.734968,2.205678 P,0,212746,214246,H F,0,212933,213121,0,0.7762581 F,0,213121,214246,0.7762581,0
Sprite,Foreground,Centre,"Light2.png",320,240 F,0,272278,272465,0,0.6283871 S,0,272278,272653,1.305548,1.40671 R,0,272278,278278,0,0.6441292 F,0,272465,273028,0.6283871 S,0,272653,273778,1.40671,1.561549 F,0,273028,274528,0.6283871,0.4054194 S,0,273778,274528,1.561549 S,0,274528,,1.561549 F,0,274528,274903,0.4054194,0.6861936 S,0,274528,278278,1.561549,1.412903 F,0,274903,278278,0.6861936,0
Sprite,Foreground,Centre,"yanlu.png",320,240 M,0,11278,,424,360 F,2,11278,12778,0,1 S,0,11278,12778,0.6118713 S,0,12778,12965,0.7357422,0.6118713 S,0,24778,24965,0.7357422,0.6118713 R,0,36778,60778,0.148645,-2.086163E-08 F,0,69778,71278,1,0 F,0,71840,72778,0,1 S,0,72778,72965,0.7357422,0.6118713 S,0,84778,84965,0.7357422,0.6118713 F,0,95278,96778,1,0
Sprite,Foreground,Centre,"CXu.png",320,240 M,0,96778,,230,391 S,0,96778,,0.6118713 F,0,96778,98278,0,1 S,0,102778,102965,0.7357422,0.6118713 S,0,108778,108965,0.7357422,0.6118713 S,0,114778,114965,0.7357422,0.6118713 S,0,120778,120965,0.7357422,0.6118713 S,0,144778,144965,0.7357422,0.6118713 S,0,156778,156965,0.7357422,0.6118713 S,0,166903,167090,0.7357422,0.6118713 F,0,167278,168778,1,0
Sprite,Foreground,Centre,"yanlu.png",320,240 M,0,168778,,419,371 F,2,168778,169528,0,1 S,0,168778,169528,0.6118713 S,0,180778,180965,0.7357422,0.6118713 F,2,198778,200278,1,0
Sprite,Foreground,Centre,"yuca.png",320,240 M,0,210778,,144,325 F,2,210778,212278,0,1 S,0,210778,212278,0.6118713 S,0,212278,212465,0.7357422,0.6118713 F,0,221278,222778,1,0 F,0,222778,224278,0,1 S,0,224278,224465,0.7357422,0.6118713 S,0,236278,236465,0.7357422,0.6118713 S,0,248278,248465,0.7357422,0.6118713 S,0,260278,260465,0.7357422,0.6118713 F,2,270778,272278,1,0
//Storyboard Sound Samples
//Background Colour Transformations
3,100,163,162,255

[TimingPoints]
778,375,4,2,2,40,1,0
11840,-100,4,2,1,70,0,0
12778,-100,4,2,0,70,0,0
12871,-100,4,2,1,70,0,0
24778,-100,4,2,0,70,0,0
24871,-100,4,2,1,70,0,0
30778,-100,4,2,0,70,0,0
30871,-100,4,2,1,70,0,0
36778,-100,4,2,2,60,0,0
39028,-100,4,2,3,60,0,0
39121,-100,4,2,2,60,0,0
42028,-100,4,2,3,60,0,0
42121,-100,4,2,2,60,0,0
45028,-100,4,2,3,60,0,0
45121,-100,4,2,2,60,0,0
48028,-100,4,2,3,60,0,0
48121,-100,4,2,2,60,0,0
51028,-100,4,2,3,60,0,0
51121,-100,4,2,2,60,0,0
53840,-100,4,2,2,50,0,0
54028,-100,4,2,3,60,0,0
54121,-100,4,2,2,60,0,0
54778,-100,4,2,2,40,0,0
54871,-100,4,2,2,60,0,0
57778,-117.647058823529,4,2,2,60,0,0
58340,-133.333333333333,4,2,2,60,0,0
58528,-133.333333333333,4,2,3,60,0,0
58621,-133.333333333333,4,2,2,60,0,0
59090,-117.647058823529,4,2,2,60,0,0
59465,-100,4,2,2,60,0,0
66028,-100,4,2,3,60,0,0
66121,-100,4,2,2,60,0,0
71278,-100,4,3,6,60,0,0
71840,-100,4,2,2,60,0,0
72778,-100,4,2,1,85,0,1
78778,-100,4,2,2,85,0,1
78871,-100,4,2,1,85,0,1
80278,-100,4,2,2,85,0,1
80371,-100,4,2,1,85,0,1
81778,-100,4,2,0,85,0,1
81871,-100,4,2,1,85,0,1
84778,-100,4,2,0,85,0,1
84871,-100,4,2,1,85,0,1
90778,-100,4,2,0,85,0,1
90871,-100,4,2,1,85,0,1
96778,-100,4,2,2,70,0,0
97340,-100,4,2,1,70,0,0
102778,-100,4,2,2,70,0,0
102871,-100,4,2,1,70,0,0
108778,-100,4,2,6,45,0,0
118153,-133.333333333333,4,2,0,50,0,0
120028,-100,4,2,6,60,0,0
130528,-100,4,3,6,45,0,0
130621,-100,4,2,6,60,0,0
132778,-100,4,2,0,60,0,0
135590,-100,4,2,6,60,0,0
135871,-100,4,2,0,60,0,0
138778,-100,4,2,6,60,0,0
138871,-100,4,2,0,60,0,0
141590,-161.290322580645,4,2,6,60,0,0
143278,-161.290322580645,4,2,6,80,0,0
143840,-100,4,2,0,70,0,0
144778,-100,4,2,0,85,0,1
144871,-100,4,2,1,85,0,1
150778,-100,4,2,0,85,0,1
151153,-100,4,2,1,85,0,1
152278,-100,4,2,0,85,0,1
152653,-100,4,2,1,85,0,1
153778,-100,4,2,0,85,0,1
153871,-100,4,2,1,85,0,1
156778,-100,4,2,0,85,0,1
156871,-100,4,2,1,85,0,1
162778,-100,4,2,0,85,0,1
162871,-100,4,2,1,85,0,1
168403,-100,4,2,6,85,0,1
168778,-133.333333333333,4,2,2,70,0,0
168871,-133.333333333333,4,2,2,60,0,0
180778,-117.647058823529,4,2,2,70,0,0
197184,-117.647058823529,4,2,2,60,0,0
197278,-128.205128205128,4,2,2,30,0,0
198778,-128.205128205128,4,2,2,40,0,0
212278,-100,4,2,0,70,0,0
212746,-100,4,2,1,70,0,0
220059,-100,4,2,1,55,0,0
221278,-100,4,2,1,70,0,0
222309,-100,4,2,1,5,0,0
222496,-100,4,2,1,70,0,0
223246,-100,4,2,1,5,0,0
224184,-100,4,2,1,85,0,0
224278,-100,4,2,1,85,0,1
230184,-100,4,2,0,85,0,1
230559,-100,4,2,1,85,0,1
236184,-100,4,2,0,85,0,1
236559,-100,4,2,1,85,0,1
242184,-100,4,2,0,85,0,1
242278,-100,4,2,0,85,0,0
242559,-100,4,2,1,85,0,0
247340,-100,4,2,1,85,0,0
248278,-100,4,2,0,85,0,0
248559,-133.333333333333,4,2,1,85,0,0
254184,-133.333333333333,4,2,0,85,0,0
254559,-133.333333333333,4,2,1,85,0,0
260184,-100,4,2,0,85,0,0
260278,-100,4,2,0,85,0,1
260559,-100,4,2,1,85,0,1
266278,-100,4,2,1,85,0,0
272278,-100,4,2,0,85,0,0

[Colours]
Combo1 : 243,35,5
Combo2 : 255,128,128
Combo3 : 255,128,64
Combo4 : 250,240,122

[HitObjects]
256,192,8653,12,4,11278,0:0:0:0:
256,288,11840,5,2,0:0:0:0:
108,260,12215,1,0,0:0:0:0:
80,192,12403,1,2,0:0:0:0:
92,120,12590,1,0,0:0:0:0:
144,64,12778,6,0,P|208:40|284:68,1,150,4|8,0:0|0:0,0:0:0:0:
352,128,13340,2,0,P|288:152|212:124,1,150,0|4,0:0|0:0,0:0:0:0:
144,64,13903,2,0,P|112:44|76:46,1,75,8|4,0:0|0:0,0:0:0:0:
16,116,14278,2,0,P|24:156|48:180,1,75,4|0,0:0|0:0,0:0:0:0:
136,300,14840,5,0,0:0:0:0:
204,264,15028,1,2,0:0:0:0:
256,316,15215,1,4,0:0:0:0:
308,264,15403,1,8,0:0:0:0:
376,300,15590,1,0,0:0:0:0:
448,276,15778,6,0,P|468:204|432:140,1,150,4|8,0:0|0:0,0:0:0:0:
364,80,16340,2,0,P|344:152|380:216,1,150,0|4,0:0|0:0,0:0:0:0:
448,276,16903,1,8,0:0:0:0:
424,348,17090,2,0,P|392:336|376:300,1,75,4|4,0:0|0:0,0:0:0:0:
356,212,17465,2,0,B|312:220|292:264|292:264|224:264,1,150,0|0,0:0|0:0,0:0:0:0:
172,208,18028,5,2,0:0:0:0:
104,236,18215,1,4,0:0:0:0:
116,312,18403,2,0,B|156:332|156:332|188:328,1,75,8|4,0:0|0:0,0:0:0:0:
256,300,18778,1,4,0:0:0:0:
256,84,19153,1,8,0:0:0:0:
360,192,19528,5,2,0:0:0:0:
440,144,19715,1,4,0:0:0:0:
408,56,19903,2,0,B|368:36|368:36|336:40,1,75,8|4,0:0|0:0,0:0:0:0:
256,84,20278,1,4,0:0:0:0:
256,328,20653,1,8,0:0:0:0:
96,288,21028,1,0,0:0:0:0:
96,288,21403,5,8,0:0:0:0:
136,224,21590,1,4,0:0:0:0:
136,148,21778,2,0,P|120:112|20:88,1,150,4|8,0:0|0:0,0:0:0:0:
60,160,22340,1,4,0:0:0:0:
60,160,22528,2,0,P|92:84|152:72,1,150,0|8,0:0|0:0,0:0:0:0:
216,124,23090,1,4,0:0:0:0:
196,204,23278,2,0,P|192:260|216:312,2,112.5,4|0|0,0:0|0:0|0:0,0:0:0:0:
316,180,24028,6,0,P|328:148|324:108,1,75,2|4,0:0|0:0,0:0:0:0:
400,112,24403,2,0,P|394:78|370:45,1,75,8|4,0:0|0:0,0:0:0:0:
296,36,24778,6,0,B|236:44|236:44|200:72|152:64,1,150,4|8,0:0|0:0,0:0:0:0:
120,132,25340,2,0,P|200:140|264:116,1,150,0|4,0:0|0:0,0:0:0:0:
336,96,25903,1,8,0:0:0:0:
336,96,26090,2,0,P|376:160|368:232,1,150,4|0,0:0|0:0,0:0:0:0:
368,231,26653,1,8,0:0:0:0:
320,324,26840,5,0,0:0:0:0:
264,272,27028,2,0,P|252:240|260:200,1,75,2|4,0:0|0:0,0:0:0:0:
188,288,27403,2,0,P|200:320|192:360,1,75,8|4,0:0|0:0,0:0:0:0:
124,328,27778,6,0,P|46:308|0:257,1,150,4|8,0:0|0:0,0:0:0:0:
64,216,28340,2,0,P|128:252|176:204,1,150,0|4,0:0|0:0,0:0:0:0:
188,132,28903,1,8,0:0:0:0:
256,104,29090,2,0,L|296:168,2,75,4|4|0,0:0|0:0|0:0,0:0:0:0:
196,56,29653,1,8,0:0:0:0:
188,132,29840,2,0,B|192:212|192:212|156:275,1,150,4|0,0:0|0:0,0:0:0:0:
112,332,30403,1,8,0:0:0:0:
112,332,30778,6,0,B|124:264|208:328|220:252,1,150,4|8,0:0|0:0,0:0:0:0:
400,332,31340,2,0,B|388:264|304:328|292:252,1,150,0|4,0:0|0:0,0:0:0:0:
208,168,31903,1,8,0:0:0:0:
296,88,32090,2,0,B|316:48|256:24|188:48|212:88,1,150,4|0,0:0|0:0,0:0:0:0:
208,168,32653,1,8,0:0:0:0:
304,168,32840,2,0,P|336:196|340:228,1,75
324,344,33215,6,0,P|292:316|288:284,1,75,4|8,0:0|0:0,0:0:0:0:
400,332,33590,1,4,0:0:0:0:
400,332,33778,2,0,P|460:292|476:220,1,150,4|8,0:0|0:0,0:0:0:0:
380,56,34340,2,0,P|320:96|304:168,1,150,0|4,0:0|0:0,0:0:0:0:
276,296,34903,2,0,P|208:256|184:192,1,150,8|4,0:0|0:0,0:0:0:0:
232,132,35465,5,0,0:0:0:0:
188,72,35653,1,8,0:0:0:0:
116,88,35840,1,0,0:0:0:0:
112,164,36028,5,2,0:0:0:0:
120,244,36215,1,4,0:0:0:0:
64,304,36403,1,10,0:0:0:0:
64,304,36778,6,0,L|168:260,2,112.5,6|0|0,0:0|0:0|0:0,0:0:0:0:
188,340,37528,2,0,L|256:308,1,75,8|0,0:0|0:0,0:0:0:0:
312,360,37903,2,0,L|380:328,1,75,0|0,0:0|0:0,0:0:0:0:
496,264,38278,6,0,B|453:281|453:281|450:223|399:199,1,150,2|0,0:0|0:0,0:0:0:0:
376,272,38840,2,0,P|444:232|464:168,1,150,2|0,0:0|0:0,0:0:0:0:
456,92,39403,1,2,0:0:0:0:
404,40,39590,1,0,0:0:0:0:
328,48,39778,6,0,P|308:96|256:128,2,112.5,2|0|0,0:0|0:0|0:0,0:0:0:0:
384,120,40528,2,0,P|364:152|332:176,1,75,8|0,0:0|0:0,0:0:0:0:
368,248,40903,2,0,P|405:249|442:265,1,75,0|0,0:0|0:0,0:0:0:0:
488,200,41278,6,0,P|470:166|465:126,2,75,2|0|0,0:0|0:0|0:0,0:0:0:0:
472,280,41840,2,0,P|424:344|356:356,1,150,2|0,0:0|0:0,0:0:0:0:
256,252,42403,1,2,0:0:0:0:
284,324,42590,1,0,0:0:0:0:
144,236,42778,6,0,P|160:184|208:156,2,112.5,6|0|0,0:0|0:0|0:0,0:0:0:0:
256,252,43528,2,0,P|292:236|308:204,1,75,8|0,0:0|0:0,0:0:0:0:
360,144,43903,2,0,P|328:120|292:122,1,75
210,201,44278,6,0,P|226:237|258:253,2,75,2|0|0,0:0|0:0|0:0,0:0:0:0:
220,128,44840,2,0,P|148:152|136:220,1,150,2|0,0:0|0:0,0:0:0:0:
188,272,45403,1,2,0:0:0:0:
164,344,45590,1,0,0:0:0:0:
164,344,46153,6,0,P|188:272|168:204,1,150,0|8,0:0|0:0,0:0:0:0:
128,120,46715,1,0,0:0:0:0:
172,40,46903,1,0,0:0:0:0:
260,20,47090,1,0,0:0:0:0:
348,40,47278,6,0,P|324:112|344:180,1,150,2|0,0:0|0:0,0:0:0:0:
420,128,47840,2,0,P|431:203|399:266,1,150,2|0,0:0|0:0,0:0:0:0:
308,272,48403,1,2,0:0:0:0:
252,200,48590,1,0,0:0:0:0:
256,108,48778,6,0,L|144:108,2,112.5,6|0|0,0:0|0:0|0:0,0:0:0:0:
204,192,49528,2,0,L|129:192,1,75,8|0,0:0|0:0,0:0:0:0:
80,276,49903,2,0,L|155:276,1,75
304,336,50278,6,0,P|256:380|204:332,1,150,2|0,0:0|0:0,0:0:0:0:
204,192,50840,2,0,P|240:128|232:52,2,150,2|0|0,0:0|0:0|0:0,0:0:0:0:
148,120,51778,6,0,P|136:64|92:36,2,112.5,2|0|0,0:0|0:0|0:0,0:0:0:0:
100,196,52528,2,0,P|125:222|134:259,1,75,8|0,0:0|0:0,0:0:0:0:
100,340,52903,1,0,0:0:0:0:
48,268,53090,1,0,0:0:0:0:
100,196,53278,6,0,P|172:208|228:160,1,150,2|0,0:0|0:0,0:0:0:0:
304,208,53840,2,0,P|315:135|267:80,1,150,2|0,0:0|0:0,0:0:0:0:
184,48,54403,1,2,0:0:0:0:
113,103,54590,2,0,L|101:179,1,75,0|4,0:0|0:0,0:0:0:0:
152,268,54965,5,0,0:0:0:0:
256,120,55340,1,0,0:0:0:0:
360,268,55715,6,0,L|280:268,1,75,0|2,0:0|0:0,0:0:0:0:
285,268,56090,1,0,0:0:0:0:
181,120,56465,2,0,L|261:120,1,75,2|0,0:0|0:0,0:0:0:0:
256,120,56840,1,0,0:0:0:0:
284,192,57028,6,0,B|320:204|320:204|356:192,1,75,8|0,0:0|0:0,0:0:0:0:
396,112,57403,2,0,B|360:100|360:100|324:112,1,75,2|0,0:0|0:0,0:0:0:0:
284,192,57778,6,0,L|296:264,1,63.7500012159348,0|0,0:0|0:0,0:0:0:0:
180,120,58153,1,0,0:0:0:0:
192,192,58340,2,0,L|212:304,1,112.500004291535,2|0,0:0|0:0,0:0:0:0:
328,200,59090,2,0,L|304:72,1,127.50000243187,2|0,0:0|0:0,0:0:0:0:
228,64,59653,5,0,0:0:0:0:
228,64,59840,1,0,0:0:0:0:
156,160,60028,1,2,2:2:0:0:
284,320,60403,5,0,0:0:0:0:
284,320,60590,1,0,0:0:0:0:
388,220,60778,5,4,0:0:0:0:
364,72,61153,1,0,0:0:0:0:
216,48,61528,1,8,0:0:0:0:
132,172,61903,1,0,0:0:0:0:
248,268,62278,5,0,0:0:0:0:
108,320,62653,1,0,0:0:0:0:
36,188,63028,2,0,P|32:116|72:52,1,150,8|2,0:0|0:0,0:0:0:0:
188,80,63590,1,0,0:0:0:0:
120,140,63778,6,0,P|188:168|256:140,1,150,4|0,0:0|0:0,0:0:0:0:
276,56,64340,2,0,P|304:36|344:36,1,75
464,172,64903,1,2,2:2:0:0:
464,172,65090,2,0,B|468:216|432:232|432:232|432:280|392:288,1,150,0|0,0:0|0:0,0:0:0:0:
328,244,65653,6,0,P|316:280|320:316,1,75,2|0,0:0|0:0,0:0:0:0:
308,172,66028,2,0,P|272:160|236:164,1,75,2|0,0:0|0:0,0:0:0:0:
380,188,66403,2,0,P|392:152|388:116,1,75,2|0,0:0|0:0,0:0:0:0:
332,64,66778,5,4,0:0:0:0:
472,116,67153,1,0,0:0:0:0:
468,264,67528,1,8,0:0:0:0:
324,304,67903,1,0,0:0:0:0:
236,180,68278,5,0,0:0:0:0:
96,128,68653,1,0,0:0:0:0:
120,276,69028,2,0,P|180:324|252:328,1,150,8|2,0:0|0:0,0:0:0:0:
324,304,69590,1,0,0:0:0:0:
256,192,69684,12,0,71278,3:0:0:0:
274,92,71840,5,2,0:0:0:0:
386,192,72215,1,0,0:0:0:0:
376,264,72403,1,2,0:0:0:0:
329,321,72590,1,0,0:0:0:0:
256,343,72778,6,0,P|188:331|136:269,1,150,4|8,0:0|0:0,0:0:0:0:
108,184,73340,2,0,P|175:195|227:257,1,150,0|4,0:0|0:0,0:0:0:0:
329,321,73903,2,0,P|361:341|401:337,1,75,8|4,0:0|0:0,0:0:0:0:
453,268,74278,2,0,P|445:228|421:204,1,75,4|0,0:0|0:0,0:0:0:0:
256,192,74840,5,0,0:0:0:0:
312,132,75028,1,2,0:0:0:0:
256,72,75215,1,4,0:0:0:0:
200,132,75403,2,0,P|172:156|132:164,1,75,8|0,0:0|0:0,0:0:0:0:
55,103,75778,6,0,P|35:175|71:239,1,150,4|8,0:0|0:0,0:0:0:0:
139,299,76340,2,0,P|159:227|123:163,1,150,0|4,0:0|0:0,0:0:0:0:
55,103,76903,1,8,0:0:0:0:
87,27,77090,2,0,P|119:39|135:75,1,75,4|4,0:0|0:0,0:0:0:0:
164,160,77465,2,0,B|208:144|220:104|220:104|288:120,1,150,0|0,0:0|0:0,0:0:0:0:
343,171,78028,5,2,0:0:0:0:
320,53,78215,1,4,0:0:0:0:
411,138,78403,1,8,0:0:0:0:
287,120,78590,1,4,0:0:0:0:
393,65,78778,1,4,0:0:0:0:
312,259,79153,1,8,0:0:0:0:
169,213,79528,5,2,0:0:0:0:
119,319,79715,1,4,0:0:0:0:
225,264,79903,1,8,0:0:0:0:
101,246,80090,1,4,0:0:0:0:
192,331,80278,1,4,0:0:0:0:
176,92,80653,1,8,0:0:0:0:
416,96,81028,1,0,0:0:0:0:
416,96,81403,5,8,0:0:0:0:
376,160,81590,1,4,0:0:0:0:
376,236,81778,2,0,P|392:272|492:296,1,150,4|8,0:0|0:0,0:0:0:0:
452,224,82340,1,4,0:0:0:0:
452,224,82528,2,0,P|420:300|360:312,1,150,0|8,0:0|0:0,0:0:0:0:
296,260,83090,1,4,0:0:0:0:
280,180,83278,2,0,P|255:129|208:96,2,112.5,4|0|0,0:0|0:0|0:0,0:0:0:0:
200,204,84028,6,0,P|168:178|153:148,1,75,2|4,0:0|0:0,0:0:0:0:
220,280,84403,2,0,P|196:312|191:345,1,75,8|4,0:0|0:0,0:0:0:0:
296,260,84778,6,0,B|356:251|356:251|392:223|440:232,1,150,4|8,0:0|0:0,0:0:0:0:
413,306,85340,2,0,P|386:230|337:182,1,150,0|4,0:0|0:0,0:0:0:0:
296,260,85903,1,8,0:0:0:0:
244,328,86090,2,0,P|177:292|148:226,1,150,4|0,0:0|0:0,0:0:0:0:
148,144,86653,1,8,0:0:0:0:
188,68,86840,6,0,P|152:56|116:64,1,75,0|2,0:0|0:0,0:0:0:0:
232,136,87215,2,0,P|268:148|304:140,1,75,4|8,0:0|0:0,0:0:0:0:
272,60,87590,1,4,0:0:0:0:
356,44,87778,6,0,P|434:64|480:115,1,150,4|8,0:0|0:0,0:0:0:0:
416,164,88340,2,0,P|352:128|304:176,1,150,0|4,0:0|0:0,0:0:0:0:
324,252,88903,1,8,0:0:0:0:
331,330,89090,2,0,P|364:321|390:292,2,75,4|4|0,0:0|0:0|0:0,0:0:0:0:
258,296,89653,1,8,0:0:0:0:
324,252,89840,2,0,B|320:172|320:172|356:109,1,150,4|0,0:0|0:0,0:0:0:0:
400,52,90403,1,8,0:0:0:0:
400,52,90778,6,0,B|388:120|304:56|292:132,1,150,4|8,0:0|0:0,0:0:0:0:
112,52,91340,2,0,B|124:120|208:56|220:132,1,150,0|4,0:0|0:0,0:0:0:0:
304,216,91903,1,8,0:0:0:0:
216,296,92090,2,0,B|196:336|256:360|324:336|300:296,1,150,4|0,0:0|0:0,0:0:0:0:
304,216,92653,1,8,0:0:0:0:
208,216,92840,2,0,P|176:188|172:156,1,75
188,40,93215,6,0,P|220:68|224:100,1,75,4|8,0:0|0:0,0:0:0:0:
112,52,93590,1,4,0:0:0:0:
112,52,93778,2,0,P|52:92|36:164,1,150,4|8,0:0|0:0,0:0:0:0:
132,328,94340,2,0,P|192:288|208:216,1,150,0|4,0:0|0:0,0:0:0:0:
236,88,94903,2,0,P|304:128|328:192,1,150,8|4,0:0|0:0,0:0:0:0:
256,192,95371,12,4,96778,0:0:0:0:
92,88,97340,5,4,0:0:0:0:
92,88,97528,2,0,P|60:144|76:224,2,150,8|0|0,0:0|0:0|0:0,0:0:0:0:
156,128,98465,1,4,0:0:0:0:
216,84,98653,1,4,0:0:0:0:
352,152,99028,2,0,P|424:176|492:152,1,150,8|0,0:0|0:0,0:0:0:0:
508,80,99590,1,4,0:0:0:0:
456,24,99778,5,4,0:0:0:0:
252,120,100340,1,4,0:0:0:0:
252,120,100528,2,0,B|228:172|228:172|260:216|232:276,2,150,8|0|0,0:0|0:0|0:0,0:0:0:0:
296,56,101465,1,4,0:0:0:0:
220,48,101653,1,4,0:0:0:0:
72,56,102028,2,0,P|52:104|52:140,1,75,8|4,0:0|0:0,0:0:0:0:
88,272,102590,1,4,0:0:0:0:
148,320,102778,5,4,0:0:0:0:
356,232,103340,1,4,0:0:0:0:
340,304,103528,2,0,B|364:248|424:260|424:260|464:312,2,150,8|0|0,0:0|0:0|0:0,0:0:0:0:
288,356,104465,1,4,0:0:0:0:
232,304,104653,1,4,0:0:0:0:
152,176,105028,2,0,P|80:208|64:276,1,150,8|0,0:0|0:0,0:0:0:0:
104,336,105590,1,4,0:0:0:0:
140,272,105778,5,4,0:0:0:0:
24,80,106340,1,4,0:0:0:0:
100,72,106528,2,0,L|252:56,2,150,8|0|0,0:0|0:0|0:0,0:0:0:0:
72,144,107465,1,4,0:0:0:0:
48,216,107653,1,4,0:0:0:0:
120,348,108028,2,0,B|156:336|156:336|200:344,1,75,8|4,0:0|0:0,0:0:0:0:
340,368,108590,1,4,0:0:0:0:
388,308,108778,6,0,P|416:248|384:168,1,150,4|2,0:0|0:1,0:0:0:0:
324,132,109340,1,2,0:0:0:0:
300,204,109528,2,0,P|248:220|204:204,1,75,8|0,0:0|0:0,0:0:0:0:
176,164,109903,1,2,0:1:0:0:
156,236,110090,5,2,0:3:0:0:
156,236,110184,1,2,0:3:0:0:
156,236,110278,2,0,L|132:320,1,75,2|0,0:3|0:0,0:0:0:0:
68,340,110653,1,2,0:0:0:0:
52,268,110840,2,0,B|40:212|40:212|76:168|60:120,1,150,0|0,2:0|2:0,3:0:0:0:
172,24,111590,5,2,0:0:0:0:
172,24,111778,2,0,B|224:28|256:68|256:68|304:28,1,150,2|2,0:0|0:1,0:0:0:0:
360,76,112340,1,2,0:0:0:0:
360,76,112528,2,0,L|304:128,1,75,8|0,0:0|0:0,0:0:0:0:
248,176,112903,1,2,0:1:0:0:
320,200,113090,5,2,0:3:0:0:
320,200,113184,1,2,0:3:0:0:
320,200,113278,2,0,P|308:248|320:284,1,75,2|2,0:3|0:0,0:0:0:0:
372,320,113653,1,2,0:0:0:0:
384,248,113840,2,0,P|300:232|224:272,1,150,0|0,2:0|2:0,3:0:0:0:
184,304,114403,2,0,L|172:340,3,37.5,2|2|2|2,0:3|0:3|0:3|0:3,0:0:0:0:
184,304,114778,6,0,P|112:292|80:224,1,150,6|0,0:0|0:1,0:0:0:0:
108,156,115340,1,2,0:0:0:0:
92,84,115528,2,0,P|128:76|160:48,1,75,8|0,0:0|0:0,0:0:0:0:
228,28,115903,2,0,B|272:32|288:64|288:64|328:76|360:52,1,150,2|0,0:1|0:0,0:0:0:0:
464,164,116653,6,0,L|472:248,1,75,2|0,0:0|0:0,0:0:0:0:
436,304,117028,1,8,0:0:0:0:
372,264,117215,2,0,P|320:264|256:340,1,150,0|2,0:0|0:0,0:0:0:0:
88,332,118153,5,2,0:0:0:0:
64,300,118340,1,0,0:0:0:0:
84,264,118528,2,0,P|100:236|104:200,1,56.2500021457673,2|0,0:0|0:0,0:0:0:0:
100,172,118903,1,2,0:0:0:0:
72,144,119090,1,0,0:0:0:0:
60,108,119278,6,0,P|80:44|144:32,1,112.500004291535,2|2,0:0|0:0,0:0:0:0:
172,56,119840,1,0,0:0:0:0:
224,28,120028,2,0,L|268:28,3,37.5,8|0|0|0,0:0|0:3|0:3|0:3,0:0:0:0:
292,52,120403,2,0,L|336:52,3,37.5,2|2|2|2,0:3|0:3|0:3|0:3,0:0:0:0:
372,32,120778,6,0,B|416:64|404:112|404:112|436:112|460:148,1,150,6|2,0:0|0:1,0:0:0:0:
472,224,121340,1,2,0:0:0:0:
396,272,121528,2,0,P|384:240|388:200,1,75,8|0,0:0|0:0,0:0:0:0:
308,280,121903,2,0,P|320:312|316:352,1,75,2|0,0:1|0:0,0:0:0:0:
200,320,122278,6,0,P|146:284|125:201,1,150,0|2,0:0|0:0,0:0:0:0:
196,148,122840,2,0,L|232:200,2,37.5,2|2|8,0:3|0:3|0:0,0:0:0:0:
148,72,123215,2,0,B|176:40|216:52|216:52|248:28|288:48,1,150,0|2,0:0|0:0,0:0:0:0:
308,136,123778,6,0,P|340:168|448:168,1,150,2|2,0:0|0:1,0:0:0:0:
392,96,124340,1,2,0:0:0:0:
484,92,124528,2,0,L|504:12,1,75,8|0,0:0|0:0,0:0:0:0:
460,180,124903,1,2,0:1:0:0:
372,188,125090,5,2,0:3:0:0:
372,188,125184,1,2,0:3:0:0:
372,188,125278,2,0,L|332:264,1,75,2|2,0:3|0:0,0:0:0:0:
376,336,125653,1,2,0:0:0:0:
424,248,125840,2,0,L|464:172,1,75,0|8,0:0|0:0,0:0:0:0:
344,88,126215,1,2,0:1:0:0:
432,96,126403,1,0,0:0:0:0:
276,28,126590,6,0,P|252:64|252:112,1,75,2|6,0:0|0:0,0:0:0:0:
272,180,126965,2,0,B|228:204|184:172|184:172|128:224,1,150,2|2,0:1|0:0,0:0:0:0:
308,316,127715,2,0,B|352:340|396:308|396:308|452:360,1,150,2|0,0:1|0:0,0:0:0:0:
372,160,128465,2,0,B|396:116|364:72|364:72|416:16,1,150,2|0,2:1|2:0,1:0:0:0:
451,185,129028,2,0,P|460:160|460:112,1,75,8|0,0:0|0:0,0:0:0:0:
296,120,129403,2,0,P|240:136|196:128,1,75,2|2,0:1|0:0,0:0:0:0:
136,92,129778,6,0,P|60:92|0:144,1,150,2|2,0:0|0:1,0:0:0:0:
80,284,130340,2,0,B|116:292|116:292|136:232|96:176,2,150,2|0|0,0:0|0:0|0:0,0:0:0:0:
256,368,131465,5,2,0:0:0:0:
256,368,131653,1,2,0:0:0:0:
256,368,132028,2,0,P|268:336|300:304,1,75,8|0,0:0|0:0,0:0:0:0:
368,276,132403,1,2,0:1:0:0:
440,302,132590,2,0,P|468:332|480:364,1,75,2|4,0:0|0:0,0:0:0:0:
480,213,133153,6,0,B|508:177|480:141|452:105|480:69,1,150,2|0,0:0|0:0,0:0:0:0:
396,180,133903,2,0,B|368:216|396:252|424:288|396:324,1,150,2|0,0:0|0:0,0:0:0:0:
224,368,134653,1,2,0:0:0:0:
68,280,135028,1,2,0:0:0:0:
52,100,135403,1,2,0:0:0:0:
72,108,135590,5,2,0:0:0:0:
104,88,135778,1,2,0:0:0:0:
212,192,136153,2,0,P|280:216|360:184,1,150,2|0,0:0|0:0,0:0:0:0:
444,96,136903,2,0,P|376:120|296:88,1,150,2|0,0:0|0:0,0:0:0:0:
136,32,137653,1,2,0:0:0:0:
36,180,138028,1,2,0:0:0:0:
116,340,138403,1,2,0:0:0:0:
168,288,138778,5,2,0:0:0:0:
308,340,139153,2,0,L|448:280,1,150,2|0,0:0|0:0,0:0:0:0:
332,208,139903,2,0,L|472:148,1,150,2|0,0:0|0:0,0:0:0:0:
340,24,140653,1,2,0:0:0:0:
164,56,141028,1,2,0:0:0:0:
108,228,141403,1,2,0:0:0:0:
96,248,141590,5,2,0:0:0:0:
96,284,141778,2,0,P|256:365|416:284,1,371.9999852417,2|2,0:0|0:0,0:0:0:0:
256,192,143840,5,2,0:0:0:0:
172,144,144215,5,2,0:0:0:0:
339,144,144403,1,0,0:0:0:0:
256,288,144590,1,2,0:0:0:0:
128,224,144778,6,0,P|88:160|108:80,1,150,4|8,0:0|0:0,0:0:0:0:
256,192,145340,2,0,B|288:232|332:236|332:236|360:264|348:304,1,150,0|4,0:0|0:0,0:0:0:0:
300,364,145903,1,8,0:0:0:0:
440,296,146090,2,0,P|440:260|416:200,1,75,4|4,0:0|0:0,0:0:0:0:
372,152,146465,2,0,P|368:104|460:40,1,150,0|0,2:0|2:0,3:0:0:0:
292,168,147215,2,0,L|208:184,1,75,4|8,0:0|0:0,0:0:0:0:
132,156,147590,1,4,0:0:0:0:
56,248,147778,6,0,B|16:304|52:348|52:348|96:344,1,150,4|8,0:0|0:0,0:0:0:0:
244,240,148340,2,0,P|304:244|360:328,1,150,0|4,0:0|0:0,0:0:0:0:
268,324,148903,1,8,0:0:0:0:
160,244,149090,2,0,P|168:208|204:168,1,75,4|4,0:0|0:0,0:0:0:0:
88,284,149465,2,0,B|88:356|36:364|36:364|8:328,1,150,0|0,2:0|2:0,3:0:0:0:
4,224,150028,5,0,0:0:0:0:
28,124,150215,1,4,0:0:0:0:
108,56,150403,1,8,0:0:0:0:
212,40,150590,1,4,0:0:0:0:
312,68,150778,1,4,0:0:0:0:
312,68,151153,6,0,P|364:128|432:120,1,150,8|0,0:0|0:0,0:0:0:0:
492,36,151715,1,4,0:0:0:0:
488,184,151903,2,0,P|456:204|396:216,1,75,8|4,0:0|0:0,0:0:0:0:
316,216,152278,1,4,0:0:0:0:
316,216,152653,6,0,B|256:216|256:288|192:288,1,150,8|0,0:0|0:0,0:0:0:0:
108,352,153215,1,4,0:0:0:0:
24,288,153403,1,8,0:0:0:0:
108,228,153590,1,4,0:0:0:0:
191,288,153778,6,0,B|251:288|251:360|315:360,1,150,4|8,0:0|0:0,0:0:0:0:
372,264,154340,1,0,0:0:0:0:
468,320,154528,2,0,B|500:276|476:224|476:224|516:188,1,150,0|8,2:0|2:0,1:0:0:0:
460,92,155090,2,0,L|396:140,1,75,4|4,0:0|0:0,0:0:0:0:
400,137,155653,5,8,0:0:0:0:
296,116,155840,1,4,0:0:0:0:
368,40,156028,1,0,0:0:0:0:
374,154,156215,5,4,0:0:0:0:
294,84,156402,1,8,0:0:0:0:
395,54,156590,1,4,0:0:0:0:
348,148,156778,6,0,L|192:184,1,150,4|8,0:0|0:0,0:0:0:0:
32,296,157340,2,0,B|72:352|140:328|140:328|156:356,1,150,0|4,0:0|0:0,0:0:0:0:
240,328,157903,1,8,0:0:0:0:
108,232,158090,2,0,P|96:172|108:140,1,75,4|4,0:0|0:0,0:0:0:0:
56,40,158465,2,0,P|124:68|208:28,1,150,0|0,2:0|2:0,3:0:0:0:
283,43,159028,5,0,0:0:0:0:
256,168,159215,1,4,0:0:0:0:
372,120,159403,1,8,0:0:0:0:
345,245,159590,1,4,0:0:0:0:
456,192,159778,6,0,B|468:252|408:276|456:344,1,150,0|8,0:0|0:0,0:0:0:0:
344,244,160340,2,0,B|324:296|336:336|336:336|280:328,1,150,0|4,0:0|0:0,0:0:0:0:
192,316,160903,1,8,0:0:0:0:
272,196,161090,2,0,P|308:164|356:156,1,75,4|4,0:0|0:0,0:0:0:0:
272,196,161653,5,8,0:0:0:0:
404,100,161840,2,0,P|452:80|496:84,1,75,4|0,0:0|0:0,0:0:0:0:
316,68,162215,2,0,P|272:48|236:48,1,75,4|8,0:0|0:0,0:0:0:0:
140,52,162590,1,4,0:0:0:0:
72,132,162778,6,0,P|48:188|80:280,1,150,4|8,0:0|0:0,0:0:0:0:
200,368,163340,2,0,P|224:312|192:220,1,150,0|4,0:0|0:0,0:0:0:0:
72,132,163903,2,0,L|136:88,1,75,8|4,0:0|0:0,0:0:0:0:
248,32,164278,6,0,B|316:40|328:104|328:104|388:88|388:88|408:156|476:156,1,300,0|0,0:0|0:0,0:0:0:0:
476,60,165215,5,4,0:0:0:0:
384,216,165590,1,4,0:0:0:0:
432,312,165778,2,0,P|360:328|284:256,1,150,4|8,0:0|0:0,0:0:0:0:
116,260,166340,2,0,P|188:276|264:204,1,150,0|4,0:0|0:0,0:0:0:0:
204,112,166903,2,0,P|176:148|176:196,1,75,8|4,0:0|0:0,0:0:0:0:
52,304,167278,6,0,B|24:264|52:212|52:212|4:180,1,150,4|8,0:0|0:0,0:0:0:0:
28,80,167840,2,0,L|104:124,1,75,4|0,0:0|0:0,0:0:0:0:
168,44,168215,1,4,0:0:0:0:
256,108,168403,1,2,0:3:0:0:
268,100,168496,1,2,0:3:0:0:
280,92,168590,1,2,0:3:0:0:
292,84,168684,1,2,0:3:0:0:
304,76,168778,1,4,0:0:0:0:
448,20,169153,5,0,0:0:0:0:
432,156,169528,2,0,P|420:212|384:252,1,112.500004291535,4|0,0:0|0:0,0:0:0:0:
288,264,170090,2,0,P|300:208|336:168,1,112.500004291535,2|0,0:0|0:0,0:0:0:0:
372,76,170653,1,2,0:0:0:0:
256,152,171028,1,8,0:0:0:0:
140,76,171403,1,0,0:0:0:0:
140,76,171590,1,0,0:0:0:0:
68,108,171778,6,0,P|29:151|24:206,1,112.500004291535,6|0,0:0|0:0,0:0:0:0:
88,248,172340,1,0,0:0:0:0:
116,320,172528,2,0,P|136:344|160:354,2,56.2500021457673,2|0|0,0:0|0:0|0:0,0:0:0:0:
184,280,173090,2,0,P|212:280|236:268,1,56.2500021457673,2|0,0:0|0:0,0:0:0:0:
124,184,173653,1,2,0:0:0:0:
124,184,173840,2,0,P|176:160|208:116,1,112.500004291535,2|0,0:0|0:0,0:0:0:0:
256,32,174403,1,0,0:0:0:0:
312,156,174778,6,0,P|288:212|248:248,1,112.500004291535,4|0,0:0|0:0,0:0:0:0:
167,257,175340,1,2,0:0:0:0:
124,184,175528,2,0,P|148:172|176:173,1,56.2500021457673,8|0,0:0|0:0,0:0:0:0:
388,200,176090,1,0,0:0:0:0:
345,127,176278,2,0,P|308:92|248:92,1,112.500004291535,0|0,0:0|0:0,0:0:0:0:
276,168,176840,2,0,P|280:200|272:224,1,56.2500021457673,0|8,0:0|0:0,0:0:0:0:
112,276,177403,2,0,P|140:292|164:292,1,56.2500021457673,0|2,0:0|0:0,0:0:0:0:
248,300,177778,6,0,B|249:255|208:229|208:229|168:202|168:160,1,168.750006437302,4|0,0:0|0:0,0:0:0:0:
264,84,178528,2,0,B|263:129|304:155|304:155|344:182|344:224,1,168.750006437302,4|0,0:0|0:0,0:0:0:0:
328,300,179278,5,4,0:0:0:0:
196,160,179653,1,8,0:0:0:0:
200,320,180028,2,0,P|180:300|168:272,1,56.2500021457673,2|0,0:0|0:0,0:0:0:0:
104,320,180403,2,0,P|89:295|85:265,1,56.2500021457673,2|2,0:0|0:0,0:0:0:0:
92,236,180684,1,2,0:0:0:0:
100,204,180778,6,0,P|104:140|76:84,1,127.50000243187,4|0,0:0|0:0,0:0:0:0:
58,10,181340,1,0,0:0:0:0:
132,32,181528,2,0,P|156:56|164:88,2,63.7500012159348,2|0|8,0:0|0:0|0:0,0:0:0:0:
24,148,182090,5,0,0:0:0:0:
100,204,182278,1,0,0:0:0:0:
192,168,182465,1,0,0:0:0:0:
192,168,182559,1,0,0:0:0:0:
192,168,182653,2,0,P|202:232|244:276,1,127.50000243187,0|2,0:0|0:0,0:0:0:0:
336,296,183215,5,0,0:0:0:0:
412,204,183403,2,0,P|348:216|292:192,1,127.50000243187,8|0,0:0|0:0,0:0:0:0:
192,168,183965,2,0,L|160:168,2,31.8750006079674,0|0|0,0:0|0:0|0:0,0:0:0:0:
148,248,184340,2,0,L|84:248,2,63.7500012159348,0|2|0,0:0|0:0|0:0,0:0:0:0:
192,328,184903,1,8,0:0:0:0:
192,328,185090,1,0,0:0:0:0:
192,328,185278,6,0,L|320:328,3,127.50000243187,0|2|0|2,0:0|0:0|0:0|0:0,0:0:0:0:
340,132,186778,6,0,L|320:192,1,63.7500012159348,4|0,0:0|0:0,0:0:0:0:
400,204,187153,1,8,0:0:0:0:
399,283,187340,1,0,0:0:0:0:
392,364,187528,2,0,P|336:341|319:279,1,127.50000243187,2|8,0:0|0:0,0:0:0:0:
136,256,188278,2,0,L|76:236,1,63.7500012159348
104,160,188653,1,8,0:0:0:0:
52,100,188840,1,0,0:0:0:0:
132,84,189028,2,0,P|180:120|180:184,1,127.50000243187,2|0,0:0|0:0,0:0:0:0:
188,328,189590,6,0,B|261:199|388:212|409:359|274:410|197:310|273:178,1,446.250008511543
344,44,191278,5,2,0:0:0:0:
404,92,191465,1,0,0:0:0:0:
404,92,191653,2,0,P|432:152|432:212,1,127.50000243187,2|8,0:0|0:0,0:0:0:0:
316,160,192403,2,0,P|256:144|192:160,1,127.50000243187,2|4,0:0|0:0,0:0:0:0:
108,292,193153,1,0,0:0:0:0:
108,292,193340,2,0,P|80:232|80:172,1,127.50000243187,2|0,0:0|0:0,0:0:0:0:
144,128,193903,2,0,P|152:96|144:64,1,63.7500012159348,0|2,0:0|0:0,0:0:0:0:
68,92,194278,6,0,P|60:124|68:156,2,63.7500012159348,0|8|2,0:0|0:0|0:0,0:0:0:0:
256,40,195028,1,8,0:0:0:0:
444,92,195403,1,0,0:0:0:0:
456,168,195590,1,2,0:0:0:0:
424,240,195778,2,0,P|376:280|312:288,1,127.50000243187,4|8,0:0|0:0,0:0:0:0:
264,224,196340,1,2,0:0:0:0:
344,212,196528,2,0,P|384:260|392:324,1,127.50000243187,0|2,0:0|0:0,0:0:0:0:
314,328,197090,1,2,0:0:0:0:
282,326,197184,1,0,0:0:0:0:
256,319,197278,6,0,P|202:145|354:245,1,468.00001571045,0|0,0:0|0:0,0:0:0:0:
32,104,212278,6,0,L|32:328,1,225,4|4,0:0|0:0,0:0:0:0:
32,329,213028,1,8,0:0:0:0:
472,96,213965,1,4,0:0:0:0:
472,96,214153,2,0,L|472:272,1,150,4|8,0:0|0:0,0:0:0:0:
256,88,215090,5,4,0:0:0:0:
256,88,215278,2,0,B|240:144|280:184|248:256,1,150,4|0,0:0|0:0,0:0:0:0:
255,236,215840,1,4,0:0:0:0:
255,236,216028,1,8,0:0:0:0:
264,352,216778,1,4,0:0:0:0:
264,352,217153,2,0,L|264:256,1,75,4|0,0:0|0:0,0:0:0:0:
104,280,217528,2,0,L|104:376,1,75,8|4,0:0|0:0,0:0:0:0:
184,272,217903,2,0,L|184:120,1,150,4|4,0:0|0:0,0:0:0:0:
456,256,218840,5,4,0:0:0:0:
456,256,219028,2,0,L|456:96,1,150,8|4,0:0|0:0,0:0:0:0:
256,192,219965,1,4,0:0:0:0:
256,192,220153,2,0,L|256:248,8,50,8|8|8|4|4|4|4|4|4,0:3|0:3|0:3|0:3|0:3|0:3|0:3|0:3|0:3,0:3:0:0:
256,192,221278,12,0,222309,0:0:0:0:
256,192,222403,12,0,223528,0:0:0:0:
200,324,224278,5,4,0:0:0:0:
376,328,224653,1,8,0:0:0:0:
376,328,224840,2,0,P|388:252|364:176,1,150,4|4,0:0|0:0,0:0:0:0:
280,184,225403,1,8,0:0:0:0:
192,184,225590,1,4,0:0:0:0:
104,184,225778,2,0,P|92:108|116:32,1,150,4|8,0:0|0:0,0:0:0:0:
248,32,226340,5,4,0:0:0:0:
248,32,226715,1,4,0:0:0:0:
336,16,226903,1,8,0:0:0:0:
368,104,227090,1,4,0:0:0:0:
280,128,227278,2,0,P|256:200|284:276,1,150,4|8,0:0|0:0,0:0:0:0:
428,268,227840,2,0,P|452:196|424:120,1,150,4|4,0:0|0:0,0:0:0:0:
352,192,228403,1,8,0:0:0:0:
352,192,228590,1,4,0:0:0:0:
352,192,228778,2,0,L|352:296,1,75,4|0,0:0|0:0,0:0:0:0:
352,360,229153,5,8,0:0:0:0:
352,360,229340,2,0,L|200:360,2,150,4|4|4,0:0|0:0|0:0,0:0:0:0:
432,312,230278,2,0,P|456:248|416:156,1,150,4|8,0:0|0:0,0:0:0:0:
256,168,231028,1,8,0:0:0:0:
256,168,231215,2,0,L|84:168,1,150,4|4,0:0|0:0,0:0:0:0:
16,168,231778,2,0,P|-8:96|32:8,1,150,4|8,0:0|0:0,0:0:0:0:
240,28,232715,5,4,0:0:0:0:
172,84,232903,1,8,0:0:0:0:
236,148,233090,1,4,0:0:0:0:
312,96,233278,2,0,P|388:104|460:140,2,150,4|8|0,0:0|0:0|0:0,0:0:0:0:
160,192,234215,1,4,0:0:0:0:
160,192,234590,5,4,0:0:0:0:
160,192,234778,2,4,P|88:216|56:240,2,112.5
256,344,235715,1,4,0:0:0:0:
208,264,235903,1,8,0:0:0:0:
288,224,236090,1,4,0:0:0:0:
336,296,236278,5,4,0:0:0:0:
336,296,236653,1,8,0:0:0:0:
336,296,236840,2,0,P|408:328|472:288,1,150,4|4,0:0|0:0,0:0:0:0:
400,232,237403,1,8,0:0:0:0:
464,160,237590,1,4,0:0:0:0:
464,160,237778,2,0,P|392:128|328:168,1,150,4|8,0:0|0:0,0:0:0:0:
264,216,238340,5,4,0:0:0:0:
264,216,238715,1,4,0:0:0:0:
184,256,238903,1,8,0:0:0:0:
96,232,239090,1,4,0:0:0:0:
16,192,239278,2,0,P|-16:128|48:48,1,150,4|8,0:0|0:0,0:0:0:0:
160,64,239840,2,0,P|192:128|128:208,1,150,4|4,0:0|0:0,0:0:0:0:
88,240,240403,1,8,0:0:0:0:
160,296,240590,2,0,P|240:360|328:288,1,225,4|8,0:0|0:0,0:0:0:0:
352,208,241340,2,0,P|416:176|488:232,2,150,4|4|4,0:0|0:0|0:0,0:0:0:0:
352,208,242278,5,4,0:0:0:0:
176,208,242653,1,8,0:0:0:0:
176,208,242840,2,0,P|112:176|40:232,1,150,4|4,0:0|0:0,0:0:0:0:
112,272,243403,1,8,0:0:0:0:
56,344,243590,1,4,0:0:0:0:
56,344,243778,2,0,P|120:376|192:320,1,150,4|8,0:0|0:0,0:0:0:0:
304,96,244715,5,4,0:0:0:0:
376,48,244903,1,8,0:0:0:0:
456,96,245090,1,4,0:0:0:0:
472,184,245278,2,0,P|448:240|360:216,1,150,4|8,0:0|0:0,0:0:0:0:
369,231,245840,1,4,0:0:0:0:
240,104,246215,1,4,0:0:0:0:
160,64,246403,1,8,0:0:0:0:
80,104,246590,1,4,0:0:0:0:
40,184,246778,2,0,P|56:240|120:240,2,112.5,4|4|4,0:0|0:0|0:0,0:0:0:0:
256,32,247715,5,4,0:0:0:0:
184,88,247903,1,8,0:0:0:0:
256,144,248090,1,4,0:0:0:0:
328,88,248278,1,4,0:0:0:0:
328,88,248653,1,0,0:0:0:0:
328,88,248840,2,0,P|384:72|440:96,1,112.500004291535,4|0,0:0|0:0,0:0:0:0:
432,176,249403,1,0,0:0:0:0:
432,176,249590,2,0,P|384:200|320:168,1,112.500004291535,0|4,0:0|0:0,0:0:0:0:
331,181,250153,1,4,0:0:0:0:
256,136,250340,5,0,0:0:0:0:
256,136,250715,1,0,0:0:0:0:
192,80,250903,1,0,0:0:0:0:
128,136,251090,1,4,0:0:0:0:
184,200,251278,2,0,P|136:224|72:184,1,112.500004291535,4|0,0:0|0:0,0:0:0:0:
128,136,251840,2,0,P|176:120|240:144,1,112.500004291535,4|0,0:0|0:0,0:0:0:0:
312,176,252403,1,0,0:0:0:0:
312,176,252590,2,0,L|448:176,1,112.500004291535,0|4,0:0|0:0,0:0:0:0:
424,176,253153,1,4,0:0:0:0:
344,328,253528,5,0,0:0:0:0:
344,328,253715,2,0,L|208:328,1,112.500004291535,4|4,0:0|0:0,0:0:0:0:
144,328,254278,2,0,P|128:272|152:200,1,112.5,4|0,0:0|0:0,0:0:0:0:
139,220,254840,1,4,0:0:0:0:
139,220,255028,1,0,0:0:0:0:
308,220,255403,1,0,0:0:0:0:
308,220,255590,2,0,L|428:220,1,112.500004291535,0|4,0:0|0:0,0:0:0:0:
508,220,256153,2,0,P|524:156|492:100,1,112.500004291535,4|8,0:0|0:0,0:0:0:0:
352,32,256903,5,0,0:0:0:0:
264,32,257090,1,4,0:0:0:0:
176,32,257278,2,0,P|88:48|72:128,1,168.750006437302,4|4,0:0|0:0,0:0:0:0:
144,160,258028,2,0,L|272:160,1,112.500004291535,8|0,0:0|0:0,0:0:0:0:
344,160,258590,1,0,0:0:0:0:
344,160,258965,2,0,L|344:216,1,56.2500021457673,4|4,0:0|0:0,0:0:0:0:
48,336,259528,5,0,0:0:0:0:
0,256,259715,1,4,0:0:0:0:
64,192,259903,1,0,0:0:0:0:
152,224,260090,1,4,0:0:0:0:
144,312,260278,1,4,0:0:0:0:
144,312,260653,1,8,0:0:0:0:
144,312,260840,2,0,P|208:344|288:280,1,150,4|4,0:0|0:0,0:0:0:0:
208,232,261403,1,8,0:0:0:0:
144,152,261590,1,4,0:0:0:0:
144,152,261778,2,0,P|208:120|288:184,1,150,4|8,0:0|0:0,0:0:0:0:
336,240,262340,5,4,0:0:0:0:
336,240,262715,1,4,0:0:0:0:
416,312,262903,1,8,0:0:0:0:
512,264,263090,1,4,0:0:0:0:
504,152,263278,2,0,P|536:80|480:32,1,150,4|8,0:0|0:0,0:0:0:0:
328,32,263840,2,0,P|296:104|352:152,1,150,4|4,0:0|0:0,0:0:0:0:
424,96,264403,1,8,0:0:0:0:
424,96,264590,2,0,B|392:168|456:232|424:320,1,225,4|8,0:0|0:0,0:0:0:0:
320,344,265340,2,0,P|248:352|160:344,2,150,4|4|4,0:0|0:0|0:0,0:0:0:0:
320,344,266278,5,4,0:0:0:0:
312,128,266653,2,0,P|216:72|120:136,1,225,8|4,0:0|0:0,0:0:0:0:
80,208,267403,1,8,0:0:0:0:
136,280,267590,1,4,0:0:0:0:
136,280,267778,2,0,P|200:312|288:256,1,150,4|0,0:0|0:0,0:0:0:0:
269,284,268715,5,4,0:0:0:0:
272,104,269090,1,4,0:0:0:0:
272,104,269278,2,0,P|200:128|128:80,1,150,4|0,0:0|0:0,0:0:0:0:
288,24,269840,2,0,P|360:0|432:48,1,150,4|4,0:0|0:0,0:0:0:0:
480,104,270403,1,8,0:0:0:0:
424,176,270590,1,4,0:0:0:0:
480,248,270778,2,0,P|488:296|480:368,2,112.5,4|4|4,0:0|0:0|0:0,0:0:0:0:
256,136,271715,5,4,0:0:0:0:
192,200,271903,1,8,0:0:0:0:
256,264,272090,1,4,0:0:0:0:
320,200,272278,1,4,0:0:0:0:
