osu file format v13

[General]
AudioFilename: 01. Darling.mp3
AudioLeadIn: 0
PreviewTime: 42453
Countdown: 0
SampleSet: Soft
StackLeniency: 0.7
Mode: 0
LetterboxInBreaks: 0
WidescreenStoryboard: 0

[Editor]
DistanceSpacing: 0.5
BeatDivisor: 4
GridSize: 32
TimelineZoom: 0.8999999

[Metadata]
Title:Darling
TitleUnicode:Darling
Artist:Nishino Kana
ArtistUnicode:西野カナ
Creator:Giralda
Version:Normal
Source:
Tags:with love
BeatmapID:511980
BeatmapSetID:209810

[Difficulty]
HPDrainRate:3
CircleSize:3.5
OverallDifficulty:3
ApproachRate:4
SliderMultiplier:0.8
SliderTickRate:1

[Events]
//Background and Video events
0,0,"wwwwww.jpg",0,0
//Break Periods
2,67297,77227
2,139297,149602
2,187297,194227
//Storyboard Layer 0 (Background)
//Storyboard Layer 1 (Fail)
//Storyboard Layer 2 (Pass)
//Storyboard Layer 3 (Foreground)
//Storyboard Sound Samples
//Background Colour Transformations
3,100,163,162,255

[TimingPoints]
1297,375,4,2,1,70,1,0
19297,-100,4,2,1,60,0,0
27547,-100,4,2,1,50,0,0
31297,-100,4,2,1,50,0,0
32047,-100,4,2,1,50,0,0
33734,-100,4,2,2,50,0,0
34672,-100,4,2,3,50,0,0
35047,-100,4,2,1,50,0,0
36734,-100,4,2,2,50,0,0
39734,-100,4,2,2,50,0,0
42922,-100,4,2,1,50,0,0
43297,-100,4,2,2,80,0,1
45172,-100,4,2,3,80,0,1
45547,-100,4,2,1,80,0,1
47234,-100,4,2,2,80,0,1
57172,-100,4,2,3,80,0,1
59234,-100,4,2,2,80,0,1
59797,-100,4,2,1,80,0,1
62234,-100,4,2,2,80,0,1
67297,-100,4,2,1,50,0,0
79297,-100,4,2,2,60,0,0
84172,-100,4,2,3,60,0,0
84547,-100,4,2,1,50,0,0
85297,-100,4,2,1,60,0,0
86234,-100,4,2,2,60,0,0
102547,-100,4,2,1,60,0,0
104234,-100,4,2,2,60,0,0
109672,-100,4,2,3,60,0,0
110047,-100,4,2,1,60,0,0
113234,-100,4,2,2,60,0,0
114922,-100,4,2,1,60,0,0
115297,-100,4,2,1,80,0,1
116234,-100,4,2,2,80,0,1
117172,-100,4,2,3,80,0,1
117547,-100,4,2,1,80,0,1
119234,-100,4,2,2,80,0,1
139297,-100,4,2,1,80,0,0
151297,-100,4,2,2,65,0,0
163297,-100,4,2,1,65,0,0
164234,-100,4,2,2,65,0,0
166672,-100,4,2,3,65,0,0
168734,-100,4,2,2,65,0,0
170234,-100,4,2,2,70,0,0
195922,-100,4,2,1,70,0,0
196297,-100,4,2,2,80,0,1
198172,-100,4,2,3,80,0,1
198547,-100,4,2,1,80,0,1
200234,-100,4,2,2,80,0,1
208672,-100,4,2,3,80,0,1
209047,-100,4,2,1,80,0,1
210734,-100,4,2,2,80,0,1
220297,-100,4,2,2,60,0,0
244297,-100,4,2,1,50,0,0
250297,-100,4,2,1,5,0,0

[Colours]
Combo1 : 125,249,255
Combo2 : 181,126,220
Combo3 : 65,105,225
Combo4 : 159,0,197

[HitObjects]
106,93,1297,6,0,P|106:132|112:172,1,80,0|2,0:0|0:0,0:0:0:0:
147,203,1859,2,0,P|223:183|302:190,1,160,0|0,0:0|0:0,0:0:0:0:
422,270,3172,1,2,0:0:0:0:
422,269,3359,2,0,P|432:231|436:191,1,80,0|0,0:0|0:0,0:0:0:0:
420,96,4109,6,0,P|366:119|307:109,1,120,0|2,0:0|0:0,0:0:0:0:
264,90,4859,2,0,L|181:111,1,80,0|0,0:0|0:0,0:0:0:0:
94,80,5609,2,0,P|91:138|126:186,1,120,0|2,0:0|0:0,0:0:0:0:
198,250,6547,2,0,L|277:243,1,80,0|2,0:0|0:0,0:0:0:0:
364,201,7297,6,0,P|373:239|366:278,2,80,0|2|0,0:0|0:0|0:0,0:0:0:0:
303,126,8422,1,2,0:0:0:0:
210,100,8797,2,0,L|115:94,1,80,0|2,0:0|0:0,0:0:0:0:
41,56,9547,2,0,P|32:94|40:133,1,80,0|2,0:0|0:0,0:0:0:0:
123,183,10297,5,0,0:0:0:0:
95,275,10672,1,2,0:0:0:0:
172,331,11047,1,0,0:0:0:0:
248,273,11422,1,2,0:0:0:0:
220,181,11797,2,0,P|259:176|299:175,1,80,0|2,0:0|0:0,0:0:0:0:
345,188,12359,2,0,L|361:61,1,120,0|2,0:0|0:0,0:0:0:0:
438,13,13297,6,0,P|362:33|284:18,1,160,0|0,0:0|0:0,0:0:0:0:
209,78,14422,1,2,0:0:0:0:
130,23,14797,2,0,P|123:62|120:102,1,80,0|2,0:0|0:0,0:0:0:0:
189,168,15547,2,0,P|195:207|198:247,1,80,0|2,0:0|0:0,0:0:0:0:
116,296,16297,5,2,0:0:0:0:
203,337,16672,1,2,0:0:0:0:
203,337,16859,2,0,P|262:326|322:323,1,120,0|2,0:0|0:0,0:0:0:0:
389,254,17797,1,0,0:0:0:0:
414,344,18172,1,2,0:0:0:0:
507,322,18547,1,0,0:0:0:0:
482,229,18922,1,2,0:0:0:0:
506,136,19297,6,0,P|466:126|423:122,1,80,0|8,1:0|0:0,0:0:0:0:
371,200,20047,1,0,0:0:0:0:
371,200,20234,2,0,P|312:213|252:219,1,120,0|0,1:0|1:0,0:0:0:0:
158,197,21172,1,8,0:0:0:0:
198,110,21547,2,0,P|236:100|276:100,1,80,0|8,0:0|0:0,0:0:0:0:
369,126,22297,5,2,1:2:0:0:
301,193,22672,1,8,0:0:0:0:
366,263,23047,2,0,P|373:305|378:348,1,80,2|8,0:0|0:0,0:0:0:0:
282,321,23797,2,0,P|243:315|203:313,1,80,2|8,1:2|0:0,0:0:0:0:
159,331,24359,2,0,P|168:272|160:212,1,120,0|8,0:0|0:0,0:0:0:0:
71,249,25297,6,0,P|63:213|62:171,1,80,2|8,1:2|0:0,0:0:0:0:
148,128,26047,2,0,P|156:88|156:49,1,80,2|10,0:0|0:0,0:0:0:0:
245,87,26797,2,0,L|334:91,1,80,2|8,1:2|0:0,0:0:0:0:
410,46,27547,1,2,0:0:0:0:
410,46,27734,2,0,P|417:106|392:163,1,120,0|0,1:0|1:0,0:0:0:0:
306,199,28672,5,10,0:0:0:0:
327,103,29047,1,0,0:0:0:0:
246,50,29422,1,10,0:0:0:0:
179,119,29797,1,0,1:0:0:0:
213,208,30172,2,0,P|226:267|227:326,1,120,0|0,1:0|1:0,0:0:0:0:
196,364,30922,6,0,L|114:352,1,80,8|0,0:0|1:0,0:0:0:0:
33,305,31672,1,8,0:0:0:0:
106,243,32047,2,0,P|115:205|118:165,1,80,0|8,0:0|0:0,0:0:0:0:
77,77,32797,1,0,1:0:0:0:
171,91,33172,1,8,0:0:0:0:
171,91,33359,2,0,L|303:104,1,120,8|8,0:0|0:0,0:0:0:0:
381,71,34297,6,0,P|391:130|391:189,2,120,0|8|8,1:0|0:0|0:0,0:0:0:0:
290,39,35797,1,0,1:0:0:0:
207,87,36172,1,8,0:0:0:0:
206,87,36359,2,0,P|148:98|88:99,1,120,8|10,0:0|0:0,0:0:0:0:
44,184,37297,5,0,1:0:0:0:
101,262,37672,1,8,0:0:0:0:
101,262,37859,2,0,P|159:250|219:249,1,120,8|8,0:0|0:0,0:0:0:0:
305,293,38797,2,0,P|343:307|389:316,1,80,0|8,1:0|0:0,0:0:0:0:
428,307,39359,2,0,L|452:185,1,120,8|8,0:0|0:0,0:0:0:0:
508,112,40297,5,0,1:0:0:0:
427,59,40672,1,8,0:0:0:0:
427,59,40859,2,0,L|306:49,1,120,10|2,0:0|0:0,0:0:0:0:
215,17,41797,2,0,P|206:55|206:95,1,80,0|0,1:0|1:0,0:0:0:0:
272,164,42547,2,0,L|361:172,2,80,8|4|4,0:3|0:3|0:0,0:0:0:0:
192,218,43672,5,8,0:0:0:0:
191,218,43859,2,0,P|136:238|77:229,1,120,10|10,0:0|0:0,0:0:0:0:
69,132,44797,2,0,P|124:112|183:121,2,120,0|8|8,1:0|0:0|0:0,0:0:0:0:
27,218,46297,6,0,L|33:303,1,80,0|8,1:0|0:0,0:0:0:0:
33,344,46859,2,0,P|90:327|155:329,1,120,8|8,0:0|0:0,0:0:0:0:
240,359,47797,1,2,1:2:0:0:
332,333,48172,1,10,0:2:0:0:
307,240,48547,1,0,0:0:0:0:
214,265,48922,1,8,0:0:0:0:
124,229,49297,6,0,P|84:220|45:217,2,80,0|8|2,1:0|0:0|0:0,0:0:0:0:
207,182,50422,1,8,0:0:0:0:
127,128,50797,2,0,P|121:88|119:48,1,80,0|10,1:0|0:0,0:0:0:0:
160,23,51359,2,0,L|279:29,1,120,8|8,0:0|0:0,0:0:0:0:
375,15,52297,6,0,P|394:56|399:103,1,80,0|8,1:0|0:0,0:0:0:0:
462,162,53047,2,0,P|443:203|438:250,1,80,0|10,0:0|0:0,0:0:0:0:
363,298,53797,1,0,1:0:0:0:
354,202,54172,1,8,0:0:0:0:
260,181,54547,1,2,0:0:0:0:
216,266,54922,1,8,0:0:0:0:
273,343,55297,5,0,1:0:0:0:
178,359,55672,1,8,0:0:0:0:
178,359,55859,2,0,L|55:361,1,120,8|8,0:0|0:0,0:0:0:0:
103,271,56797,2,0,P|119:214|114:155,1,120,0|2,1:0|0:0,0:0:0:0:
68,70,57734,1,0,0:0:0:0:
68,70,57922,2,0,P|107:64|146:57,1,80,8|0,0:0|1:0,0:0:0:0:
230,102,58672,5,8,0:0:0:0:
230,102,58859,2,0,P|284:125|343:123,1,120,8|8,0:0|0:0,0:0:0:0:
438,104,59797,2,0,L|452:186,1,80,0|8,1:0|0:0,0:0:0:0:
471,276,60547,1,2,0:0:0:0:
379,246,60922,2,0,P|339:253|301:265,1,80,2|0,1:2|1:0,0:0:0:0:
209,293,61672,5,8,0:0:0:0:
209,293,61859,2,0,P|162:301|83:298,1,120,8|10,0:0|0:0,0:0:0:0:
34,220,62797,2,0,P|29:181|26:141,1,80,0|8,1:0|0:0,0:0:0:0:
61,51,63547,1,0,0:0:0:0:
125,122,63922,1,8,0:0:0:0:
201,63,64297,6,0,L|289:57,1,80,0|8,1:0|0:0,0:0:0:0:
327,66,64859,2,0,P|341:123|329:182,1,120,8|10,0:0|0:0,0:0:0:0:
237,213,65797,2,0,P|199:204|159:200,1,80,0|12,1:0|0:0,0:0:0:0:
91,269,66547,2,0,L|72:311,2,40,2|0|8,0:0|1:0|0:0,0:0:0:0:
127,178,78547,6,0,P|170:175|208:173,2,80,0|8|0,0:0|0:0|1:0,0:0:0:0:
80,262,79672,5,8,0:0:0:0:
79,262,79859,2,0,P|87:321|108:377,1,120,8|8,0:0|0:0,0:0:0:0:
198,341,80797,2,0,L|286:336,1,80,0|8,1:0|0:0,0:0:0:0:
325,334,81359,2,0,P|354:283|353:224,1,120,8|8,0:0|0:0,0:0:0:0:
290,150,82297,5,2,1:2:0:0:
371,100,82672,1,8,0:0:0:0:
322,17,83047,1,0,0:0:0:0:
239,66,83422,1,8,0:0:0:0:
150,29,83797,2,0,L|24:21,2,120,0|8|8,1:0|0:0|0:0,0:0:0:0:
216,98,85297,6,0,P|214:137|204:176,1,80,0|8,1:0|0:0,0:0:0:0:
186,221,85859,2,0,L|310:227,1,120,8|8,0:0|0:0,0:0:0:0:
390,273,86797,2,0,L|381:353,2,80,0|8|0,1:0|0:0|0:0,0:0:0:0:
449,197,87922,1,8,0:0:0:0:
380,128,88297,6,0,P|342:118|302:115,1,80,2|10,1:2|0:0,0:0:0:0:
256,129,88859,2,0,P|196:136|135:137,1,120,10|8,0:0|0:0,0:0:0:0:
40,131,89797,1,0,1:0:0:0:
63,224,90172,1,8,0:0:0:0:
63,224,90359,2,0,P|122:218|182:218,1,120,8|8,0:0|0:0,0:0:0:0:
240,294,91297,6,0,P|279:288|319:287,1,80,0|8,1:0|0:0,0:0:0:0:
365,300,91859,2,0,P|382:243|372:184,1,120,8|8,0:0|0:0,0:0:0:0:
418,100,92797,1,0,1:0:0:0:
322,106,93172,1,8,0:0:0:0:
322,106,93359,2,0,L|200:112,1,120,8|8,0:0|0:0,0:0:0:0:
107,91,94297,5,0,1:0:0:0:
107,92,95984,6,0,L|113:174,1,80,8|0,0:3|3:0,0:0:0:0:
139,212,96547,2,0,L|218:218,1,80,8|8,0:0|0:0,0:0:0:0:
303,262,97297,6,0,P|330:235|369:219,1,80,0|8,1:0|0:0,0:0:0:0:
413,227,97859,2,0,P|396:171|399:111,1,120,8|8,0:0|0:0,0:0:0:0:
430,19,98797,1,0,1:0:0:0:
335,36,99172,1,8,0:0:0:0:
335,36,99359,2,0,L|215:28,1,120,8|8,0:0|0:0,0:0:0:0:
124,12,100297,6,0,P|108:48|101:87,1,80,0|8,1:0|0:0,0:0:0:0:
159,163,101047,2,0,P|174:199|181:238,1,80,0|8,0:0|0:0,0:0:0:0:
144,328,101797,1,0,1:0:0:0:
65,272,102172,2,0,P|46:215|43:154,1,120,0|8,1:0|0:0,0:0:0:0:
69,115,102922,2,0,L|116:40,1,80,8|0,0:0|1:0,0:0:0:0:
184,111,103672,5,8,0:0:0:0:
184,111,103859,2,0,P|240:131|299:136,1,120,8|8,0:0|0:0,0:0:0:0:
389,102,104797,1,0,1:0:0:0:
452,173,105172,1,8,0:0:0:0:
452,173,105359,2,0,P|467:230|466:290,1,120,8|8,0:0|0:0,0:0:0:0:
391,351,106297,5,0,1:0:0:0:
320,286,106672,2,0,P|281:274|242:269,1,80,8|0,0:0|0:0,0:0:0:0:
160,320,107422,1,8,0:0:0:0:
160,320,107609,1,0,0:0:0:0:
88,254,107984,2,0,P|76:217|74:177,1,80,8|8,0:3|0:3,0:0:0:0:
104,138,108547,2,0,L|189:126,1,80,4|8,0:3|0:0,0:0:0:0:
262,180,109297,6,0,P|294:123|289:66,2,120,4|8|8,1:2|0:0|0:0,0:0:0:0:
207,259,110797,2,0,L|216:344,1,80,0|8,1:0|0:0,0:0:0:0:
310,329,111547,1,0,0:0:0:0:
405,321,111922,2,0,P|421:286|427:244,1,80,8|0,0:0|1:0,0:0:0:0:
408,150,112672,5,8,0:0:0:0:
407,150,112859,2,0,P|350:166|290:165,1,120,8|8,0:0|0:0,0:0:0:0:
200,128,113797,2,0,L|191:216,1,80,0|0,1:0|0:0,0:0:0:0:
167,300,114547,2,0,L|85:313,2,80,4|8|4,0:3|0:3|0:0,0:0:0:0:
256,335,115672,5,8,0:0:0:0:
256,335,115859,2,0,P|306:366|365:364,1,120,8|8,0:0|0:0,0:0:0:0:
434,297,116797,2,0,P|451:240|454:178,2,120,0|8|8,1:0|0:0|0:0,0:0:0:0:
351,248,118297,5,0,1:0:0:0:
260,280,118672,1,8,0:0:0:0:
260,280,118859,2,0,P|212:288|136:293,1,120,8|8,0:0|0:0,0:0:0:0:
57,244,119797,2,0,P|52:205|50:165,1,80,0|8,1:0|0:0,0:0:0:0:
138,125,120547,2,0,P|142:164|144:204,1,80,0|8,0:0|0:0,0:0:0:0:
207,276,121297,6,0,P|245:265|284:261,1,80,0|8,1:0|0:0,0:0:0:0:
325,283,121859,2,0,P|314:225|325:166,1,120,8|8,0:0|0:0,0:0:0:0:
403,109,122797,1,0,1:0:0:0:
317,64,123172,1,8,0:0:0:0:
317,64,123359,2,0,L|197:57,1,120,8|8,0:0|0:0,0:0:0:0:
103,77,124297,6,0,L|16:104,1,80,0|8,1:0|0:0,0:0:0:0:
39,147,124859,2,0,P|51:205|39:263,1,120,8|8,0:0|0:0,0:0:0:0:
87,346,125797,1,0,1:0:0:0:
163,287,126172,1,8,0:0:0:0:
241,342,126547,1,0,0:0:0:0:
315,281,126922,1,8,0:0:0:0:
387,344,127297,6,0,P|405:308|411:269,1,80,0|8,1:0|0:0,0:0:0:0:
396,222,127859,2,0,P|383:165|393:106,1,120,8|8,0:0|0:0,0:0:0:0:
334,30,128797,1,0,1:0:0:0:
266,97,129172,1,8,0:0:0:0:
266,97,129359,2,0,L|206:101|146:105,1,120,8|8,0:0|0:0,0:0:0:0:
65,159,130297,6,0,P|67:198|76:237,1,80,0|8,1:0|0:0,0:0:0:0:
71,285,130859,2,0,L|194:293,1,120,8|8,0:0|0:0,0:0:0:0:
269,347,131797,1,0,1:0:0:0:
364,351,132172,1,8,0:0:0:0:
369,255,132547,1,2,0:0:0:0:
273,249,132922,1,8,0:0:0:0:
177,243,133297,6,0,P|164:204|160:165,1,80,0|8,1:0|0:0,0:0:0:0:
223,93,134047,2,0,P|235:131|239:170,1,80,0|8,0:0|0:0,0:0:0:0:
332,145,134797,2,0,L|420:140,1,80,0|8,1:0|0:0,0:0:0:0:
467,218,135547,2,0,L|379:223,1,80,0|8,0:0|0:0,0:0:0:0:
316,287,136297,6,0,P|289:316|252:330,1,80,0|8,1:0|0:0,0:0:0:0:
204,316,136859,2,0,P|147:299|87:300,1,120,8|8,0:0|0:0,0:0:0:0:
23,229,137797,1,0,1:0:0:0:
82,153,138172,1,4,0:0:0:0:
17,82,138547,2,0,L|12:38,2,40,0|0|8,0:0|1:0|0:0,0:0:0:0:
50,71,150922,5,0,0:0:0:0:
96,155,151297,2,0,L|203:150,1,80,0|8,1:0|0:0,0:0:0:0:
217,175,151859,2,0,L|210:311,1,120,8|8,0:0|0:0,0:0:0:0:
281,360,152797,1,0,1:0:0:0:
359,304,153172,1,8,0:0:0:0:
359,303,153359,2,0,P|418:294|477:290,1,120,8|8,0:0|0:0,0:0:0:0:
426,209,154297,6,0,L|415:124,1,80,0|8,1:0|0:0,0:0:0:0:
415,81,154859,2,0,P|362:106|302:107,1,120,8|8,0:0|0:0,0:0:0:0:
213,70,155797,2,0,L|126:68,1,80,0|8,1:0|0:0,0:0:0:0:
100,158,156547,2,0,L|187:160,1,80,0|8,0:0|0:0,0:0:0:0:
245,230,157297,5,0,1:0:0:0:
330,185,157672,1,8,0:0:0:0:
330,185,157859,2,0,P|341:243|307:300,1,120,8|8,0:0|0:0,0:0:0:0:
231,345,158797,2,0,P|193:334|153:331,1,80,0|8,1:0|0:0,0:0:0:0:
108,348,159359,2,0,L|92:228,1,120,8|8,0:0|0:0,0:0:0:0:
133,142,160297,5,0,1:0:0:0:
223,174,160672,1,8,0:0:0:0:
223,174,160859,2,0,L|352:167,1,120,8|8,0:0|0:0,0:0:0:0:
438,162,161797,5,0,1:0:0:0:
438,161,163297,6,0,P|436:203|434:241,1,80,4|8,0:0|0:0,0:0:0:0:
443,287,163859,2,0,P|385:274|325:273,1,120,8|8,0:0|0:0,0:0:0:0:
241,319,164797,1,0,1:0:0:0:
171,252,165172,1,8,0:0:0:0:
171,252,165359,2,0,P|165:192|162:132,1,120,8|8,0:0|0:0,0:0:0:0:
248,88,166297,6,0,L|80:101,2,160,0|0|0,1:0|1:0|1:0,0:0:0:0:
326,142,168172,1,8,0:0:0:0:
326,142,168359,2,0,P|336:203|351:262,1,120,0|8,0:0|0:0,0:0:0:0:
442,233,169297,5,0,1:0:0:0:
434,328,169672,1,8,0:0:0:0:
434,328,169859,2,0,L|312:346,1,120,8|8,0:0|0:0,0:0:0:0:
221,368,170797,2,0,P|214:328|211:288,1,80,0|8,1:0|0:0,0:0:0:0:
228,244,171359,2,0,L|355:232,1,120,8|8,0:0|0:0,0:0:0:0:
361,137,172297,6,0,P|321:133|280:126,1,80,0|8,1:0|0:0,0:0:0:0:
245,95,172859,2,0,P|186:84|126:80,1,120,8|8,0:0|0:0,0:0:0:0:
50,140,173797,1,0,1:0:0:0:
114,211,174172,2,0,P|117:252|125:290,1,80,8|0,0:0|1:0,0:0:0:0:
211,248,174922,2,0,P|250:240|290:236,1,80,8|0,0:0|1:0,0:0:0:0:
372,287,175672,5,8,0:0:0:0:
372,286,175859,2,0,P|384:228|378:169,1,120,8|8,0:0|0:0,0:0:0:0:
314,97,176797,2,0,P|276:114|232:118,1,80,0|8,1:0|0:0,0:0:0:0:
197,92,177359,2,0,L|71:68,1,120,8|8,0:0|0:0,0:0:0:0:
105,162,178297,6,0,L|193:180,1,80,0|8,1:0|0:0,0:0:0:0:
219,209,178859,2,0,P|234:266|218:323,1,120,8|8,0:0|0:0,0:0:0:0:
307,359,179797,1,0,1:0:0:0:
395,322,180172,1,8,0:0:0:0:
395,321,180359,2,0,B|422:309|422:309|401:271|418:222,1,120,8|8,0:0|0:0,0:0:0:0:
409,125,181297,6,0,P|376:146|337:151,1,80,0|8,1:0|0:0,0:0:0:0:
291,136,181859,2,0,P|233:120|173:124,1,120,8|8,0:0|0:0,0:0:0:0:
98,185,182797,1,0,1:0:0:0:
121,278,183172,1,8,0:0:0:0:
121,278,183359,2,0,B|139:324|139:324|191:284|254:304,1,160,8|0,0:0|1:0,0:0:0:0:
256,192,184297,12,0,185797,0:0:0:0:
103,206,195547,6,0,P|106:245|111:285,2,80,8|8|4,0:0|0:0|0:0,0:0:0:0:
156,126,196672,5,8,0:0:0:0:
156,126,196859,2,0,P|215:118|275:119,1,120,8|8,0:0|0:0,0:0:0:0:
343,186,197797,2,0,P|370:134|360:76,2,120,0|8|8,1:0|0:0|0:0,0:0:0:0:
255,224,199297,5,0,1:0:0:0:
322,292,199672,1,8,0:0:0:0:
322,291,199859,2,0,P|269:319|211:310,1,120,8|8,0:0|0:0,0:0:0:0:
119,281,200797,2,0,P|102:317|96:356,2,80,0|8|0,1:0|0:0|0:0,0:0:0:0:
201,231,201922,1,8,0:0:0:0:
113,191,202297,6,0,P|104:142|100:107,1,80,0|8,1:0|0:0,0:0:0:0:
120,68,202859,2,0,L|238:84,1,120,8|8,0:0|0:0,0:0:0:0:
327,47,203797,1,0,1:0:0:0:
422,58,204172,1,8,0:2:0:0:
410,155,204547,1,0,1:0:0:0:
314,144,204922,1,8,0:0:0:0:
253,219,205297,6,0,P|238:255|235:295,1,80,0|8,1:0|0:0,0:0:0:0:
251,339,205859,2,0,P|196:317|137:315,1,120,8|8,0:0|0:0,0:0:0:0:
41,328,206797,1,0,1:0:0:0:
77,239,207172,1,8,0:0:0:0:
77,238,207359,2,0,P|92:181|89:121,1,120,8|8,0:0|0:0,0:0:0:0:
190,155,208297,6,0,P|246:173|306:168,2,120,0|8|8,1:0|0:0|0:0,0:0:0:0:
163,62,209797,1,0,1:0:0:0:
257,44,210172,1,8,0:0:0:0:
257,44,210359,2,0,L|376:56,1,120,8|8,0:0|0:0,0:0:0:0:
451,115,211297,6,0,L|441:194,1,80,0|8,1:0|0:0,0:0:0:0:
455,240,211859,2,0,P|399:218|339:218,1,120,8|8,0:0|0:0,0:0:0:0:
261,275,212797,2,0,P|222:281|182:282,1,80,0|8,1:0|0:0,0:0:0:0:
90,253,213547,1,8,0:0:0:0:
54,163,213922,1,8,0:0:0:0:
111,86,214297,5,0,1:0:0:0:
147,174,214672,1,8,0:0:0:0:
147,174,214859,2,0,L|276:188,1,120,8|8,0:0|0:0,0:0:0:0:
354,148,215797,1,0,1:0:0:0:
384,239,216172,1,8,0:0:0:0:
384,239,216359,2,0,P|403:295|406:355,1,120,8|8,0:0|0:0,0:0:0:0:
491,311,217297,6,0,P|484:272|485:232,1,80,0|8,1:0|0:0,0:0:0:0:
502,188,217859,2,0,L|388:150,1,120,8|8,0:0|0:0,0:0:0:0:
310,92,218797,1,0,1:0:0:0:
241,158,219172,1,8,0:0:0:0:
182,81,219547,2,0,L|142:62,2,40,0|0|2,0:0|1:0|0:0,0:0:0:0:
97,126,220297,6,0,P|83:163|86:202,1,80,4|8,0:0|0:0,0:0:0:0:
107,245,220859,2,0,P|118:303|99:359,1,120,8|8,0:0|0:0,0:0:0:0:
192,331,221797,2,0,P|231:324|271:324,1,80,0|8,1:0|0:0,0:0:0:0:
313,343,222359,2,0,P|299:286|307:226,1,120,8|8,0:0|0:0,0:0:0:0:
358,145,223297,5,0,1:0:0:0:
273,99,223672,1,8,0:0:0:0:
272,99,223859,2,0,P|218:122|158:128,1,120,8|8,0:0|0:0,0:0:0:0:
151,224,224797,1,0,1:0:0:0:
56,242,225172,1,8,0:0:0:0:
73,336,225547,1,8,0:0:0:0:
167,318,225922,1,8,0:0:0:0:
254,358,226297,6,0,P|291:372|331:375,1,80,0|8,1:0|0:0,0:0:0:0:
373,350,226859,2,0,P|388:293|396:233,1,120,8|8,0:0|0:0,0:0:0:0:
330,161,227797,1,0,1:0:0:0:
287,247,228172,1,8,0:0:0:0:
192,229,228547,1,2,0:0:0:0:
186,133,228922,1,8,0:0:0:0:
267,82,229297,5,0,1:0:0:0:
183,34,229672,1,8,0:0:0:0:
182,34,229859,2,0,P|125:51|65:50,1,120,8|8,0:0|0:0,0:0:0:0:
45,144,230797,1,8,1:2:0:0:
30,238,231172,1,8,1:2:0:0:
124,255,231547,1,8,0:0:0:0:
146,161,231922,1,8,0:0:0:0:
222,219,232297,6,0,P|257:237|296:242,1,80,4|8,0:0|0:0,0:0:0:0:
341,223,232859,2,0,P|397:205|458:205,1,120,8|8,0:0|0:0,0:0:0:0:
453,108,233797,2,0,P|416:123|376:124,1,80,0|8,1:0|0:0,0:0:0:0:
335,97,234359,2,0,P|280:77|220:80,1,120,8|8,0:0|0:0,0:0:0:0:
139,133,235297,5,0,1:0:0:0:
54,88,235672,1,8,0:0:0:0:
53,88,235859,2,0,P|43:146|69:199,1,120,8|8,0:0|0:0,0:0:0:0:
147,256,236797,1,0,1:0:0:0:
144,351,237172,1,8,0:0:0:0:
239,355,237547,1,2,0:0:0:0:
244,259,237922,1,8,0:0:0:0:
333,294,238297,6,0,P|370:308|409:316,1,80,0|8,1:0|0:0,0:0:0:0:
446,345,238859,2,0,P|433:287|439:228,1,120,8|8,0:0|0:0,0:0:0:0:
476,139,239797,2,0,P|438:149|398:152,1,80,0|8,1:0|0:0,0:0:0:0:
351,140,240359,2,0,P|294:125|234:123,1,120,8|8,0:0|0:0,0:0:0:0:
139,140,241297,6,0,P|137:182|148:229,1,80,0|8,1:0|0:0,0:0:0:0:
135,266,241859,2,0,L|262:277,1,120,8|8,0:0|0:0,0:0:0:0:
350,288,242797,2,0,L|343:370,1,80,0|12,1:0|0:0,0:0:0:0:
453,275,243734,1,0,1:0:0:0:
453,275,243922,2,0,L|460:193,1,80,8|2,0:0|0:0,0:0:0:0:
468,99,244672,5,2,0:0:0:0:
377,131,245047,2,0,L|328:149,2,40,0|2|0,0:0|0:0|0:0,0:0:0:0:
323,50,245797,2,0,P|283:45|243:49,1,80,0|2,0:0|0:0,0:0:0:0:
198,134,246547,2,0,L|247:152,2,40,0|2|0,0:0|0:0|0:0,0:0:0:0:
256,192,247297,12,0,250297,0:0:0:0:
