osu file format v11

[General]
AudioFilename: Nishino Kana - Christmas Love.mp3
AudioLeadIn: 2000
PreviewTime: 16785
Countdown: 0
SampleSet: Soft
StackLeniency: 0.7
Mode: 0
LetterboxInBreaks: 0

[Editor]
DistanceSpacing: 1
BeatDivisor: 4
GridSize: 4

[Metadata]
Title:Christmas Love
TitleUnicode:Christmas Love
Artist:Nishino Kana
ArtistUnicode:Nishino Kana
Creator:Dark_Ai
Version:Hard
Source:
Tags:Merry Christmas Winter Xmas SilverJetter white snow
BeatmapID:198935
BeatmapSetID:68849

[Difficulty]
HPDrainRate:6
CircleSize:4
OverallDifficulty:6
ApproachRate:7
SliderMultiplier:1.8
SliderTickRate:1

[Events]
//Background and Video events
0,0,"Konachan.jpg"
//Break Periods
2,50720,55721
2,154982,159246
//Storyboard Layer 0 (Background)
//Storyboard Layer 1 (Fail)
//Storyboard Layer 2 (Pass)
//Storyboard Layer 3 (Foreground)
//Storyboard Sound Samples
//Background Colour Transformations
3,100,0,0,0

[TimingPoints]
1540,491.803278688525,4,2,1,60,1,0
17277,-100,4,2,1,80,0,1
49736,-100,4,2,1,30,0,1
50720,-100,4,2,1,60,0,0
105802,-100,4,2,1,80,0,1
137277,-100,4,2,1,60,0,0
210064,-100,4,2,1,80,0,1
241540,-100,4,2,1,60,0,0
273999,-100,4,2,1,30,0,0
274490,-100,4,2,1,10,0,0

[Colours]
Combo1 : 72,182,234
Combo2 : 128,0,255
Combo3 : 255,0,128
Combo4 : 255,255,255

[HitObjects]
256,96,556,1,2,0:0:0
256,96,1048,1,0,0:0:0
256,96,1540,2,0,P|344:104|384:184,1,180,2|0,0:0|0:0,0:0:0
304,336,2523,2,0,P|208:336|168:272,1,180,2|0,0:0|0:0,0:0:0
104,208,3261,1,0,0:0:0
160,136,3507,2,0,P|216:64,1,90,2|0,0:0|0:0,0:0:0
304,64,3999,2,0,P|360:64|392:96|392:96|380:140|392:184,1,180,0|2,0:0|0:0,0:0:0
256,304,4982,5,0,0:0:0
168,304,5228,1,0,0:0:0
88,272,5474,2,0,P|96:216|64:184|64:184|96:152|104:104,1,180,2|0,0:0|0:0,0:0:0
168,48,6212,1,0,0:0:0
256,56,6458,2,0,P|344:64|408:136,2,180,2|0|2,0:0|0:0|0:0,0:0:0
256,56,7933,5,2,0:0:0
256,240,8425,1,2,0:0:0
264,328,8671,1,0,0:0:0
344,352,8917,1,2,0:0:0
344,352,9408,6,0,P|440:352|464:272,1,180,2|2,0:0|0:0,0:0:0
376,264,10146,1,0,0:0:0
376,264,10392,2,0,P|360:216|368:168,1,90,2|0,0:0|0:0,0:0:0
448,208,10884,1,2,0:0:0
424,120,11130,1,0,0:0:0
340,92,11376,2,0,P|256:64|168:92,2,180,0|2|0,0:0|0:0|0:0,0:0:0
256,252,12851,5,2,0:0:0
200,320,13097,1,0,0:0:0
112,304,13343,2,0,P|40:272|32:176,1,180,2|0,0:0|0:0,0:0:0
112,216,14080,1,0,0:0:0
112,128,14326,2,0,P|184:80|272:96,1,180,2|0,0:0|0:0,0:0:0
271,95,15064,1,0,0:0:0
256,192,15310,12,2,16785,0:0:0
256,328,17277,6,0,P|376:336|408:280,1,180,4|8,0:0|0:0,0:0:0
320,264,18015,1,0,0:0:0
392,208,18261,2,0,P|336:136,1,90
384,64,18753,2,0,P|441:135,1,90,8|0,0:0|0:0,0:0:0
472,216,19244,2,0,P|496:312|432:360,1,180,2|8,0:0|0:0,0:0:0
400,280,19982,1,0,0:0:0
400,280,20228,2,0,P|320:280|320:280|320:336|272:368,1,180,2|8,0:0|0:0,0:0:0
104,324,21212,6,0,P|144:244|108:168,1,180,2|8,0:0|0:0,0:0:0
40,128,21949,1,0,0:0:0
104,80,22195,2,0,P|144:72|200:80,1,90,2|0,0:0|0:0,0:0:0
256,144,22687,2,0,P|336:104,1,90,8|0,0:0|0:0,0:0:0
424,72,23179,2,0,P|464:152|460:244,1,180,2|8,0:0|0:0,0:0:0
368,184,23917,1,0,0:0:0
368,184,24162,2,0,P|344:272|264:288,1,180,2|8,0:0|0:0,0:0:0
280,200,24900,5,0,0:0:0
280,200,25146,2,0,P|216:136,1,90,2|0,0:0|0:0,0:0:0
136,92,25638,2,0,P|56:148,1,90,8|0,0:0|0:0,0:0:0
62,251,26130,2,0,P|136:200,1,90,2|0,0:0|0:0,0:0:0
233,236,26621,2,0,P|160:288,1,90,8|0,0:0|0:0,0:0:0
40,268,27113,6,0,P|113:216,1,90,2|0,0:0|0:0,0:0:0
152,192,27482,1,0,0:0:0
192,168,27605,1,8,0:0:0
256,104,27851,1,0,0:0:0
320,168,28097,2,0,P|368:152|400:112,1,90,2|0,0:0|0:0,0:0:0
480,112,28589,2,0,P|475:149|443:189,1,90,8|0,0:0|0:0,0:0:0
472,264,29080,2,0,P|432:264|400:304|400:344|400:344|360:352|336:336,1,180,2|8,0:0|0:0,0:0:0
256,304,29818,1,2,0:0:0
172,336,30064,2,0,P|153:350|113:342|113:342|113:302|81:262|41:262,1,180,2|8,0:0|0:0,0:0:0
104,92,31048,6,0,P|120:172|208:188,1,180,2|8,0:0|0:0,0:0:0
256,112,31785,1,0,0:0:0
408,92,32031,2,0,P|392:172|304:188,1,180,2|8,0:0|0:0,0:0:0
256,248,32769,1,0,0:0:0
264,336,33015,6,0,P|368:336,1,90,2|0,0:0|0:0,0:0:0
400,336,33384,1,0,0:0:0
448,336,33507,2,0,P|480:240,1,90,8|0,0:0|0:0,0:0:0
472,160,33999,2,0,P|440:104|376:80,1,135,2|0,0:0|0:0,0:0:0
352,120,34490,1,8,0:0:0
304,200,34735,1,0,0:0:0
332,284,34981,6,0,P|272:332|180:300,1,180,2|8,0:0|0:0,0:0:0
100,340,35719,1,0,0:0:0
40,272,35965,2,0,P|32:224|48:176,1,90,2|0,0:0|0:0,0:0:0
88,104,36458,2,0,P|152:120|224:104,1,135,8|0,0:0|0:0,0:0:0
248,72,36949,6,0,P|336:60|396:120,1,180,2|8,0:0|0:0,0:0:0
464,180,37686,1,4,0:0:0
464,180,37933,2,0,P|472:228|464:276,1,90,2|0,0:0|0:0,0:0:0
288,328,38425,2,0,P|282:287|290:239,1,90,8|0,0:0|0:0,0:0:0
256,160,38917,6,0,P|164:160|96:216,1,180,2|8,0:0|0:0,0:0:0
56,288,39654,1,0,0:0:0
56,288,39900,2,0,P|132:332|224:312,1,180,0|8,0:0|0:0,0:0:0
300,352,40638,5,0,0:0:0
352,352,40761,1,0,0:0:0
400,352,40884,2,0,P|476:316|456:236,1,180,2|8,0:0|0:0,0:0:0
380,192,41621,1,0,0:0:0
400,32,41867,2,0,P|476:68|456:148,1,180,2|8,0:0|0:0,0:0:0
272,176,42851,6,0,P|220:164|216:112|216:112|172:88|132:104,1,180,2|8,0:0|0:0,0:0:0
64,152,43589,1,0,0:0:0
32,232,43835,1,2,0:0:0
32,232,43958,1,0,0:0:0
32,232,44080,2,0,P|64:320,1,90,0|8,0:0|0:0,0:0:0
136,368,44572,1,0,0:0:0
228,356,44818,6,0,P|316:372|404:356,1,180,0|8,0:0|0:0,0:0:0
472,288,45556,2,0,P|384:272|296:288,1,180
232,352,46294,1,8,0:0:0
256,176,46785,6,0,P|184:120|96:120,1,180,2|8,0:0|0:0,0:0:0
104,208,47523,1,0,0:0:0
40,272,47769,2,0,P|112:328|200:328,1,180,2|8,0:0|0:0,0:0:0
256,256,48507,1,0,0:0:0
256,192,48753,12,0,49736,0:0:0
56,192,56621,6,0,P|96:112|192:88,1,180,4|8,0:0|0:0,0:0:0
177,85,57359,1,2,0:0:0
177,85,57851,1,0,0:0:0
256,136,58097,1,8,0:0:0
256,136,58343,1,0,0:0:0
256,136,58589,2,0,P|344:144|376:64,1,180,2|8,0:0|0:0,0:0:0
288,56,59326,1,0,0:0:0
288,56,59572,2,0,P|328:128|424:128,1,180,2|8,0:0|0:0,0:0:0
416,40,60310,1,0,0:0:0
416,40,60556,6,0,P|352:88|320:184,1,180,2|8,0:0|0:0,0:0:0
408,192,61294,2,0,P|440:288,1,90,0|2,0:0|0:0,0:0:0
374,364,61785,2,0,P|344:280,1,90,0|8,0:0|0:0,0:0:0
256,248,62277,1,0,0:0:0
192,312,62523,2,0,P|88:304|72:232,1,180,2|8,0:0|0:0,0:0:0
160,232,63261,1,0,0:0:0
160,232,63507,1,2,0:0:0
88,64,63999,5,8,0:0:0
172,36,64244,1,0,0:0:0
256,64,64490,2,0,P|352:64|384:136,1,180,4|8,0:0|0:0,0:0:0
296,144,65228,1,0,0:0:0
296,144,65720,5,0,0:0:0
296,144,65843,1,0,0:0:0
296,144,65966,2,0,P|232:208,1,90,8|0,0:0|0:0,0:0:0
144,184,66458,2,0,P|152:272|232:296,1,180,4|8,0:0|0:0,0:0:0
304,344,67195,1,0,0:0:0
392,328,67441,2,0,P|432:304|448:256,1,90,2|0,0:0|0:0,0:0:0
460,176,67933,5,8,2:2:0
400,108,68179,1,0,0:0:0
312,112,68425,2,0,P|224:108|148:156,2,180,4|8|2,0:0|0:0|0:0,0:0:0
400,108,69654,1,0,0:0:0
368,192,69900,2,0,P|336:216|328:272,1,90,8|0,0:0|0:0,0:0:0
416,264,70392,2,0,P|384:336|288:344,1,180,2|8,0:0|0:0,0:0:0
256,264,71130,1,0,0:0:0
256,264,71376,1,2,0:0:0
220,344,71621,5,0,0:0:0
220,344,71744,1,0,0:0:0
220,344,71867,2,0,P|172:336|132:320,1,90,12|0,0:0|0:0,0:0:0
44,312,72359,2,0,P|36:224|76:144,1,180,4|8,0:0|0:0,0:0:0
192,24,73343,5,2,0:0:0
256,88,73589,1,0,0:0:0
320,24,73835,2,0,P|408:48|448:128,1,180,8|2,0:0|0:0,0:0:0
384,192,74572,1,0,0:0:0
456,248,74818,2,0,P|392:312,1,90,8|0,0:0|0:0,0:0:0
240,360,75310,2,0,P|304:296,1,90,2|0,0:0|0:0,0:0:0
288,208,75802,5,8,0:0:0
232,136,76048,1,0,0:0:0
152,104,76294,2,0,P|72:136|88:232,1,180,4|8,0:0|0:0,0:0:0
168,232,77031,2,0,P|136:312|40:296,1,180
75,220,77769,6,0,P|56:176|80:128,1,90,8|0,0:0|0:0,0:0:0
152,168,78261,1,2,0:0:0
152,168,78384,1,0,0:0:0
152,168,78507,2,0,P|208:96,1,90,0|8,0:0|0:0,0:0:0
256,172,78999,1,0,0:0:0
256,260,79244,5,2,0:0:0
316,328,79490,1,0,0:0:0
400,304,79736,2,0,P|448:296|480:264,1,90,8|0,0:0|0:0,0:0:0
408,216,80228,2,0,P|320:176|312:80,1,180,4|8,0:0|0:0,0:0:0
224,56,80966,6,0,P|144:112,1,90,0|2,0:0|0:0,0:0:0
106,238,81458,2,0,P|184:192,1,90,0|8,0:0|0:0,0:0:0
256,240,81949,1,0,0:0:0
256,240,82072,1,0,0:0:0
256,240,82195,2,0,P|328:288|416:264,1,180,2|8,0:0|0:0,0:0:0
396,176,82933,1,0,0:0:0
372,88,83179,5,2,0:0:0
280,104,83425,1,0,0:0:0
208,48,83671,1,8,0:0:0
144,112,83917,1,0,0:0:0
88,176,84162,2,0,P|56:260|112:320,1,180,4|8,0:0|0:0,0:0:0
192,336,84900,1,0,0:0:0
284,332,85146,2,0,P|372:332|448:284,1,180,2|8,0:0|0:0,0:0:0
500,212,85884,1,0,0:0:0
464,128,86130,2,0,P|400:64|312:52,1,180,0|8,0:0|0:0,0:0:0
256,200,87113,5,2,0:0:0
184,144,87359,1,0,0:0:0
184,144,87482,1,2,0:0:0
184,144,87605,1,8,0:0:0
112,200,87851,1,2,0:0:0
112,200,88097,2,0,P|56:220|8:192|8:192|-4:268,1,180,4|8,0:0|0:0,0:0:0
80,300,88835,1,0,0:0:0
252,344,89326,5,2,0:0:0
340,336,89572,2,0,P|408:320|460:276,1,135,8|0,0:0|0:0,0:0:0
484,256,90064,2,8,P|516:176|484:88,2,180,2|8|2,0:0|0:0|0:0,0:0:0
440,168,91294,5,2,0:0:0
352,192,91540,2,0,P|288:120,1,90,12|0,0:0|0:0,0:0:0
148,84,92031,2,0,P|208:152,1,90,4|0,0:0|0:0,0:0:0
208,200,92400,1,0,0:0:0
208,248,92523,2,0,P|144:312,1,90,8|0,0:0|0:0,0:0:0
64,264,93015,6,0,P|8:184|16:128,1,135,2|0,0:0|0:0,0:0:0
32,112,93507,2,0,P|100:132|160:112,1,135,8|0,0:0|0:0,0:0:0
200,88,93999,2,0,P|280:56|368:88,1,180,2|8,0:0|0:0,0:0:0
416,160,94736,1,0,0:0:0
416,160,94859,1,0,0:0:0
416,160,94982,2,0,P|424:272,1,90,2|0,0:0|0:0,0:0:0
368,328,95474,5,8,0:0:0
280,304,95720,1,0,0:0:0
200,264,95966,2,0,P|112:264|88:344,1,180,4|8,0:0|0:0,0:0:0
176,336,96703,2,0,P|96:344|32:272,1,180
40,184,97440,1,8,0:0:0
112,128,97686,1,0,0:0:0
184,184,97933,6,0,P|272:216|352:176,1,180,4|8,0:0|0:0,0:0:0
304,104,98671,2,0,P|336:176|440:208,1,180,2|0,0:0|0:0,0:0:0
400,296,99407,1,8,0:0:0
312,320,99653,1,0,0:0:0
224,296,99900,6,0,P|120:288|80:224,1,180,4|8,0:0|0:0,0:0:0
152,168,100638,1,0,0:0:0
136,80,100884,2,0,P|232:64|288:128,1,180,2|8,0:0|0:0,0:0:0
288,208,101621,1,0,0:0:0
288,208,101867,2,0,P|320:288|416:304,1,180,2|8,0:0|0:0,0:0:0
456,232,102605,1,0,0:0:0
256,192,102851,12,2,104818,0:0:0
256,88,105310,5,2,0:0:0
176,128,105556,1,0,0:0:0
104,176,105802,2,0,P|72:216|72:272,1,90,4|0,0:0|0:0,0:0:0
186,347,106294,2,0,P|234:315|248:288,1,90,8|0,0:0|0:0,0:0:0
312,120,106785,2,0,P|264:152|250:179,1,90,2|0,0:0|0:0,0:0:0
416,240,107276,2,0,P|368:232|320:240,1,90,8|0,0:0|0:0,0:0:0
176,312,107769,6,0,P|216:328|272:312,1,90,2|0,0:0|0:0,0:0:0
224,248,108261,1,8,0:0:0
224,248,108507,1,0,0:0:0
200,160,108753,2,0,P|112:176|96:256,1,180,2|8,0:0|0:0,0:0:0
95,254,109490,1,0,0:0:0
152,328,109736,6,0,P|232:352|320:312,1,180,4|8,0:0|0:0,0:0:0
392,272,110474,1,0,0:0:0
479,260,110720,2,0,P|432:192|344:200,1,180,2|8,0:0|0:0,0:0:0
392,272,111458,1,0,0:0:0
436,348,111703,2,0,P|348:356|301:288,1,180,0|8,0:0|0:0,0:0:0
392,272,112441,1,0,0:0:0
392,272,112687,2,0,P|368:352|272:368,1,180,2|8,0:0|0:0,0:0:0
256,288,113425,1,0,0:0:0
104,200,113671,6,0,P|80:280|144:360,1,180,4|8,0:0|0:0,0:0:0
160,272,114407,1,0,0:0:0
200,192,114654,2,0,P|240:112,1,90,2|0,0:0|0:0,0:0:0
404,60,115146,2,0,P|360:48|312:56,1,90,8|0,0:0|0:0,0:0:0
96,144,115638,2,0,P|144:152|184:144,1,90,2|0,0:0|0:0,0:0:0
256,96,116130,5,8,0:0:0
336,136,116376,1,0,0:0:0
424,128,116621,2,0,P|448:192|424:256,1,135,2|0,0:0|0:0,0:0:0
384,256,117113,2,0,P|392:304|416:344,1,90,8|0,0:0|0:0,0:0:0
312,344,117605,6,0,P|216:344|144:304,1,180,0|8,0:0|0:0,0:0:0
60,276,118343,1,0,0:0:0
40,192,118589,2,0,P|80:128|176:104,1,180,2|8,0:0|0:0,0:0:0
336,56,119572,6,0,P|416:64|448:152,1,180,2|8,0:0|0:0,0:0:0
368,192,120310,1,0,0:0:0
448,235,120556,2,0,P|416:320|336:328,1,180,2|8,0:0|0:0,0:0:0
256,288,121294,1,0,0:0:0
176,336,121540,6,0,P|128:328|96:304,1,90,4|0,0:0|0:0,0:0:0
144,232,122031,2,0,P|96:192|64:184,1,90,8|0,0:0|0:0,0:0:0
72,96,122523,2,0,P|97:88|145:48,1,90,2|0,0:0|0:0,0:0:0
208,120,123015,1,8,0:0:0
256,40,123261,1,0,0:0:0
296,120,123507,6,0,P|352:144|400:200,1,135,2|0,0:0|0:0,0:0:0
400,248,123999,1,8,0:0:0
344,320,124244,1,0,0:0:0
256,344,124490,2,0,P|160:352|96:288,1,180,2|8,0:0|0:0,0:0:0
184,264,125228,1,0,0:0:0
120,200,125474,6,0,P|96:104|120:8,1,180,4|8,0:0|0:0,0:0:0
192,64,126212,1,0,0:0:0
192,64,126458,2,0,P|288:88|384:64,1,180,2|8,0:0|0:0,0:0:0
416,144,127195,1,0,0:0:0
448,224,127441,1,2,0:0:0
304,336,127933,1,8,0:0:0
304,336,128179,1,0,0:0:0
304,336,128425,2,0,P|208:336|152:280,1,180,2|8,0:0|0:0,0:0:0
80,224,129162,1,0,0:0:0
80,224,129408,6,0,P|160:184|80:96|184:72,1,180,4|8,0:0|0:0,0:0:0
256,96,130146,1,0,0:0:0
344,76,130392,2,0,P|429:95|349:183|429:223,1,180,2|8,0:0|0:0,0:0:0
350,344,131376,6,0,P|424:308|424:220,1,180,2|8,0:0|0:0,0:0:0
360,264,132112,1,0,0:0:0
304,192,132358,2,0,P|256:184|208:192,1,90,2|0,0:0|0:0,0:0:0
71,261,132851,2,0,P|119:269|160:264,1,90,8|0,0:0|0:0,0:0:0
214,189,133343,2,0,P|248:272|200:344,1,180,6|8,0:0|0:0,0:0:0
296,352,134080,2,0,P|208:344|128:296,1,180,2|0,0:0|0:0,0:0:0
72,232,134818,2,0,P|48:144|96:64,1,180,8|2,0:0|0:0,0:0:0
89,71,135802,5,8,0:0:0
168,112,136047,1,2,0:0:0
256,144,136294,1,2,0:0:0
336,104,136540,1,0,0:0:0
336,104,136661,1,2,0:0:0
336,104,136784,2,0,P|352:152|336:192,1,90,8|2,0:0|0:0,0:0:0
256,232,137277,6,0,P|320:288|408:256,1,180,4|8,0:0|0:0,0:0:0
336,104,138261,2,0,P|256:56|192:104,1,180,2|8,0:0|0:0,0:0:0
120,152,138999,1,0,0:0:0
40,184,139244,2,0,P|112:240|192:200,1,180,2|8,0:0|0:0,0:0:0
256,264,139982,5,0,0:0:0
328,312,140228,1,2,0:0:0
416,288,140474,1,0,0:0:0
464,216,140720,1,8,0:0:0
448,128,140966,1,0,0:0:0
384,64,141212,2,0,P|296:64|240:144,1,180,4|8,0:0|0:0,0:0:0
160,160,141949,1,0,0:0:0
72,152,142195,6,0,P|104:232|192:240,1,180,4|8,0:0|0:0,0:0:0
256,304,142933,1,0,0:0:0
323,241,143179,2,0,P|408:232|440:152,1,180,4|8,0:0|0:0,0:0:0
360,104,143917,1,0,0:0:0
360,104,144162,2,0,P|264:64,1,90,2|0,0:0|0:0,0:0:0
192,32,144654,5,8,0:0:0
192,32,144777,1,0,0:0:0
192,32,144900,1,0,0:0:0
104,32,145146,2,0,P|72:104|96:200,1,180,4|8,0:0|0:0,0:0:0
184,160,145883,1,2,0:0:0
184,248,146129,6,0,P|96:288,1,90,4|0,0:0|0:0,0:0:0
48,216,146621,1,8,0:0:0
64,128,146867,1,0,0:0:0
64,128,146990,1,0,0:0:0
64,128,147113,2,0,P|128:56|216:48,1,180,4|8,0:0|0:0,0:0:0
359,114,147850,2,0,P|312:104|264:112,1,90,0|2,0:0|0:0,0:0:0
151,187,148343,2,0,P|199:197|240:192,1,90,0|8,0:0|0:0,0:0:0
400,248,148835,2,0,P|360:240|312:248,1,90,0|2,0:0|0:0,0:0:0
256,192,149203,12,4,151048,0:0:0
256,96,151540,5,8,0:0:0
104,192,152031,1,2,0:0:0
168,256,152277,1,0,0:0:0
168,256,152400,1,2,0:0:0
168,256,152523,1,8,0:0:0
256,280,152769,1,0,0:0:0
344,256,153015,1,2,0:0:0
48,184,160146,6,0,P|120:224|208:176,1,180
282,129,160884,2,0,P|210:89|128:128,1,180,4|8,0:0|0:0,0:0:0
127,128,161621,1,2,0:0:0
127,128,162113,1,2,0:0:0
136,216,162359,2,0,P|160:248|216:256,1,90,8|2,0:0|0:0,0:0:0
256,336,162851,2,0,P|352:336|416:280,1,180,2|8,0:0|0:0,0:0:0
343,232,163589,1,0,0:0:0
424,192,163835,2,0,P|416:96|336:48,1,180,0|8,0:0|0:0,0:0:0
240,192,164818,6,0,P|180:132|88:112,1,180,4|8,0:0|0:0,0:0:0
36,184,165556,1,0,0:0:0
72,264,165802,2,0,P|128:320|224:312,1,180,2|8,0:0|0:0,0:0:0
256,232,166539,1,0,0:0:0
344,232,166785,2,0,P|328:184|280:152,1,90,2|0,0:0|0:0,0:0:0
208,160,167277,2,0,P|240:88|344:80,1,180,8|0,0:0|0:0,0:0:0
392,136,168015,5,0,0:0:0
392,136,168138,1,0,0:0:0
392,136,168261,1,8,0:0:0
432,216,168507,1,0,0:0:0
432,216,168630,1,0,0:0:0
432,216,168753,2,0,P|416:288|312:312,1,180,4|8,0:0|0:0,0:0:0
256,256,169490,1,0,0:0:0
88,192,169736,1,4,0:0:0
208,56,169982,6,0,P|184:88|176:136,1,90,0|8,0:0|0:0,0:0:0
352,168,170474,1,0,0:0:0
192,240,170720,1,4,0:0:0
352,328,170966,2,0,P|312:296|288:264,1,90,0|8,0:0|0:0,0:0:0
256,184,171458,1,0,0:0:0
288,264,171704,1,2,0:0:0
352,328,171950,2,0,P|376:288|384:240,1,90,0|8,0:0|0:0,0:0:0
336,168,172441,1,0,0:0:0
280,104,172687,6,0,P|232:88|176:112,1,90,4|0,0:0|0:0,0:0:0
67,169,173179,2,0,P|115:185|152:176,1,90,8|0,0:0|0:0,0:0:0
208,248,173671,2,0,P|272:312,1,90,2|0,0:0|0:0,0:0:0
424,352,174162,2,0,P|360:288,1,90,8|0,0:0|0:0,0:0:0
400,208,174654,2,0,P|384:128|296:64,1,180,2|8,0:0|0:0,0:0:0
256,144,175392,1,0,0:0:0
176,96,175638,2,0,P|88:56,1,90,2|0,0:0|0:0,0:0:0
40,128,176130,5,8,0:0:0
40,128,176376,1,0,0:0:0
40,128,176621,2,0,P|32:208|112:280,1,180,4|8,0:0|0:0,0:0:0
168,328,177358,1,2,0:0:0
168,328,177850,5,0,0:0:0
256,344,178097,2,0,P|304:352|352:344,1,90,8|0,0:0|0:0,0:0:0
432,258,178589,2,0,P|384:250|344:256,1,90,2|0,0:0|0:0,0:0:0
264,224,179079,1,8,0:0:0
224,144,179326,2,0,P|272:136|320:152,1,90,0|2,0:0|0:0,0:0:0
400,176,179817,1,0,0:0:0
376,88,180064,6,0,P|280:40,1,90,8|0,0:0|0:0,0:0:0
134,50,180556,2,0,P|216:88,1,90,2|0,0:0|0:0,0:0:0
256,168,181048,1,8,0:0:0
208,344,181540,6,0,P|104:320,1,90,2|0,0:0|0:0,0:0:0
48,210,182031,2,0,P|136:232,1,90,8|0,0:0|0:0,0:0:0
224,252,182523,2,0,P|320:252|400:204,1,180,2|8,0:0|0:0,0:0:0
428,128,183261,1,0,0:0:0
392,40,183507,2,0,P|288:32,1,90,2|0,0:0|0:0,0:0:0
256,112,183999,6,0,P|160:104,1,90,8|0,0:0|0:0,0:0:0
120,24,184490,2,0,P|168:104|120:184,1,180,4|8,0:0|0:0,0:0:0
80,104,185228,1,2,0:0:0
80,104,185720,1,0,0:0:0
80,104,185966,2,0,P|48:152|48:192,1,90,8|0,0:0|0:0,0:0:0
45,303,186458,2,0,P|112:264|128:168,1,180,4|8,0:0|0:0,0:0:0
128,168,187195,1,0,0:0:0
192,104,187441,2,0,P|272:64,1,90,2|0,0:0|0:0,0:0:0
440,56,187933,2,0,P|360:96,1,90,8|0,0:0|0:0,0:0:0
288,144,188425,6,0,P|312:232|384:280,1,180,4|8,0:0|0:0,0:0:0
440,208,189162,1,0,0:0:0
440,208,189408,2,0,P|464:296|408:360,1,180,2|8,0:0|0:0,0:0:0
384,280,190146,1,0,0:0:0
384,280,190392,2,0,P|289:299|221:347,1,180,2|8,0:0|0:0,0:0:0
128,328,191130,2,0,P|24:272,1,90,0|2,0:0|0:0,0:0:0
256,192,191498,12,2,193342,0:0:0
256,64,193834,5,2,0:0:0
88,120,194326,2,0,P|96:208|176:256,1,180,2|0,0:0|0:0,0:0:0
344,256,195310,2,0,P|415:208|423:120,1,180,2|0,0:0|0:0,0:0:0
336,120,196048,1,0,0:0:0
256,80,196294,2,0,P|152:40,1,90,2|0,0:0|0:0,0:0:0
88,88,196785,2,0,P|48:164|96:240,1,180,2|2,0:0|0:0,0:0:0
256,316,197769,5,2,0:0:0
348,316,198015,1,0,0:0:0
428,276,198261,2,0,P|452:192|412:112,1,180,2|2,0:0|0:0,0:0:0
332,68,198999,1,0,0:0:0
240,56,199245,2,0,P|152:64|88:136,2,180,2|2|2,0:0|0:0|0:0,0:0:0
240,56,200720,5,2,0:0:0
240,240,201212,1,2,0:0:0
232,328,201458,1,0,0:0:0
152,352,201704,1,2,0:0:0
152,352,201949,1,0,0:0:0
152,352,202195,6,0,P|56:352|32:272,1,180,4|2,0:0|0:0,0:0:0
120,264,202933,1,0,0:0:0
120,264,203179,2,0,P|136:216|128:168,1,90,2|0,0:0|0:0,0:0:0
48,208,203671,1,2,0:0:0
72,120,203917,1,0,0:0:0
160,88,204162,2,2,P|240:56|324:88,2,180
240,248,205638,5,2,0:0:0
296,320,205884,1,0,0:0:0
384,304,206130,2,0,P|456:272|464:176,1,180,2|0,0:0|0:0,0:0:0
384,216,206867,1,0,0:0:0
384,128,207113,2,0,P|312:80|224:96,1,180,2|2,0:0|0:0,0:0:0
160,160,207851,2,0,P|224:96,1,90,0|2,0:0|0:0,0:0:0
256,192,208220,12,0,209572,0:0:0
32,112,210064,6,0,P|152:120|184:64,1,180,4|8,0:0|0:0,0:0:0
96,56,210802,1,0,0:0:0
96,56,211048,2,0,P|120:152,1,90,2|0,0:0|0:0,0:0:0
223,270,211540,2,0,P|200:184,1,90,8|0,0:0|0:0,0:0:0
226,351,212031,2,0,P|296:304|284:216,1,180,2|8,0:0|0:0,0:0:0
264,128,212769,1,0,0:0:0
264,128,213015,2,0,P|356:116|420:60,1,180,2|8,0:0|0:0,0:0:0
420,60,213999,6,0,P|472:108|480:212,1,180,2|8,0:0|0:0,0:0:0
432,288,214736,1,0,0:0:0
352,336,214982,2,0,P|312:344|264:336,1,90,2|0,0:0|0:0,0:0:0
128,264,215474,2,0,P|176:272|216:264,1,90,8|0,0:0|0:0,0:0:0
304,264,215966,2,0,P|392:232|424:144,1,180,2|8,0:0|0:0,0:0:0
360,96,216704,1,0,0:0:0
360,96,216949,2,0,P|268:80|184:96,1,180,2|8,0:0|0:0,0:0:0
136,168,217687,5,0,0:0:0
184,248,217933,2,0,P|272:288,1,90,4|0,0:0|0:0,0:0:0
433,317,218425,2,0,P|352:280,1,90,8|0,0:0|0:0,0:0:0
264,152,218917,2,0,P|344:192,1,90,2|0,0:0|0:0,0:0:0
243,239,219408,2,0,P|168:288,1,90,8|0,0:0|0:0,0:0:0
34,262,219900,6,0,P|112:216,1,90,2|0,0:0|0:0,0:0:0
184,164,220392,1,8,0:0:0
256,108,220638,1,0,0:0:0
288,140,220761,1,0,0:0:0
324,164,220884,2,0,P|372:148|404:108,1,90,2|0,0:0|0:0,0:0:0
324,68,221376,1,8,0:0:0
200,192,221867,6,0,P|144:248|48:256,1,180,2|8,0:0|0:0,0:0:0
72,168,222605,1,0,0:0:0
72,168,222851,2,0,P|128:120|232:96,1,180,2|8,0:0|0:0,0:0:0
400,160,223835,6,0,P|440:224|400:320,1,180,2|8,0:0|0:0,0:0:0
480,360,224572,1,0,0:0:0
480,360,224818,2,0,P|408:312|312:320,1,180,2|8,0:0|0:0,0:0:0
256,248,225556,1,0,0:0:0
200,320,225802,6,0,P|120:264,1,90,4|0,0:0|0:0,0:0:0
38,124,226294,2,0,P|112:176,1,90,8|0,0:0|0:0,0:0:0
184,128,226785,2,0,P|224:72|288:64,1,135,2|0,0:0|0:0,0:0:0
320,96,227277,1,8,0:0:0
320,96,227523,1,0,0:0:0
296,184,227768,6,0,P|360:192|400:144|400:144|408:176|436:196,1,180,2|8,0:0|0:0,0:0:0
464,280,228507,1,0,0:0:0
400,344,228753,2,0,P|352:352|304:336,1,90,2|0,0:0|0:0,0:0:0
125,274,229245,2,0,P|189:258|256:272,1,135,8|0,0:0|0:0,0:0:0
304,280,229736,6,0,P|392:272|360:184|448:184,1,180,2|8,0:0|0:0,0:0:0
445,183,230473,1,0,0:0:0
445,183,230720,2,0,P|453:231|445:279,1,90,2|0,0:0|0:0,0:0:0
288,328,231212,2,0,P|282:287|290:239,1,90,8|0,0:0|0:0,0:0:0
360,184,231703,6,0,P|288:128|184:160,1,180,2|8,0:0|0:0,0:0:0
152,72,232441,1,0,0:0:0
152,72,232687,2,0,P|120:160|168:224,1,180,2|8,0:0|0:0,0:0:0
256,232,233425,5,0,0:0:0
256,320,233671,2,0,P|352:320|416:264,1,180,2|8,0:0|0:0,0:0:0
464,192,234408,1,0,0:0:0
413,115,234654,2,0,P|352:64|256:64,1,180,2|8,0:0|0:0,0:0:0
256,248,235638,6,0,P|184:288|80:272,1,180,0|8,0:0|0:0,0:0:0
48,200,236376,1,0,0:0:0
120,144,236622,1,2,0:0:0
120,144,236745,1,0,0:0:0
120,144,236867,2,0,P|192:72,1,90,0|8,0:0|0:0,0:0:0
256,32,237359,1,0,0:0:0
336,80,237605,6,0,P|408:120|400:224,1,180,4|8,0:0|0:0,0:0:0
496,224,238343,2,0,P|408:208|320:224,1,180
319,224,239080,1,8,0:0:0
168,128,239572,6,0,P|256:112|344:128,1,180,2|8,0:0|0:0,0:0:0
400,200,240310,1,0,0:0:0
344,264,240556,1,2,0:0:0
256,288,240802,1,0,0:0:0
256,288,240925,1,0,0:0:0
256,288,241048,1,8,0:0:0
256,200,241294,1,0,0:0:0
256,112,241540,6,0,P|208:104|168:112,1,90,4|0,0:0|0:0,0:0:0
56,200,242031,2,0,P|104:208|144:200,1,90,8|0,0:0|0:0,0:0:0
216,248,242523,2,0,P|264:328,1,90,2|0,0:0|0:0,0:0:0
403,369,243015,2,0,P|352:296,1,90,8|0,0:0|0:0,0:0:0
424,248,243507,2,0,P|344:208|272:256,2,180,2|8|2,0:0|0:0|0:0,0:0:0
448,336,244736,1,0,0:0:0
360,344,244982,6,0,P|312:352|256:344,1,90,8|0,0:0|0:0,0:0:0
135,276,245474,2,0,P|183:268|224:272,1,90,2|0,0:0|0:0,0:0:0
296,224,245966,2,0,P|232:144,1,90,8|0,0:0|0:0,0:0:0
247,25,246458,2,0,P|304:96,1,90,2|0,0:0|0:0,0:0:0
451,163,246949,2,0,P|392:96,1,90,8|0,0:0|0:0,0:0:0
464,256,247441,6,0,P|420:324|328:312,1,180,0|8,0:0|0:0,0:0:0
256,256,248179,1,0,0:0:0
176,296,248425,1,2,0:0:0
88,264,248671,1,0,0:0:0
64,176,248917,1,8,0:0:0
196,56,249408,6,0,P|212:104|256:120|256:120|300:104|316:56,1,180,4|8,0:0|0:0,0:0:0
316,60,250146,1,0,0:0:0
404,68,250391,1,2,0:0:0
440,144,250637,1,0,0:0:0
400,224,250884,2,0,P|384:328|320:336,1,180,8|2,0:0|0:0,0:0:0
280,264,251620,1,0,0:0:0
280,264,251867,2,0,P|328:336|264:376,2,180,8|2|8,0:0|0:0|0:0,0:0:0
112,200,253342,5,4,0:0:0
256,96,253834,1,8,0:0:0
336,64,254079,1,0,0:0:0
376,144,254325,1,2,0:0:0
376,144,254818,2,0,P|400:240,1,90,8|0,0:0|0:0,0:0:0
400,320,255310,5,4,0:0:0
400,320,255802,1,8,0:0:0
316,352,256048,1,0,0:0:0
232,320,256294,2,0,P|152:288|64:320,2,180,2|8|2,0:0|0:0|0:0,0:0:0
352,184,257769,6,0,P|424:120,1,90,8|0,0:0|0:0,0:0:0
419,124,258261,1,0,0:0:0
256,192,258753,2,0,P|184:256,1,90,8|0,0:0|0:0,0:0:0
28,307,259244,2,0,P|96:248,1,90,4|0,0:0|0:0,0:0:0
64,160,259736,1,8,0:0:0
104,80,259982,1,0,0:0:0
192,64,260228,2,0,P|280:104,1,90,2|0,0:0|0:0,0:0:0
352,152,260719,1,8,0:0:0
352,152,260965,1,0,0:0:0
392,72,261212,6,0,P|432:136|400:232,1,180,4|8,0:0|0:0,0:0:0
320,256,261949,1,0,0:0:0
320,256,262195,2,0,P|232:276|144:256,1,180,2|8,0:0|0:0,0:0:0
192,176,262933,1,0,0:0:0
192,176,263179,2,0,P|144:256|168:344,1,180,2|8,0:0|0:0,0:0:0
344,344,264162,5,4,0:0:0
352,344,264408,1,0,0:0:0
424,292,264654,1,8,0:0:0
432,288,264900,1,0,0:0:0
448,200,265146,6,0,P|400:136|304:152,1,180,4|8,0:0|0:0,0:0:0
256,224,265884,1,0,0:0:0
202,147,266130,2,0,P|112:136|64:200,1,180,2|8,0:0|0:0,0:0:0
152,216,266867,1,0,0:0:0
208,288,267113,2,0,P|128:336,1,90,2|0,0:0|0:0,0:0:0
304,280,267605,2,0,P|384:232,1,90,8|0,0:0|0:0,0:0:0
224,320,268097,2,0,P|144:368,1,90,2|0,0:0|0:0,0:0:0
40,328,268589,2,0,P|120:280,1,90,8|0,0:0|0:0,0:0:0
184,208,269080,5,4,0:0:0
184,208,269572,1,8,0:0:0
256,152,269818,1,0,0:0:0
232,64,270064,1,2,0:0:0
232,64,270556,1,8,0:0:0
408,64,271048,5,2,0:0:0
456,144,271294,1,0,0:0:0
456,232,271540,1,8,0:0:0
400,304,271785,1,0,0:0:0
400,304,272031,2,0,P|320:344|224:336,1,180,0|8,0:0|0:0,0:0:0
256,192,273014,12,2,274490,0:0:0
