osu file format v14

[General]
AudioFilename: 01. Believe.mp3
AudioLeadIn: 0
PreviewTime: 65007
Countdown: 0
SampleSet: Soft
StackLeniency: 0.7
Mode: 0
LetterboxInBreaks: 0
EpilepsyWarning: 1
WidescreenStoryboard: 1

[Editor]
DistanceSpacing: 1.6
BeatDivisor: 4
GridSize: 4
TimelineZoom: 1

[Metadata]
Title:Believe
TitleUnicode:Believe
Artist:Nishino Kana
ArtistUnicode:西野カナ
Creator:samplefish
Version:Insane
Source:
Tags:lanturn kuey
BeatmapID:778593
BeatmapSetID:336743

[Difficulty]
HPDrainRate:6
CircleSize:4
OverallDifficulty:6
ApproachRate:7
SliderMultiplier:1.3
SliderTickRate:1

[Events]
//Background and Video events
0,0,"thanksagainringating.jpg",0,0
//Break Periods
2,91433,103048
2,155009,166624
//Storyboard Layer 0 (Background)
Sprite,Background,Centre,"SB/Credits/samplefish.png",320,240 M,0,156199,156398,-242,304,141,310 F,0,156199,156398,0,1 S,0,156199,156398,0.1,0.6563289 M,0,156398,165537,141,310,162,308 F,0,156398,165537,1 S,0,156398,165537,0.6563289 M,0,165537,165935,162,308,164,-65 F,0,165537,165935,1,0 S,0,165537,165935,0.6563289,0.1
//Storyboard Layer 1 (Fail)
//Storyboard Layer 2 (Pass)
//Storyboard Layer 3 (Foreground)
//Storyboard Sound Samples

[TimingPoints]
637,397.350993377483,4,2,1,70,1,0
13352,-90.9090909090909,4,2,1,70,0,0
27656,-90.9090909090909,4,2,2,70,0,0
33617,-90.9090909090909,4,2,1,70,0,0
34014,-90.9090909090909,4,2,2,70,0,0
46332,-90.9090909090909,4,2,1,70,0,0
46729,-90.9090909090909,4,2,2,70,0,0
48617,-90.9090909090909,4,2,2,50,0,0
48716,-90.9090909090909,4,2,2,70,0,0
53087,-100,4,2,1,60,0,0
59345,-90.9090909090909,4,2,1,60,0,0
64213,-90.9090909090909,4,2,1,70,0,0
64511,-90.9090909090909,4,2,1,60,0,0
65802,-83.3333333333333,4,2,1,80,0,1
91233,-90.9090909090909,4,2,1,70,0,0
103948,-90.9090909090909,4,2,2,60,0,0
109908,-90.9090909090909,4,2,1,60,0,0
110305,-90.9090909090909,4,2,2,60,0,0
116663,-100,4,2,1,60,0,0
123021,-90.9090909090909,4,2,1,70,0,0
127789,-90.9090909090909,4,2,1,80,0,0
129378,-83.3333333333333,4,2,1,80,0,1
154809,-100,4,2,1,50,0,0
173882,-90.9090909090909,4,2,1,60,0,0
184213,-125,4,2,1,70,0,0
188186,-90.9090909090909,4,2,1,70,0,0
189776,-83.3333333333333,4,2,1,80,0,1
207259,-90.9090909090909,4,2,1,70,0,0
223153,-90.9090909090909,4,2,1,60,0,0
224742,-90.9090909090909,4,2,1,40,0,0
226332,-90.9090909090909,4,2,1,20,0,0
229113,-90.9090909090909,4,2,1,5,0,0

[Colours]
Combo1 : 152,189,245
Combo2 : 235,248,122
Combo3 : 162,252,80
Combo4 : 250,188,242

[HitObjects]
169,280,637,5,4,1:0:0:0:
220,204,836,2,0,P|258:190|295:193,1,65
368,218,1233,1,2,1:0:0:0:
355,307,1431,2,0,P|423:295|456:224,1,130,8|0,0:0|0:0,0:0:0:0:
321,124,2226,6,0,P|325:62|334:16,2,97.5,4|0|2,0:1|0:0|1:0,0:0:0:0:
331,214,3021,2,0,P|311:203|259:196,1,65,0|0,3:2|3:2,0:0:0:0:
198,251,3418,2,0,P|165:246|136:232,1,65,0|0,3:2|3:2,0:0:0:0:
50,168,3815,6,0,L|44:248,1,65,4|0,0:1|0:0,0:0:0:0:
140,145,4213,2,0,L|146:65,1,65,0|2,0:0|1:0,0:0:0:0:
50,168,4610,2,0,P|74:217|157:232,1,130,8|0,0:0|0:0,0:0:0:0:
292,139,5405,6,0,L|288:255,2,97.5,2|2|2,1:0|0:0|1:0,0:0:0:0:
352,83,6199,2,0,P|336:55|280:31,1,65,0|0,3:2|3:2,0:0:0:0:
370,161,6597,2,0,P|402:157|445:115,1,65,0|0,3:2|3:2,0:0:0:0:
505,89,6994,6,0,B|501:218,1,130,4|0,0:1|0:0,0:0:0:0:
413,245,7590,1,2,0:1:0:0:
364,322,7789,2,0,P|349:299|237:291,1,130,8|0,0:0|0:0,0:0:0:0:
82,340,8584,6,0,L|90:232,2,97.5,4|0|2,0:1|0:0|0:1,0:0:0:0:
167,256,9378,2,0,P|166:221|130:179,1,65,0|0,3:1|3:1,0:0:0:0:
65,163,9776,2,0,P|49:134|49:102,1,65,0|0,3:1|3:1,0:0:0:0:
145,103,10173,6,0,P|187:107|223:79,1,65,4|0,0:1|0:0,0:0:0:0:
284,50,10570,1,0,0:0:0:0:
368,16,10769,1,0,0:0:0:0:
413,95,10968,2,0,P|420:136|415:237,1,130,8|0,0:0|0:0,0:0:0:0:
227,337,11762,6,0,P|223:286|224:217,1,97.5,4|8,0:0|3:0,0:0:0:0:
239,211,12160,1,4,3:0:0:0:
342,111,12358,2,0,L|338:166,1,32.5,2|2,3:0|3:0,0:0:0:0:
205,48,12656,2,0,L|209:103,1,32.5,2|2,3:0|3:0,0:0:0:0:
239,211,12954,1,8,3:0:0:0:
342,111,13153,1,4,3:0:0:0:
205,48,13352,6,0,P|128:55|98:127,1,143.000004364014,4|8,0:1|0:0,0:0:0:0:
146,210,13948,1,4,0:0:0:0:
340,164,14345,2,0,P|364:204|364:256,1,71.5000021820069,4|8,0:0|0:0,0:0:0:0:
356,328,14742,1,0,0:0:0:0:
256,320,14941,6,0,P|240:316|180:308,1,71.5000021820069,4|0,0:0|0:0,0:0:0:0:
88,336,15338,1,8,0:0:0:0:
32,252,15537,2,0,P|40:183|100:149,1,143.000004364014,4|4,0:0|0:0,0:0:0:0:
196,180,16133,1,8,0:0:0:0:
268,112,16332,1,0,0:0:0:0:
344,176,16531,6,0,P|348:220|340:280,1,71.5000021820069,4|0,0:0|0:0,0:0:0:0:
252,280,16928,1,8,0:0:0:0:
256,164,17127,2,0,P|288:104|368:96,1,143.000004364014,4|4,0:0|0:0,0:0:0:0:
444,140,17723,1,8,0:0:0:0:
488,228,17921,1,0,0:0:0:0:
428,308,18120,6,0,P|408:300|284:292,1,143.000004364014,4|8,0:0|0:0,0:0:0:0:
200,340,18716,2,0,P|128:342|60:323,1,143.000004364014,4|4,0:0|0:0,0:0:0:0:
24,228,19312,1,8,0:0:0:0:
100,160,19511,1,0,0:0:0:0:
200,236,19709,6,0,P|196:180|208:76,1,143.000004364014,4|8,1:1|0:0,0:0:0:0:
292,40,20305,1,4,0:0:0:0:
444,168,20703,1,4,0:0:0:0:
400,256,20901,1,8,0:0:0:0:
316,204,21100,1,0,0:0:0:0:
240,272,21299,6,0,L|72:256,1,143.000004364014,4|8,0:0|0:0,0:0:0:0:
56,160,21895,2,0,L|198:146,1,143.000004364014,4|4,0:0|0:0,0:0:0:0:
300,200,22491,1,8,0:0:0:0:
420,116,22689,1,0,0:0:0:0:
420,116,22888,6,0,P|412:164|404:260,1,143.000004364014,4|8,0:1|0:0,0:0:0:0:
300,200,23484,1,4,0:0:0:0:
300,200,23683,2,0,P|308:152|316:56,1,143.000004364014,0|8,0:0|0:0,0:0:0:0:
200,156,24279,1,0,0:0:0:0:
200,156,24478,6,0,P|196:180|204:244,1,71.5000021820069,4|0,0:0|0:0,0:0:0:0:
300,200,24875,2,0,P|304:176|296:112,1,71.5000021820069,8|4,0:0|0:0,0:0:0:0:
272,288,25272,2,0,L|348:272,1,71.5000021820069,0|4,0:0|0:0,0:0:0:0:
199,226,25670,2,0,L|123:242,1,71.5000021820069,8|0,0:0|0:0,0:0:0:0:
272,288,26067,6,0,P|276:248|308:184,1,107.25000327301,2|8,1:0|3:0,0:0:0:0:
324,172,26464,1,4,3:0:0:0:
412,120,26663,2,0,L|416:64,1,35.7500010910034,2|2,3:0|3:0,0:0:0:0:
324,40,26961,2,0,L|328:96,1,35.7500010910034,2|2,3:0|3:0,0:0:0:0:
232,116,27259,2,0,L|236:60,2,35.7500010910034,8|8|4,3:0|3:0|3:0,0:0:0:0:
232,216,27656,6,0,P|164:192|76:184,1,143.000004364014,4|8,0:1|0:0,0:0:0:0:
32,104,28252,2,0,P|76:76|156:112,1,143.000004364014,2|2,0:1|0:1,0:0:0:0:
256,108,28848,2,0,L|260:32,1,71.5000021820069,8|0,0:0|0:0,0:0:0:0:
356,108,29246,6,0,P|352:168|356:264,1,143.000004364014,2|8,0:1|0:0,0:0:0:0:
388,344,29842,1,2,0:1:0:0:
184,256,30239,1,2,0:1:0:0:
104,316,30438,2,0,P|136:344|192:352,1,71.5000021820069,8|0,0:0|0:0,0:0:0:0:
264,336,30835,6,0,P|292:288|272:188,1,143.000004364014,2|8,0:1|0:0,0:0:0:0:
200,148,31431,2,0,P|192:104|104:88,1,143.000004364014,2|2,0:1|0:1,0:0:0:0:
56,172,32027,1,8,0:0:0:0:
136,232,32226,1,0,0:0:0:0:
200,148,32425,6,0,P|252:128|296:128,1,71.5000021820069,2|0,0:1|0:0,0:0:0:0:
328,196,32822,2,0,P|378:218|410:249,1,71.5000021820069,8|2,0:0|0:1,0:0:0:0:
404,320,33219,1,0,0:0:0:0:
316,352,33418,1,2,0:1:0:0:
264,272,33617,1,8,0:0:0:0:
372,120,34014,6,0,P|328:104|204:96,1,143.000004364014,2|8,0:1|0:0,0:0:0:0:
148,60,34610,2,0,P|159:130|160:201,1,143.000004364014,2|2,0:1|0:1,0:0:0:0:
92,264,35206,1,8,0:0:0:0:
136,348,35405,1,0,0:0:0:0:
224,324,35603,6,0,P|292:316|364:320,2,107.25000327301,2|0|2,0:1|0:0|0:1,0:0:0:0:
136,348,36398,2,0,P|116:352|48:348,1,71.5000021820069,0|2,0:0|0:1,0:0:0:0:
4,280,36795,1,8,0:0:0:0:
40,184,36994,1,0,0:0:0:0:
168,192,37193,6,0,P|188:128|128:64,1,143.000004364014,2|8,0:1|0:0,0:0:0:0:
92,144,37789,2,0,P|72:208|132:272,1,143.000004364014,2|2,0:1|0:1,0:0:0:0:
204,280,38385,1,8,0:0:0:0:
284,232,38584,1,0,0:0:0:0:
340,308,38782,6,0,B|416:316|416:316|464:252,1,143.000004364014,2|8,0:1|0:0,0:0:0:0:
492,176,39378,1,2,0:1:0:0:
464,88,39577,2,0,P|437:61|378:58,1,71.5000021820069,0|2,0:0|0:1,0:0:0:0:
340,120,39974,2,0,P|302:119|258:80,1,71.5000021820069,8|0,0:0|0:0,0:0:0:0:
284,208,40372,6,0,P|292:240|292:296,2,71.5000021820069,6|0|8,0:1|0:0|0:0,0:0:0:0:
196,164,40968,2,0,P|175:189|151:240,2,71.5000021820069,2|0|2,0:1|0:0|0:1,0:0:0:0:
276,116,41564,2,0,P|260:96|192:76,1,71.5000021820069,8|0,0:0|0:0,0:0:0:0:
128,96,41961,6,0,P|108:128|108:176,2,71.5000021820069,2|0|8,0:1|0:0|0:0,0:0:0:0:
196,164,42557,2,0,P|208:220|204:312,1,143.000004364014,2|2,0:1|0:1,0:0:0:0:
296,272,43153,2,0,P|332:288|352:324,1,71.5000021820069,8|0,0:0|0:0,0:0:0:0:
432,240,43550,6,0,B|440:188|432:136|432:136|452:136|476:156,1,143.000004364014,2|8,0:1|0:0,0:0:0:0:
344,152,44146,1,2,0:1:0:0:
268,100,44345,2,0,P|256:84|188:72,1,71.5000021820069,0|2,0:0|0:1,0:0:0:0:
204,160,44742,2,0,P|216:176|284:188,1,71.5000021820069,8|0,0:0|0:0,0:0:0:0:
344,152,45140,6,0,P|356:188|360:244,1,71.5000021820069,2|0,0:1|0:0,0:0:0:0:
352,312,45537,2,0,P|316:300|260:296,1,71.5000021820069,8|2,0:0|0:1,0:0:0:0:
200,340,45935,2,0,L|108:352,2,71.5000021820069,0|2|8,0:0|0:1|0:0,0:0:0:0:
56,220,46729,6,0,B|60:160|28:124|28:124|80:88,1,143.000004364014,2|8,0:1|0:0,0:0:0:0:
148,132,47325,2,0,P|216:136|256:72,1,143.000004364014,2|2,0:1|0:1,0:0:0:0:
344,52,47921,2,0,P|356:88|356:132,1,71.5000021820069,8|0,0:0|0:0,0:0:0:0:
296,188,48319,6,0,L|304:324,1,107.25000327301,2|0,0:1|0:0,0:0:0:0:
328,272,48716,2,0,P|356:260|420:256,1,71.5000021820069,8|2,0:0|0:1,0:0:0:0:
368,344,49113,2,0,P|300:352|248:280,1,143.000004364014,0|8,0:0|0:0,0:0:0:0:
260,208,49709,1,0,0:0:0:0:
324,140,49908,6,0,L|424:132,1,71.5000021820069,2|0,0:1|0:0,0:0:0:0:
300,52,50305,2,0,L|200:44,1,71.5000021820069,8|2,0:0|0:1,0:0:0:0:
140,72,50703,2,0,P|124:136|172:200,2,143.000004364014,0|8|2,0:0|0:0|0:1,0:0:0:0:
364,216,51895,6,0,P|372:248|372:292,1,71.5000021820069,8|2,0:0|0:1,0:0:0:0:
284,264,52292,2,0,P|256:264|216:304,1,71.5000021820069,0|2,0:0|0:1,0:0:0:0:
176,372,52689,1,8,0:0:0:0:
104,316,52888,1,0,0:0:0:0:
144,224,53087,6,0,B|148:172|128:132|128:132|96:164,1,130,4|0,0:1|0:0,0:0:0:0:
36,236,53683,1,0,0:0:0:0:
104,316,53882,1,8,0:0:0:0:
284,212,54279,2,0,P|280:168|288:128,1,65,0|0,0:0|0:0,0:0:0:0:
376,124,54676,6,0,P|344:72|216:76,1,195,2|2,0:1|0:1,0:0:0:0:
128,40,55471,1,8,0:0:0:0:
48,224,55868,2,0,P|40:252|40:312,1,65,0|0,0:0|0:0,0:0:0:0:
136,272,56266,6,0,P|172:232|304:256,1,195,2|2,0:1|0:1,0:0:0:0:
224,312,57060,1,8,0:0:0:0:
412,312,57458,2,0,P|412:277|392:240,1,65,0|0,0:0|0:0,0:0:0:0:
312,208,57855,6,0,P|356:180|344:44,1,195,2|2,0:1|0:1,0:0:0:0:
280,116,58650,2,0,P|248:116|192:104,1,65,8|2,0:0|0:1,0:0:0:0:
148,200,59047,2,0,P|180:200|212:205,1,65,0|0,0:0|0:0,0:0:0:0:
312,208,59444,6,0,P|312:240|319:300,2,71.5000021820069,2|0|8,0:1|0:0|0:0,0:0:0:0:
416,236,60040,1,0,0:0:0:0:
480,148,60239,2,0,L|473:56,1,71.5000021820069,2|2,0:1|0:1,0:0:0:0:
368,52,60636,2,0,L|375:144,1,71.5000021820069,8|0,0:0|0:0,0:0:0:0:
416,236,61034,6,0,P|368:224|244:224,1,143.000004364014,2|8,0:1|0:0,0:0:0:0:
180,272,61630,1,0,0:0:0:0:
80,232,61829,2,0,P|56:240|12:268,2,71.5000021820069,2|2|8,0:1|0:1|0:0,0:0:0:0:
180,272,62425,1,0,0:0:0:0:
172,164,62623,6,0,P|168:124|172:68,1,71.5000021820069,2|0,0:1|0:0,0:0:0:0:
268,132,63021,2,0,P|272:172|268:228,1,71.5000021820069,0|0,3:0|3:0,0:0:0:0:
180,272,63418,1,2,0:1:0:0:
304,296,63617,1,2,0:1:0:0:
220,364,63815,1,2,3:0:0:0:
288,200,64014,1,2,0:1:0:0:
404,344,64213,5,4,0:0:0:0:
492,208,64511,2,0,L|496:140,1,35.7500010910034,4|8,3:0|0:3,0:0:0:0:
393,104,64809,2,0,L|396:140,1,35.7500010910034,2|2,3:0|0:3,0:0:0:0:
292,96,65107,2,0,L|284:40,1,35.7500010910034,2|8,3:0|3:0,0:0:0:0:
180,84,65405,2,0,P|144:96|72:72,1,107.25000327301,8|0,0:0|0:0,0:0:0:0:
120,136,65802,6,0,P|132:204|126:291,1,155.999995239258,4|8,0:1|0:0,0:0:0:0:
32,232,66398,1,4,0:0:0:0:
148,200,66597,2,0,P|203:191|252:192,1,77.999997619629,0|4,0:0|0:0,0:0:0:0:
280,284,66994,2,0,P|224:292|176:292,1,77.999997619629,8|0,0:0|0:0,0:0:0:0:
372,204,67391,6,0,P|367:240|364:304,1,77.999997619629,4|0,0:0|0:0,0:0:0:0:
424,120,67789,2,0,P|419:83|392:48,1,77.999997619629,8|4,0:0|0:0,0:0:0:0:
240,84,68186,2,0,P|275:99|299:129,1,77.999997619629,0|4,0:0|0:0,0:0:0:0:
256,224,68584,2,0,P|220:209|181:213,1,77.999997619629,8|0,0:0|0:0,0:0:0:0:
88,288,68981,6,0,P|84:212|60:132,1,155.999995239258,4|8,0:0|0:0,0:0:0:0:
4,40,69577,1,4,0:0:0:0:
112,52,69776,2,0,P|156:52|212:28,1,77.999997619629,0|4,0:0|0:0,0:0:0:0:
296,20,70173,2,0,L|304:120,1,77.999997619629,8|0,0:0|0:0,0:0:0:0:
272,200,70570,6,0,P|296:244|292:304,1,77.999997619629,4|0,0:0|0:0,0:0:0:0:
176,184,70968,2,0,P|190:135|235:96,1,77.999997619629,8|4,0:0|0:0,0:0:0:0:
192,276,71365,2,0,P|147:300|88:296,1,77.999997619629,0|4,0:0|0:0,0:0:0:0:
36,236,71762,1,8,0:0:0:0:
224,72,72160,6,0,P|308:56|396:52,1,155.999995239258,4|8,1:1|0:0,0:0:0:0:
460,124,72756,1,4,0:0:0:0:
392,208,72954,2,0,L|408:316,2,77.999997619629,0|4|8,0:0|0:0|0:0,0:0:0:0:
292,164,73550,1,0,0:0:0:0:
216,244,73749,6,0,P|184:244|140:196,1,77.999997619629,4|0,0:0|0:0,0:0:0:0:
100,120,74146,1,8,0:0:0:0:
8,180,74345,2,0,P|20:212|28:276,1,77.999997619629,4|0,0:0|0:0,0:0:0:0:
12,364,74742,1,4,0:0:0:0:
116,328,74941,2,0,P|168:312|216:324,1,77.999997619629,8|0,0:0|0:0,0:0:0:0:
288,364,75338,6,0,P|379:343|460:336,1,155.999995239258,4|8,0:0|0:0,0:0:0:0:
380,244,75935,1,4,0:0:0:0:
283,196,76133,2,0,P|267:188|183:192,1,77.999997619629,0|4,0:0|0:0,0:0:0:0:
140,268,76531,2,0,P|156:276|240:272,1,77.999997619629,8|0,0:0|0:0,0:0:0:0:
324,276,76928,6,0,P|368:224|328:124,1,155.999995239258,4|8,0:0|0:0,0:0:0:0:
244,128,77524,1,4,0:0:0:0:
244,128,77723,2,0,P|240:80|204:44,1,77.999997619629,0|4,0:0|0:0,0:0:0:0:
140,128,78120,1,8,0:0:0:0:
208,228,78319,1,0,0:0:0:0:
160,348,78517,6,0,P|228:312|320:320,1,155.999995239258,4|8,0:1|0:0,0:0:0:0:
408,352,79113,1,4,0:0:0:0:
480,268,79312,2,0,L|472:160,1,77.999997619629,0|4,0:0|0:0,0:0:0:0:
372,148,79709,2,0,L|364:256,1,77.999997619629,8|0,0:0|0:0,0:0:0:0:
260,260,80107,5,4,0:0:0:0:
112,100,80504,2,0,P|172:72|220:72,1,77.999997619629,8|4,0:0|0:0,0:0:0:0:
260,148,80901,2,0,P|200:176|152:176,1,77.999997619629,0|4,0:0|0:0,0:0:0:0:
84,204,81299,2,0,P|96:232|104:304,1,77.999997619629,8|0,0:0|0:0,0:0:0:0:
212,300,81696,6,0,P|304:292|336:356,1,155.999995239258,4|8,0:0|0:0,0:0:0:0:
404,252,82292,2,0,P|408:152|420:84,1,155.999995239258,4|4,0:0|0:0,0:0:0:0:
488,25,82888,2,0,P|510:57|512:96,1,77.999997619629,8|0,0:0|0:0,0:0:0:0:
328,56,83286,6,0,B|288:28|288:28|232:16|164:40,1,155.999995239258,4|8,0:0|0:0,0:0:0:0:
88,96,83882,1,4,0:0:0:0:
44,196,84080,2,0,P|40:240|64:296,2,77.999997619629,0|4|8,0:0|0:0|0:0,0:0:0:0:
88,96,84676,1,0,0:0:0:0:
188,208,84875,6,0,P|276:196|352:188,1,155.999995239258,4|8,0:0|0:0,0:0:0:0:
416,300,85471,2,0,P|328:312|252:320,1,155.999995239258,4|4,0:1|0:0,0:0:0:0:
152,344,86067,1,8,0:0:0:0:
60,256,86266,1,0,0:0:0:0:
188,208,86464,6,0,P|192:138|120:96,1,155.999995239258,4|8,0:0|0:0,0:0:0:0:
140,272,87060,2,0,P|208:288|263:228,1,155.999995239258,4|4,0:1|0:0,0:0:0:0:
288,124,87656,1,8,0:0:0:0:
384,72,87855,1,0,0:0:0:0:
448,160,88054,6,0,P|440:196|440:248,1,77.999997619629,4|8,0:0|3:0,0:0:0:0:
320,324,88451,2,0,P|328:288|328:236,1,77.999997619629,8|8,3:0|3:0,0:0:0:0:
288,124,88848,2,0,P|272:108|200:96,1,77.999997619629,4|4,3:0|3:0,0:0:0:0:
88,196,89246,1,4,3:0:0:0:
180,312,89444,1,4,3:0:0:0:
288,124,89643,5,4,0:0:0:0:
424,328,90040,2,0,P|428:236|444:160,1,155.999995239258,2|2,0:0|0:0,0:0:0:0:
316,16,90835,1,2,0:0:0:0:
256,192,91233,5,4,0:1:0:0:
280,168,103948,6,0,P|348:192|436:200,1,143.000004364014,4|8,0:1|0:0,0:0:0:0:
480,280,104544,2,0,P|436:308|356:272,1,143.000004364014,2|2,0:1|0:1,0:0:0:0:
256,276,105140,2,0,L|252:352,1,71.5000021820069,8|0,0:0|0:0,0:0:0:0:
164,200,105538,6,0,B|148:104|148:104|184:48,1,143.000004364014,2|8,0:1|0:0,0:0:0:0:
336,104,106133,1,2,0:1:0:0:
336,104,106730,2,0,L|412:92,1,71.5000021820069,8|0,3:0|0:0,0:0:0:0:
260,32,107127,6,0,P|232:80|268:168,1,143.000004364014,4|8,1:0|0:0,0:0:0:0:
312,236,107723,2,0,P|320:280|408:296,1,143.000004364014,2|2,0:1|0:1,0:0:0:0:
456,212,108319,1,8,0:0:0:0:
376,152,108518,1,0,0:0:0:0:
312,236,108717,6,0,P|260:256|216:256,1,71.5000021820069,2|0,0:1|0:0,0:0:0:0:
184,188,109114,2,0,P|134:166|102:135,1,71.5000021820069,8|2,0:0|0:1,0:0:0:0:
108,64,109511,1,0,0:0:0:0:
196,32,109710,1,2,0:1:0:0:
248,112,109909,1,8,0:0:0:0:
140,264,110306,6,0,P|184:280|308:288,1,143.000004364014,2|8,0:1|0:0,0:0:0:0:
364,324,110901,2,0,P|353:254|352:183,1,143.000004364014,2|2,0:1|0:1,0:0:0:0:
420,120,111498,1,8,0:0:0:0:
376,36,111697,1,0,0:0:0:0:
256,104,111895,6,0,P|188:112|116:108,2,107.25000327301,2|0|2,0:1|0:0|0:1,0:0:0:0:
376,36,112690,2,0,P|396:32|464:36,1,71.5000021820069,0|2,0:0|0:1,0:0:0:0:
508,104,113087,1,8,0:0:0:0:
472,184,113286,1,0,0:0:0:0:
344,192,113484,6,0,P|324:256|384:320,1,143.000004364014,2|8,0:1|0:0,0:0:0:0:
420,240,114081,2,0,P|440:176|380:112,1,143.000004364014,2|2,0:1|0:1,0:0:0:0:
308,104,114677,1,8,0:0:0:0:
228,152,114876,1,0,0:0:0:0:
172,76,115074,6,0,B|96:68|96:68|48:132,1,143.000004364014,2|8,0:1|0:0,0:0:0:0:
20,208,115670,1,2,0:1:0:0:
68,296,115868,2,0,P|103:310|158:290,1,71.5000021820069,0|2,0:1|0:1,0:0:0:0:
228,268,116266,2,0,P|263:263|295:277,1,71.5000021820069,8|0,0:0|0:0,0:0:0:0:
392,340,116663,6,0,P|388:280|396:196,1,130,4|0,0:1|0:0,0:0:0:0:
464,132,117259,1,2,0:1:0:0:
384,64,117458,1,8,0:0:0:0:
228,172,117855,2,0,P|232:216|224:256,1,65,0|0,0:0|0:0,0:0:0:0:
136,260,118252,6,0,P|168:312|296:308,1,195,2|2,0:1|0:1,0:0:0:0:
384,344,119047,1,8,0:0:0:0:
464,160,119444,2,0,P|472:132|472:72,1,65,0|0,0:0|0:0,0:0:0:0:
376,112,119842,6,0,P|340:152|208:128,1,195,2|2,0:1|0:1,0:0:0:0:
288,72,120636,1,8,0:0:0:0:
100,72,121034,2,0,P|100:107|120:144,1,65,0|0,0:0|0:0,0:0:0:0:
200,176,121431,6,0,P|156:204|168:340,1,195,2|2,0:1|0:1,0:0:0:0:
232,268,122226,2,0,P|264:268|320:280,1,65,8|0,0:0|0:0,0:0:0:0:
364,184,122623,2,0,P|332:184|300:179,1,65
200,176,123020,6,0,P|200:144|192:88,2,65,4|0|8,0:1|0:0|0:0,0:0:0:0:
96,148,123616,1,0,0:0:0:0:
32,236,123815,2,0,L|39:328,1,71.5000021820069,2|2,0:1|0:1,0:0:0:0:
144,332,124212,2,0,L|137:240,1,71.5000021820069,8|0,0:0|0:0,0:0:0:0:
96,148,124610,6,0,P|144:160|268:160,1,143.000004364014,2|8,0:1|0:0,0:0:0:0:
332,112,125206,1,0,0:0:0:0:
432,152,125405,2,0,P|456:144|500:116,2,71.5000021820069,2|2|8,0:1|0:1|0:0,0:0:0:0:
332,112,126001,1,0,0:0:0:0:
340,220,126199,6,0,P|344:260|340:316,1,71.5000021820069,2|0,0:1|0:0,0:0:0:0:
244,252,126597,2,0,P|240:212|244:156,1,71.5000021820069,8|8,3:0|3:0,0:0:0:0:
332,112,126994,1,4,3:0:0:0:
208,88,127193,1,4,3:0:0:0:
292,20,127391,1,4,3:0:0:0:
224,184,127590,1,4,3:0:0:0:
108,40,127789,5,2,1:0:0:0:
176,316,128584,1,0,0:0:0:0:
304,352,128782,2,0,P|303:312|300:268,1,71.5000021820069,2|8,1:0|0:0,0:0:0:0:
276,168,129180,1,0,0:0:0:0:
400,244,129378,6,0,P|388:176|394:89,1,155.999995239258,4|8,1:0|0:0,0:0:0:0:
480,152,129974,1,4,0:0:0:0:
364,184,130173,2,0,P|309:193|260:192,1,77.999997619629,0|4,0:0|0:0,0:0:0:0:
232,100,130570,2,0,P|288:92|336:92,1,77.999997619629,8|0,0:0|0:0,0:0:0:0:
140,180,130967,6,0,P|145:144|148:80,1,77.999997619629,4|0,0:0|0:0,0:0:0:0:
88,264,131365,2,0,P|93:301|120:336,1,77.999997619629,8|4,0:0|0:0,0:0:0:0:
272,288,131762,2,0,P|237:273|213:243,1,77.999997619629,0|4,0:0|0:0,0:0:0:0:
252,124,132160,2,0,P|288:139|327:135,1,77.999997619629,8|0,0:0|0:0,0:0:0:0:
452,80,132557,6,0,P|456:156|480:236,1,155.999995239258,4|8,0:0|0:0,0:0:0:0:
508,344,133153,1,4,0:0:0:0:
400,332,133352,2,0,P|356:332|300:356,1,77.999997619629,0|4,0:0|0:0,0:0:0:0:
216,364,133749,2,0,L|212:268,1,77.999997619629,8|0,0:0|0:0,0:0:0:0:
240,184,134146,6,0,P|216:140|220:80,1,77.999997619629,4|0,0:0|0:0,0:0:0:0:
336,200,134544,2,0,P|322:249|277:288,1,77.999997619629,8|4,0:0|0:0,0:0:0:0:
320,108,134941,2,0,P|365:84|424:88,1,77.999997619629,0|4,0:0|0:0,0:0:0:0:
476,148,135338,1,8,0:0:0:0:
288,312,135736,6,0,P|204:328|116:332,1,155.999995239258,4|8,1:0|0:0,0:0:0:0:
52,260,136332,1,4,0:0:0:0:
120,176,136530,2,0,L|104:68,2,77.999997619629,0|4|8,0:0|0:0|0:0,0:0:0:0:
220,220,137126,1,0,0:0:0:0:
296,140,137325,6,0,P|328:140|372:188,1,77.999997619629,4|0,0:0|0:0,0:0:0:0:
412,264,137722,1,8,0:0:0:0:
504,204,137921,2,0,P|492:172|484:108,1,77.999997619629,4|0,0:0|0:0,0:0:0:0:
500,20,138318,1,4,0:0:0:0:
396,56,138517,2,0,P|344:72|296:60,1,77.999997619629,8|0,0:0|0:0,0:0:0:0:
224,20,138914,6,0,P|133:41|52:48,1,155.999995239258,4|8,0:0|0:0,0:0:0:0:
132,140,139511,1,4,0:0:0:0:
229,188,139709,2,0,P|245:196|329:192,1,77.999997619629,0|4,0:0|0:0,0:0:0:0:
372,116,140107,2,0,P|356:108|272:112,1,77.999997619629,8|0,0:0|0:0,0:0:0:0:
188,108,140504,6,0,P|144:160|184:260,1,155.999995239258,4|8,0:0|0:0,0:0:0:0:
268,256,141100,1,4,0:0:0:0:
268,256,141299,2,0,P|272:304|308:340,1,77.999997619629,0|2,0:0|1:0,0:0:0:0:
372,256,141696,1,8,0:0:0:0:
304,156,141895,1,0,0:0:0:0:
352,36,142093,6,0,P|284:72|192:64,1,155.999995239258,4|8,1:0|0:0,0:0:0:0:
104,32,142689,1,4,0:0:0:0:
32,116,142888,2,0,L|40:224,1,77.999997619629,0|4,0:0|0:0,0:0:0:0:
140,236,143285,2,0,L|148:128,1,77.999997619629,8|0,0:0|0:0,0:0:0:0:
252,124,143683,5,4,0:0:0:0:
400,284,144080,2,0,P|340:312|292:312,1,77.999997619629,8|4,0:0|0:0,0:0:0:0:
252,236,144477,2,0,P|312:208|360:208,1,77.999997619629,0|4,0:0|0:0,0:0:0:0:
428,180,144875,2,0,P|416:152|408:80,1,77.999997619629,8|0,0:0|0:0,0:0:0:0:
300,84,145272,6,0,P|208:92|176:28,1,155.999995239258,4|8,0:0|0:0,0:0:0:0:
108,132,145868,2,0,P|104:232|92:300,1,155.999995239258,4|4,0:0|0:0,0:0:0:0:
23,358,146464,2,0,P|1:326|0:288,1,77.999997619629,8|0,0:0|0:0,0:0:0:0:
184,328,146862,6,0,P|232:344|352:352,1,155.999995239258,4|8,0:0|0:0,0:0:0:0:
424,288,147458,1,4,0:0:0:0:
468,188,147656,2,0,P|472:144|448:88,2,77.999997619629,0|4|8,0:0|0:0|0:0,0:0:0:0:
424,288,148252,1,0,0:0:0:0:
324,176,148451,6,0,P|236:188|160:196,1,155.999995239258,4|8,0:0|0:0,0:0:0:0:
96,84,149047,2,0,P|184:72|260:64,1,155.999995239258,4|4,1:0|0:0,0:0:0:0:
360,40,149643,1,8,0:0:0:0:
452,128,149842,1,0,0:0:0:0:
324,176,150040,6,0,P|320:246|392:288,1,155.999995239258,4|8,0:0|0:0,0:0:0:0:
372,112,150636,2,0,P|304:96|249:156,1,155.999995239258,4|4,1:0|0:0,0:0:0:0:
224,260,151232,1,8,0:0:0:0:
128,312,151431,1,0,0:0:0:0:
64,224,151630,6,0,P|72:188|72:136,1,77.999997619629,4|8,1:0|3:0,0:0:0:0:
192,60,152027,2,0,P|184:96|184:148,1,77.999997619629,8|8,3:0|3:0,0:0:0:0:
224,260,152424,2,0,P|240:276|312:288,1,77.999997619629,4|4,3:0|3:0,0:0:0:0:
412,176,152822,1,4,3:0:0:0:
308,68,153021,1,4,3:0:0:0:
224,260,153219,5,2,1:0:0:0:
88,56,153616,2,0,P|84:148|68:224,1,155.999995239258,2|2,0:0|0:0,0:0:0:0:
196,368,154411,1,2,0:0:0:0:
256,192,154809,5,4,1:0:0:0:
256,192,167524,5,4,1:0:0:0:
256,192,168319,2,0,P|248:172|136:148,1,130,8|0,0:0|0:0,0:0:0:0:
208,312,169113,6,0,P|296:288|404:284,1,195,2|2,1:0|1:0,0:0:0:0:
480,328,169908,1,8,0:0:0:0:
336,80,170703,6,0,P|324:64|200:52,1,130,2|0,1:0|0:0,0:0:0:0:
164,212,171497,2,0,P|176:228|300:240,1,130,8|0,0:0|0:0,0:0:0:0:
40,184,172292,6,0,P|40:216|54:274,2,65,2|8|8,1:0|3:0|3:0,0:0:0:0:
124,100,172888,2,0,P|124:68|110:10,2,65,4|8|8,3:0|3:0|3:0,0:0:0:0:
164,212,173484,2,0,P|200:212|250:194,1,65,4|4,3:0|3:0,0:0:0:0:
344,136,173882,6,0,L|356:224,1,71.5000021820069,4|0,1:0|0:0,0:0:0:0:
452,148,174279,1,8,0:0:0:0:
432,264,174478,2,0,P|376:300|276:272,1,143.000004364014,2|2,1:0|1:0,0:0:0:0:
240,196,175074,1,8,0:0:0:0:
76,352,175471,6,0,P|176:336|224:336,1,143.000004364014,2|8,1:0|0:0,0:0:0:0:
332,352,176067,2,0,P|348:252|348:204,1,143.000004364014,2|2,1:0|1:0,0:0:0:0:
248,152,176663,2,0,P|236:184|252:248,1,71.5000021820069,8|0,0:0|0:0,0:0:0:0:
340,108,177060,5,2,1:0:0:0:
112,72,177458,2,0,P|118:122|132:248,2,143.000004364014,8|2|8,0:0|0:0|0:0,0:0:0:0:
32,176,178451,1,0,0:0:0:0:
156,128,178650,6,0,P|196:116|252:108,1,71.5000021820069,2|8,1:0|3:0,0:0:0:0:
304,192,179047,2,0,P|339:185|373:174,1,71.5000021820069,8|2,3:0|1:0,0:0:0:0:
448,88,179444,1,2,1:0:0:0:
324,68,179643,1,8,3:0:0:0:
304,192,179842,1,2,1:0:0:0:
192,240,180040,1,2,1:0:0:0:
192,240,182623,6,0,P|280:248|300:296,1,143.000004364014,2|2,0:0|0:0,0:0:0:0:
256,48,183418,5,4,1:0:0:0:
228,300,184014,1,2,0:0:0:0:
316,348,184213,2,0,P|380:280|332:168,1,208,2|4,0:0|1:0,0:0:0:0:
152,184,185405,6,0,P|152:140|140:72,2,104,2|2|2,0:0|0:0|0:0,0:0:0:0:
80,320,186597,5,4,1:0:0:0:
308,280,187193,1,2,0:0:0:0:
308,280,187391,2,0,P|312:188|368:152,1,156,2|2,0:0|0:0,0:0:0:0:
360,336,188186,6,0,L|236:316,1,107.25000327301,2|8,1:0|3:0,0:0:0:0:
228,312,188584,1,4,3:0:0:0:
88,264,188782,2,0,L|100:316,1,35.7500010910034,4|4,3:0|3:0,0:0:0:0:
204,188,189080,2,0,L|192:240,1,35.7500010910034,8|4,3:0|3:0,0:0:0:0:
80,124,189378,1,8,0:0:0:0:
364,36,189776,6,0,P|358:99|360:216,1,155.999995239258,4|8,1:0|0:0,0:0:0:0:
436,288,190372,1,4,0:0:0:0:
324,340,190570,2,0,P|276:336|224:352,1,77.999997619629,0|4,0:0|0:0,0:0:0:0:
272,220,190968,1,8,0:0:0:0:
156,268,191166,1,0,0:0:0:0:
132,144,191365,6,0,P|168:68|248:64,1,155.999995239258,4|8,0:0|0:0,0:0:0:0:
348,104,191961,1,4,0:0:0:0:
416,208,192160,2,0,P|420:236|416:300,1,77.999997619629,0|4,0:0|0:0,0:0:0:0:
296,264,192557,2,0,P|292:236|296:172,1,77.999997619629,8|0,0:0|0:0,0:0:0:0:
344,332,192954,6,0,P|276:348|216:272,1,155.999995239258,4|8,0:0|0:0,0:0:0:0:
188,180,193550,1,4,0:0:0:0:
144,68,193749,2,0,P|124:60|48:52,1,77.999997619629,0|4,0:0|0:0,0:0:0:0:
112,162,194146,2,0,P|132:170|208:178,1,77.999997619629,8|0,0:0|0:0,0:0:0:0:
304,108,194544,6,0,P|293:187|297:275,1,155.999995239258,4|8,0:0|0:0,0:0:0:0:
388,336,195139,1,4,0:0:0:0:
276,368,195338,2,0,P|259:361|176:360,1,77.999997619629,0|4,0:0|0:0,0:0:0:0:
84,372,195736,1,8,0:0:0:0:
140,268,195935,1,0,0:0:0:0:
40,188,196133,6,0,P|52:108|116:84,1,155.999995239258,4|8,1:0|0:0,0:0:0:0:
216,156,196729,1,4,0:0:0:0:
320,80,196928,2,0,P|368:64|420:68,1,77.999997619629,0|4,0:0|0:0,0:0:0:0:
440,208,197325,2,0,P|394:185|360:145,1,77.999997619629,8|0,0:0|0:0,0:0:0:0:
320,264,197723,5,4,0:0:0:0:
164,92,198120,2,0,P|151:78|84:60,1,77.999997619629,8|4,0:0|0:0,0:0:0:0:
144,196,198517,2,0,P|161:196|231:159,1,77.999997619629,0|4,0:0|0:0,0:0:0:0:
312,120,198915,2,0,P|328:164|320:204,1,77.999997619629,8|0,0:0|0:0,0:0:0:0:
236,332,199312,6,0,P|280:280|372:288,1,155.999995239258,4|8,0:0|0:0,0:0:0:0:
460,348,199908,2,0,P|458:271|468:184,1,155.999995239258,4|2,0:0|1:0,0:0:0:0:
312,188,200504,1,8,0:0:0:0:
412,92,200703,1,0,0:0:0:0:
208,40,200901,6,0,P|196:112|200:204,1,155.999995239258,4|8,0:0|0:0,0:0:0:0:
132,288,201497,1,4,0:0:0:0:
236,340,201696,2,0,P|272:352|336:344,1,77.999997619629,0|4,0:0|0:0,0:0:0:0:
380,256,202093,2,0,P|344:244|280:252,1,77.999997619629,8|0,0:0|0:0,0:0:0:0:
408,336,202490,6,0,P|467:266|424:188,1,155.999995239258,4|8,2:0|0:0,0:0:0:0:
328,164,203087,2,0,B|260:168|208:156|208:156|172:192,1,155.999995239258,4|4,1:0|0:0,0:0:0:0:
152,296,203683,1,8,0:0:0:0:
252,356,203882,1,0,0:0:0:0:
268,244,204080,6,0,P|266:151|272:84,1,155.999995239258,4|8,0:0|0:0,0:0:0:0:
384,56,204676,2,0,P|385:148|380:216,1,155.999995239258,4|4,1:0|0:0,0:0:0:0:
352,324,205272,1,8,0:0:0:0:
268,244,205471,1,0,0:0:0:0:
184,324,205670,6,0,L|87:313,1,77.999997619629,4|8,0:0|3:0,0:0:0:0:
144,140,206067,2,0,P|155:183|160:252,1,77.999997619629,8|8,3:0|3:0,0:0:0:0:
128,128,206464,1,4,3:0:0:0:
256,56,206663,1,4,3:0:0:0:
256,192,206862,1,4,0:0:0:0:
396,228,207060,1,4,3:0:0:0:
256,344,207259,5,2,1:0:0:0:
128,128,207656,2,0,P|136:164|144:224,1,71.5000021820069,2|0,0:0|0:0,0:0:0:0:
240,156,208054,2,0,P|240:192|237:253,1,71.5000021820069,2|0,0:0|0:0,0:0:0:0:
344,208,208451,2,0,P|337:244|322:303,1,71.5000021820069,2|0,0:0|0:0,0:0:0:0:
256,344,208848,5,4,1:0:0:0:
152,316,209047,2,0,P|136:316|80:352,2,71.5000021820069,0|0|4,0:0|0:0|0:0,0:0:0:0:
256,344,209643,2,0,P|336:328|340:256,1,143.000004364014,8|0,0:0|0:0,0:0:0:0:
228,100,210438,6,0,P|236:140|240:216,2,107.25000327301,4|0|4,1:0|0:0|0:0,0:0:0:0:
124,80,211233,2,0,P|121:110|128:168,1,71.5000021820069,8|0,0:0|0:0,0:0:0:0:
164,248,211630,2,0,P|166:286|164:324,1,71.5000021820069
260,312,212027,6,0,P|340:292|336:224,1,143.000004364014,4|0,1:0|0:0,0:0:0:0:
332,136,212623,1,4,0:0:0:0:
440,140,212822,2,0,P|436:192|436:284,1,143.000004364014,8|0,0:0|0:0,0:0:0:0:
260,312,213617,6,0,P|224:304|140:296,2,107.25000327301,4|0|4,1:0|0:0|0:0,0:0:0:0:
360,344,214411,2,0,P|402:338|444:300,1,71.5000021820069,8|4,0:0|0:0,0:0:0:0:
412,216,214809,2,0,P|370:222|328:260,1,71.5000021820069,0|0,0:0|0:0,0:0:0:0:
260,312,215206,6,0,P|240:224|268:156,1,143.000004364014,4|0,1:0|0:0,0:0:0:0:
336,104,215802,1,4,0:0:0:0:
248,44,216001,2,0,B|220:16|176:24|176:24|152:112,1,143.000004364014,8|0,0:0|0:0,0:0:0:0:
172,300,216795,6,0,P|152:292|64:284,2,107.25000327301,2|0|2,1:0|0:0|1:0,0:0:0:0:
272,340,217590,2,0,L|284:240,1,71.5000021820069,8|0,0:0|0:0,0:0:0:0:
212,188,217987,2,0,L|200:88,1,71.5000021820069,0|0,0:0|0:0,0:0:0:0:
300,168,218385,6,0,P|368:136|384:56,1,143.000004364014,4|0,1:0|0:0,0:0:0:0:
284,64,218981,1,4,0:0:0:0:
204,136,219180,2,0,P|212:188|212:284,1,143.000004364014,8|0,0:0|0:0,0:0:0:0:
136,88,219974,6,0,P|168:60|240:64,1,107.25000327301,4|8,0:0|3:0,0:0:0:0:
248,68,220372,1,4,3:0:0:0:
328,168,220570,2,0,L|336:216,1,35.7500010910034,2|2,3:0|3:0,0:0:0:0:
184,216,220868,2,0,L|176:168,1,35.7500010910034,2|8,3:0|3:0,0:0:0:0:
256,312,221166,2,0,L|248:360,2,35.7500010910034,8|8|4,3:0|3:0|3:0,0:0:0:0:
256,192,221564,5,4,1:0:0:0:
256,192,221762,12,0,229113,0:0:0:0:
