osu file format v14

[General]
AudioFilename: 01. Believe.mp3
AudioLeadIn: 0
PreviewTime: 65007
Countdown: 0
SampleSet: Soft
StackLeniency: 0.7
Mode: 0
LetterboxInBreaks: 0
EpilepsyWarning: 1
WidescreenStoryboard: 1

[Editor]
DistanceSpacing: 1.3
BeatDivisor: 4
GridSize: 4
TimelineZoom: 1

[Metadata]
Title:Believe
TitleUnicode:Believe
Artist:Nishino Kana
ArtistUnicode:西野カナ
Creator:samplefish
Version:Hard
Source:
Tags:lanturn kuey
BeatmapID:747019
BeatmapSetID:336743

[Difficulty]
HPDrainRate:5
CircleSize:3.5
OverallDifficulty:5
ApproachRate:6
SliderMultiplier:1.2
SliderTickRate:1

[Events]
//Background and Video events
0,0,"thanksagainringating.jpg",0,0
//Break Periods
2,91433,102898
2,155009,166474
//Storyboard Layer 0 (Background)
Sprite,Background,Centre,"SB/Credits/samplefish.png",320,240 M,0,156199,156398,-242,304,141,310 F,0,156199,156398,0,1 S,0,156199,156398,0.1,0.6563289 M,0,156398,165537,141,310,162,308 F,0,156398,165537,1 S,0,156398,165537,0.6563289 M,0,165537,165935,162,308,164,-65 F,0,165537,165935,1,0 S,0,165537,165935,0.6563289,0.1
//Storyboard Layer 1 (Fail)
//Storyboard Layer 2 (Pass)
//Storyboard Layer 3 (Foreground)
//Storyboard Sound Samples

[TimingPoints]
637,397.350993377483,4,2,1,70,1,0
13352,-100,4,2,1,70,0,0
27656,-100,4,2,2,70,0,0
33617,-100,4,2,1,70,0,0
34014,-100,4,2,2,70,0,0
35901,-100,4,2,2,50,0,0
36001,-100,4,2,2,70,0,0
46332,-100,4,2,1,70,0,0
46729,-100,4,2,2,70,0,0
48617,-100,4,2,2,50,0,0
48716,-100,4,2,2,70,0,0
53087,-100,4,2,1,60,0,0
59345,-100,4,2,1,60,0,0
64213,-100,4,2,1,70,0,0
65802,-100,4,2,1,80,0,1
91233,-100,4,2,1,70,0,0
103948,-100,4,2,2,60,0,0
109908,-100,4,2,1,60,0,0
110305,-100,4,2,2,60,0,0
116663,-100,4,2,1,60,0,0
123021,-100,4,2,1,70,0,0
127789,-100,4,2,1,75,0,0
129378,-100,4,2,1,80,0,1
154809,-100,4,2,1,50,0,0
173882,-100,4,2,1,60,0,0
184213,-100,4,2,1,70,0,0
188186,-100,4,2,1,70,0,0
189776,-100,4,2,1,80,0,1
207259,-100,4,2,1,70,0,0
223153,-100,4,2,1,60,0,0
224742,-100,4,2,1,40,0,0
226332,-100,4,2,1,20,0,0
229113,-100,4,2,1,5,0,0

[Colours]
Combo1 : 152,189,245
Combo2 : 235,248,122
Combo3 : 162,252,80
Combo4 : 250,188,242

[HitObjects]
240,96,637,5,4,1:0:0:0:
312,140,835,2,0,L|372:136,1,60,0|0,0:0|0:0,0:0:0:0:
444,176,1233,1,2,1:0:0:0:
384,236,1431,2,0,B|368:276|368:276|392:312|392:364,1,120,8|0,0:0|0:0,0:0:0:0:
224,332,2226,6,0,P|204:324|116:344,2,90,4|0|2,0:1|0:0|1:0,0:0:0:0:
300,372,3021,2,0,P|310:323|260:256,1,120,0|0,3:2|3:2,0:0:0:0:
108,251,3815,6,0,P|98:158|87:104,1,120,4|0,0:1|0:0,0:0:0:0:
164,87,4411,1,2,1:0:0:0:
213,155,4610,2,0,P|286:156|319:113,1,120,8|0,0:0|0:0,0:0:0:0:
432,228,5405,6,0,L|426:346,2,90,4|2|2,1:0|0:0|0:1,0:0:0:0:
458,150,6199,2,0,P|434:139|387:131,1,60,0|0,3:2|3:2,0:0:0:0:
323,165,6597,2,0,P|293:158|266:146,1,60,0|0,3:2|3:2,0:0:0:0:
240,65,6994,6,0,P|201:89|192:180,1,120,4|0,0:1|0:0,0:0:0:0:
235,223,7590,1,2,0:1:0:0:
170,276,7789,2,0,P|158:275|38:271,1,120,8|0,0:0|0:0,0:0:0:0:
191,362,8584,6,0,P|212:362|290:365,2,90,4|0|2,0:1|0:0|0:1,0:0:0:0:
107,364,9378,2,0,P|93:329|96:285,1,60,0|0,3:1|3:1,0:0:0:0:
95,222,9776,2,0,P|105:185|134:152,1,60,0|0,3:1|3:1,0:0:0:0:
202,174,10173,6,0,P|262:173|312:112,1,120,4|0,0:1|0:0,0:0:0:0:
300,52,10769,1,2,0:1:0:0:
229,94,10968,2,0,L|276:228,1,120,8|0,0:0|0:0,0:0:0:0:
284,362,11762,6,0,P|313:348|358:346,1,60,4|8,0:0|3:0,0:0:0:0:
419,339,12160,2,0,P|422:268|432:198,1,120,8|8,3:0|3:0,0:0:0:0:
433,141,12756,1,4,3:0:0:0:
361,110,12954,2,0,L|361:58,2,30,8|0|4,3:0|0:0|3:0,0:0:0:0:
287,137,13352,6,0,P|263:141|159:125,1,120,4|8,0:1|0:0,0:0:0:0:
120,68,13948,2,0,B|72:88|72:88|84:124|75:155,1,120,4|4,0:0|0:0,0:0:0:0:
40,224,14544,1,8,0:0:0:0:
132,352,14941,6,0,P|164:312|244:308,1,120,4|8,0:0|0:0,0:0:0:0:
284,356,15537,2,0,P|343:342|408:344,1,120,4|4,0:0|0:0,0:0:0:0:
480,356,16133,1,8,0:0:0:0:
392,228,16531,6,0,L|404:84,1,120,4|8,0:0|0:0,0:0:0:0:
324,92,17127,2,0,L|312:236,1,120,4|4,0:0|0:0,0:0:0:0:
336,288,17723,1,8,0:0:0:0:
188,340,18120,6,0,P|156:300|88:284,1,120,4|8,0:0|0:0,0:0:0:0:
24,320,18716,1,4,0:0:0:0:
0,160,19113,1,4,0:0:0:0:
44,96,19312,1,8,0:0:0:0:
196,72,19709,6,0,L|188:196,1,120,4|8,1:1|0:0,0:0:0:0:
264,176,20305,1,4,0:0:0:0:
232,328,20703,2,0,P|268:316|296:324,1,60,4|8,0:0|0:0,0:0:0:0:
444,348,21299,6,0,P|436:280|440:224,1,120,4|8,0:0|0:0,0:0:0:0:
480,160,21895,2,0,P|449:148|368:190,1,120,4|4,0:0|0:0,0:0:0:0:
354,256,22491,1,8,0:0:0:0:
314,322,22689,1,0,0:0:0:0:
236,310,22888,6,0,P|222:307|104:314,1,120,4|8,0:1|0:0,0:0:0:0:
40,330,23484,1,4,0:0:0:0:
44,251,23683,2,0,L|37:118,1,120,0|8,0:0|0:0,0:0:0:0:
101,86,24279,1,0,0:0:0:0:
175,107,24478,6,0,P|209:96|244:92,1,60,4|0,0:0|0:0,0:0:0:0:
238,170,24875,2,0,P|204:181|169:185,1,60,8|4,0:0|0:0,0:0:0:0:
119,233,25272,2,0,P|130:275|137:362,1,120,0|8,0:0|0:0,0:0:0:0:
293,354,26067,6,0,P|322:340|367:338,1,60,4|8,0:0|3:0,0:0:0:0:
427,337,26465,2,0,B|433:263|433:263|419:212,1,120,8|8,3:0|3:0,0:0:0:0:
344,204,27061,1,4,3:0:0:0:
301,139,27259,2,0,L|249:153,2,30,8|0|4,3:0|0:0|3:0,0:0:0:0:
348,76,27656,6,0,P|323:51|229:45,1,120,4|8,0:1|0:0,0:0:0:0:
204,108,28252,2,0,L|72:92,1,120,2|2,0:1|0:1,0:0:0:0:
35,33,28848,1,8,0:0:0:0:
20,187,29246,6,0,B|46:228|46:228|41:254|38:320,1,120,2|8,0:1|0:0,0:0:0:0:
105,340,29842,1,2,0:1:0:0:
247,277,30239,2,0,P|274:271|322:272,1,60,2|8,0:1|0:0,0:0:0:0:
379,297,30636,1,0,0:0:0:0:
447,334,30835,6,0,P|470:288|452:205,1,120,2|8,0:1|0:0,0:0:0:0:
386,202,31431,2,0,P|376:143|401:89,1,120,2|2,0:1|0:1,0:0:0:0:
340,40,32027,2,0,P|316:35|256:36,1,60,8|0,0:0|0:0,0:0:0:0:
236,96,32425,6,0,L|252:176,1,60,2|0,0:1|0:0,0:0:0:0:
172,172,32822,2,0,L|188:252,1,60,8|2,0:0|0:1,0:0:0:0:
108,252,33219,2,0,L|124:332,1,60,0|2,0:0|0:1,0:0:0:0:
56,356,33617,1,8,0:0:0:0:
36,200,34014,6,0,P|100:164|152:176,1,120,2|8,0:1|0:0,0:0:0:0:
212,208,34610,2,0,P|270:212|319:179,1,120,2|2,0:1|0:1,0:0:0:0:
364,116,35206,2,0,P|360:72|360:32,1,60,8|0,0:0|0:0,0:0:0:0:
436,32,35603,6,0,P|440:60|444:148,1,90,2|0,0:1|0:0,0:0:0:0:
440,160,36001,2,0,P|440:192|448:236,1,60,8|2,0:0|0:1,0:0:0:0:
456,296,36398,2,0,L|380:292,1,60
330,334,36795,2,0,L|270:337,1,60,8|0,0:0|0:0,0:0:0:0:
220,276,37193,6,0,L|212:140,1,120,2|8,0:1|0:0,0:0:0:0:
292,156,37789,2,0,P|372:128|384:96,1,120,2|2,0:1|0:1,0:0:0:0:
308,80,38385,1,8,0:0:0:0:
264,228,38782,6,0,P|252:220|136:220,2,120,2|8|0,0:1|0:0|0:0,0:0:0:0:
296,300,39776,1,2,0:1:0:0:
372,280,39974,2,0,P|384:244|384:200,1,60,8|0,0:0|0:0,0:0:0:0:
336,160,40372,6,0,L|344:72,1,60,6|0,0:1|0:0,0:0:0:0:
272,68,40769,1,8,0:0:0:0:
204,104,40968,1,2,0:1:0:0:
136,64,41166,2,0,L|48:60,2,60,0|2|8,0:0|0:1|0:0,0:0:0:0:
136,144,41762,1,0,0:0:0:0:
204,180,41961,6,0,L|212:260,2,60,2|0|8,0:1|0:0|0:0,0:0:0:0:
280,200,42557,2,0,P|328:164|320:88,1,120,2|2,0:1|0:1,0:0:0:0:
280,48,43153,1,8,0:0:0:0:
124,68,43550,6,0,L|136:204,1,120,2|8,0:1|0:0,0:0:0:0:
56,196,44146,2,0,L|68:332,1,120,2|2,0:1|0:1,0:0:0:0:
140,344,44742,2,0,P|172:324|216:328,1,60,8|0,0:0|0:0,0:0:0:0:
264,356,45140,6,0,L|348:336,1,60,2|0,0:1|0:0,0:0:0:0:
320,264,45537,2,0,L|404:244,1,60,8|2,0:0|0:1,0:0:0:0:
364,172,45935,2,0,L|448:152,1,60,0|2,0:0|0:1,0:0:0:0:
500,144,46332,1,8,0:0:0:0:
356,88,46729,6,0,P|312:104|284:188,1,120,2|8,0:1|0:0,0:0:0:0:
316,236,47325,2,0,P|304:228|180:208,1,120,2|2,0:1|0:1,0:0:0:0:
144,256,47921,2,0,P|124:224|128:184,1,60,8|0,0:0|0:0,0:0:0:0:
156,132,48319,6,0,L|144:16,2,90,2|0|2,0:1|0:0|0:1,0:0:0:0:
232,112,49113,2,0,P|264:96|308:92,1,60,0|0,0:0|0:0,0:0:0:0:
368,92,49511,1,8,0:0:0:0:
420,152,49709,1,0,0:0:0:0:
372,216,49908,6,0,P|364:244|376:292,1,60,2|0,0:1|0:0,0:0:0:0:
364,352,50305,2,0,L|284:336,1,60,8|2,0:0|0:1,0:0:0:0:
228,316,50703,2,0,P|208:288|104:288,2,120,0|8|2,0:0|0:0|0:1,0:0:0:0:
272,168,51895,6,0,L|264:84,1,60,8|2,0:0|0:1,0:0:0:0:
192,88,52292,2,0,P|183:77|120:60,2,60,0|2|8,0:0|0:1|0:0,0:0:0:0:
192,168,52888,1,0,0:0:0:0:
272,168,53087,6,0,B|301:171|332:148|332:148|384:188|372:272,1,180,4|0,0:1|0:0,0:0:0:0:
348,324,53882,1,8,0:0:0:0:
192,340,54279,2,0,L|182:280,1,60,0|0,0:0|0:0,0:0:0:0:
104,272,54676,6,0,B|108:208|88:160|88:160|128:144|136:108,1,180,2|2,0:1|0:1,0:0:0:0:
64,80,55471,1,8,0:0:0:0:
220,64,55868,2,0,L|216:140,1,60,0|0,0:0|0:0,0:0:0:0:
216,204,56266,6,0,B|288:192|352:220|352:220|352:168,1,180,2|2,0:1|0:1,0:0:0:0:
320,108,57060,1,8,0:0:0:0:
468,160,57458,2,0,P|484:192|484:232,1,60,0|0,0:0|0:0,0:0:0:0:
468,292,57855,6,0,B|440:304|428:352|428:352|404:332|404:332|372:352|320:328,1,180,2|2,0:1|0:1,0:0:0:0:
268,292,58650,2,0,P|256:320|264:372,1,60,8|2,0:0|0:1,0:0:0:0:
180,324,59047,2,0,P|172:320|104:304,1,60,0|0,0:0|0:0,0:0:0:0:
44,312,59444,6,0,P|32:260|40:184,1,120,2|8,0:1|0:0,0:0:0:0:
156,92,60239,2,0,L|168:20,2,60,2|2|8,0:1|0:1|0:0,0:0:0:0:
144,168,60835,1,0,0:0:0:0:
208,216,61034,6,0,P|264:168|312:176,1,120,2|8,0:1|0:0,0:0:0:0:
376,206,61630,1,0,0:0:0:0:
432,260,61829,2,0,L|440:348,2,60,2|2|8,0:1|0:1|0:0,0:0:0:0:
458,186,62425,1,0,0:0:0:0:
432,112,62623,6,0,P|416:104|308:76,1,120,2|0,0:1|3:0,0:0:0:0:
260,132,63219,1,0,3:0:0:0:
220,200,63418,2,0,L|232:284,1,60,2|2,0:1|0:1,0:0:0:0:
152,252,63815,2,0,L|143:192,1,60,2|2,3:0|0:1,0:0:0:0:
136,116,64213,6,0,P|135:84|149:52,1,60,4|4,0:0|3:0,0:0:0:0:
222,56,64610,2,0,L|346:47,1,120,8|2,3:0|3:0,3:0:0:0:
367,120,65206,1,8,3:0:0:0:
348,196,65405,2,0,L|360:300,1,90,8|0,0:0|0:0,0:0:0:0:
364,324,65802,6,0,P|328:292|244:292,1,120,4|8,0:1|0:0,0:0:0:0:
216,352,66398,2,0,L|200:212,1,120,2|4,1:0|0:0,0:0:0:0:
189,155,66994,1,8,0:0:0:0:
175,78,67193,1,0,0:0:0:0:
116,129,67391,6,0,L|42:121,1,60,4|0,0:0|0:0,0:0:0:0:
68,200,67789,2,0,L|127:206,1,60,8|4,0:0|0:0,0:0:0:0:
189,155,68186,2,0,L|234:199,1,60,0|4,0:0|0:0,0:0:0:0:
309,182,68584,2,0,L|317:247,1,60,8|0,0:0|0:0,0:0:0:0:
282,311,68981,6,0,P|317:282|412:290,1,120,4|8,0:0|0:0,0:0:0:0:
460,310,69577,1,4,0:0:0:0:
490,238,69776,2,0,L|485:155,1,60,0|4,0:0|0:0,0:0:0:0:
409,162,70173,2,0,L|414:79,1,60,8|0,0:0|0:0,0:0:0:0:
471,50,70570,6,0,P|442:30|346:60,1,120,4|8,0:0|0:0,0:0:0:0:
333,114,71166,1,4,0:0:0:0:
288,178,71365,2,0,P|232:195|179:170,1,120,0|8,0:0|0:0,0:0:0:0:
333,114,72160,6,0,P|362:154|339:236,1,120,4|8,1:1|0:0,0:0:0:0:
286,262,72756,1,4,0:0:0:0:
209,248,72954,2,0,L|199:323,2,60,0|4|8,0:0|0:0|0:0,0:0:0:0:
253,183,73550,1,0,0:0:0:0:
173,173,73749,6,0,L|170:34,1,120,4|8,0:0|0:0,0:0:0:0:
247,64,74345,1,4,0:0:0:0:
320,38,74544,2,0,P|355:37|392:55,1,60,0|4,0:0|0:0,0:0:0:0:
365,122,74941,2,0,P|330:123|293:105,1,60,8|0,0:0|0:0,0:0:0:0:
247,64,75338,6,0,L|254:196,1,120,4|8,0:0|0:0,0:0:0:0:
259,262,75935,1,4,0:0:0:0:
303,325,76133,2,0,P|331:325|367:332,2,60,0|4|8,0:0|0:0|0:0,0:0:0:0:
225,333,76729,1,0,0:0:0:0:
180,268,76928,6,0,P|164:240|65:232,1,120,4|8,0:0|0:0,0:0:0:0:
107,295,77524,1,4,0:0:0:0:
165,346,77723,2,0,L|297:334,1,120,0|8,0:0|0:0,0:0:0:0:
355,302,78319,1,0,0:0:0:0:
437,310,78517,6,0,P|429:217|434:172,1,120,4|8,0:1|0:0,0:0:0:0:
456,116,79113,1,4,0:0:0:0:
401,59,79312,2,0,L|317:53,1,60,0|4,0:0|0:0,0:0:0:0:
305,124,79709,2,0,L|233:75,1,60,8|0,0:0|0:0,0:0:0:0:
235,14,80107,5,4,0:0:0:0:
111,108,80504,2,0,P|119:144|126:238,2,120,8|0|8,0:0|0:0|0:0,0:0:0:0:
50,251,81696,6,0,P|90:301|161:296,1,120,4|8,0:0|0:0,0:0:0:0:
201,253,82292,2,0,P|258:259|293:306,1,120,4|4,0:0|0:0,0:0:0:0:
300,228,82888,2,0,P|297:190|303:166,1,60,8|0,0:0|0:0,0:0:0:0:
371,132,83286,6,0,P|313:125|278:78,1,120,4|8,0:0|0:0,0:0:0:0:
353,57,83882,1,4,0:0:0:0:
427,79,84080,2,0,P|445:110|445:156,1,60,0|4,0:0|0:0,0:0:0:0:
407,200,84478,2,0,P|389:231|389:277,1,60,8|0,0:0|0:0,0:0:0:0:
421,323,84875,6,0,P|392:314|284:312,1,120,4|8,0:0|0:0,0:0:0:0:
234,346,85471,1,4,0:1:0:0:
172,202,85868,1,4,0:0:0:0:
120,143,86067,2,0,L|126:64,1,60,8|0,0:0|0:0,0:0:0:0:
199,105,86464,6,0,P|252:64|324:72,1,120,4|8,0:0|0:0,0:0:0:0:
373,97,87060,1,4,0:1:0:0:
439,238,87458,1,4,0:0:0:0:
398,304,87656,2,0,P|375:302|326:302,1,60,8|0,0:0|0:0,0:0:0:0:
263,325,88054,6,0,L|250:256,1,60,4|8,0:0|3:0,0:0:0:0:
175,248,88451,2,0,L|191:171,1,60,8|8,3:0|3:0,0:0:0:0:
259,160,88848,1,4,3:0:0:0:
243,83,89047,1,4,3:0:0:0:
166,69,89246,1,4,3:0:0:0:
130,137,89444,1,4,3:0:0:0:
187,189,89643,5,4,0:0:0:0:
318,105,90040,2,0,P|376:88|444:112,2,120,2|2|2,0:0|0:0|0:0,0:0:0:0:
375,250,91233,5,4,0:1:0:0:
164,308,103948,6,0,B|209:342|209:342|254:353|274:325,1,120,4|8,0:1|0:0,0:0:0:0:
266,253,104544,2,0,L|398:269,1,120,2|2,0:1|0:1,0:0:0:0:
446,316,105140,1,8,0:0:0:0:
483,164,105538,6,0,B|457:123|457:123|485:88|465:31,1,120,2|8,0:1|0:0,0:0:0:0:
395,73,106134,1,2,0:1:0:0:
162,95,106729,2,0,P|131:100|89:84,1,60,8|0,3:0|0:0,0:0:0:0:
48,37,107127,6,0,P|23:83|64:162,1,120,6|8,0:1|0:0,0:0:0:0:
116,166,107723,2,0,P|135:221|109:273,1,120,2|2,0:1|0:1,0:0:0:0:
151,339,108319,2,0,P|175:344|235:343,1,60,8|0,0:0|0:0,0:0:0:0:
274,300,108717,6,0,L|258:220,1,60,2|0,0:1|0:0,0:0:0:0:
338,224,109114,2,0,L|322:144,1,60,8|2,0:0|0:1,0:0:0:0:
402,144,109511,2,0,L|386:64,1,60,0|2,0:0|0:1,0:0:0:0:
454,40,109909,1,8,0:0:0:0:
474,196,110306,6,0,P|410:232|358:220,1,120,2|8,0:1|0:0,0:0:0:0:
304,177,110902,2,0,P|246:173|197:206,1,120,2|2,0:1|0:1,0:0:0:0:
148,268,111498,2,0,P|152:312|152:352,1,60,8|0,0:0|0:0,0:0:0:0:
76,352,111895,6,0,P|72:324|68:236,1,90,2|0,0:1|0:0,0:0:0:0:
72,224,112293,2,0,P|72:192|64:148,1,60,8|2,0:0|0:1,0:0:0:0:
28,100,112690,1,0,0:0:0:0:
164,20,113087,1,8,0:0:0:0:
292,108,113485,6,0,L|300:244,1,120,2|8,0:1|0:0,0:0:0:0:
220,228,114081,2,0,P|140:256|128:288,1,120,2|0,0:1|0:0,0:0:0:0:
204,304,114677,1,8,0:0:0:0:
356,270,115074,6,0,L|484:278,2,120,2|8|0,0:1|0:0|0:0,0:0:0:0:
379,195,116068,1,2,0:1:0:0:
326,137,116266,2,0,P|307:133|254:154,1,60,8|0,0:0|0:0,0:0:0:0:
240,216,116663,6,0,B|180:236|180:236|128:196|140:112,1,180,4|2,0:1|0:1,0:0:0:0:
164,60,117458,1,8,0:0:0:0:
320,44,117855,2,0,L|330:104,1,60,0|0,0:0|0:0,0:0:0:0:
408,112,118252,6,0,B|404:176|424:224|424:224|384:240|376:276,1,180,2|2,0:1|0:1,0:0:0:0:
448,304,119047,1,8,0:0:0:0:
292,320,119444,2,0,L|296:244,1,60,0|0,0:0|0:0,0:0:0:0:
296,180,119842,6,0,B|224:192|160:164|160:164|160:216,1,180,2|2,0:1|0:1,0:0:0:0:
192,276,120636,1,8,0:0:0:0:
44,224,121034,2,0,P|28:192|28:152,1,60,0|0,0:0|0:0,0:0:0:0:
44,92,121431,6,0,B|72:80|84:32|84:32|108:52|108:52|140:32|192:56,1,180,2|2,0:1|0:1,0:0:0:0:
244,92,122226,2,0,P|256:64|248:12,1,60,8|2,0:0|0:1,0:0:0:0:
332,60,122623,2,0,P|340:64|408:80,1,60,0|2,0:0|0:1,0:0:0:0:
468,72,123020,6,0,P|480:124|472:200,1,120,4|8,1:0|0:0,0:0:0:0:
356,292,123815,2,0,L|344:364,2,60,2|2|8,0:1|0:1|0:0,0:0:0:0:
368,216,124411,1,0,0:0:0:0:
304,168,124610,6,0,P|248:216|200:208,1,120,2|8,0:1|0:0,0:0:0:0:
136,180,125206,1,0,0:0:0:0:
80,124,125405,2,0,L|72:36,2,60,2|2|8,0:1|0:1|0:0,0:0:0:0:
56,196,126001,1,0,0:0:0:0:
80,272,126199,6,0,P|96:280|204:308,1,120,2|8,1:0|3:0,0:0:0:0:
252,252,126795,1,8,3:0:0:0:
292,184,126994,2,0,L|280:100,1,60,4|4,3:0|3:0,0:0:0:0:
360,132,127391,2,0,L|369:192,1,60,4|4,3:0|3:0,0:0:0:0:
380,268,127789,5,2,1:0:0:0:
69,300,128584,2,0,L|58:219,1,60,0|2,0:0|1:0,0:0:0:0:
125,197,128981,2,0,L|136:116,1,60,8|0,0:0|0:0,0:0:0:0:
148,60,129378,6,0,P|184:92|268:92,1,120,4|8,1:0|0:0,0:0:0:0:
296,32,129974,2,0,L|312:172,1,120,4|4,0:0|0:0,0:0:0:0:
323,229,130570,1,8,0:0:0:0:
337,306,130769,1,0,0:0:0:0:
396,255,130967,6,0,L|470:263,1,60,4|0,0:0|0:0,0:0:0:0:
444,184,131365,2,0,L|385:178,1,60,8|4,0:0|0:0,0:0:0:0:
323,229,131762,2,0,L|278:185,1,60,0|4,0:0|0:0,0:0:0:0:
203,202,132160,2,0,L|195:137,1,60,8|0,0:0|0:0,0:0:0:0:
230,73,132557,6,0,P|195:102|100:94,1,120,4|8,0:0|0:0,0:0:0:0:
52,74,133153,1,4,0:0:0:0:
22,146,133352,2,0,L|27:229,1,60,0|4,0:0|0:0,0:0:0:0:
103,222,133749,2,0,L|98:305,1,60,8|0,0:0|0:0,0:0:0:0:
130,353,134146,6,0,P|162:337|207:339,1,60,4|0,0:0|0:0,0:0:0:0:
261,356,134544,2,0,P|290:352|316:337,1,60,8|4,0:0|0:0,0:0:0:0:
370,280,134941,2,0,P|396:265|425:261,2,60,0|4|8,0:0|0:0|0:0,0:0:0:0:
219,320,135736,6,0,L|213:198,1,120,4|8,1:0|0:0,0:0:0:0:
226,122,136332,1,4,0:0:0:0:
303,136,136530,2,0,L|313:61,2,60,0|4|8,0:0|0:0|0:0,0:0:0:0:
259,201,137126,1,0,0:0:0:0:
339,211,137325,6,0,L|342:350,1,120,4|8,0:0|0:0,0:0:0:0:
265,320,137921,1,4,0:0:0:0:
192,346,138120,2,0,P|157:347|120:329,1,60,0|4,0:0|0:0,0:0:0:0:
147,262,138517,2,0,P|182:261|219:279,1,60,8|0,0:0|0:0,0:0:0:0:
265,320,138914,6,0,L|258:188,1,120,4|8,0:0|0:0,0:0:0:0:
253,122,139511,1,4,0:0:0:0:
209,59,139709,2,0,P|181:59|145:52,2,60,0|4|8,0:0|0:0|0:0,0:0:0:0:
287,51,140305,1,0,0:0:0:0:
332,116,140504,6,0,P|348:144|447:152,1,120,4|8,0:0|0:0,0:0:0:0:
405,89,141100,1,4,0:0:0:0:
347,38,141299,2,0,L|215:50,1,120,0|8,0:0|0:0,0:0:0:0:
157,82,141895,1,0,0:0:0:0:
75,74,142093,6,0,P|83:167|78:212,1,120,4|8,1:0|0:0,0:0:0:0:
56,268,142689,1,4,0:0:0:0:
111,325,142888,2,0,L|195:331,1,60,0|4,0:0|0:0,0:0:0:0:
207,260,143285,2,0,L|279:309,1,60,8|0,0:0|0:0,0:0:0:0:
277,370,143683,5,4,0:0:0:0:
401,276,144080,2,0,P|393:240|386:146,2,120,8|0|8,0:0|0:0|0:0,0:0:0:0:
462,133,145272,6,0,P|422:83|351:88,1,120,4|8,0:0|0:0,0:0:0:0:
311,131,145868,2,0,P|253:124|218:77,1,120,4|4,0:0|0:0,0:0:0:0:
212,156,146464,2,0,P|215:194|209:218,1,60,8|0,0:0|0:0,0:0:0:0:
141,252,146862,6,0,P|198:258|233:305,1,120,4|8,0:0|0:0,0:0:0:0:
159,327,147458,1,4,0:0:0:0:
85,305,147656,2,0,P|67:274|67:228,1,60,0|4,0:0|0:0,0:0:0:0:
105,184,148054,2,0,P|123:153|123:107,1,60,8|0,0:0|0:0,0:0:0:0:
91,61,148451,6,0,P|120:70|228:72,1,120,4|8,0:0|0:0,0:0:0:0:
278,38,149047,1,4,1:0:0:0:
340,182,149444,1,0,0:0:0:0:
392,241,149643,2,0,L|386:320,1,60,8|0,0:0|0:0,0:0:0:0:
313,279,150040,6,0,P|260:320|188:312,1,120,4|8,0:0|0:0,0:0:0:0:
139,287,150636,1,4,1:0:0:0:
73,146,151034,1,4,0:0:0:0:
114,80,151232,2,0,P|137:82|186:82,1,60,8|0,0:0|0:0,0:0:0:0:
249,59,151630,6,0,L|262:128,1,60,4|8,1:0|3:0,0:0:0:0:
337,136,152027,2,0,L|321:213,1,60,8|8,3:0|3:0,0:0:0:0:
253,224,152424,1,4,3:0:0:0:
269,301,152623,1,4,3:0:0:0:
346,315,152822,1,4,3:0:0:0:
382,247,153020,1,4,3:0:0:0:
325,195,153219,5,2,1:0:0:0:
194,279,153617,2,0,P|136:296|68:272,2,120,2|2|2,0:0|0:0|0:0,0:0:0:0:
137,134,154809,5,4,0:1:0:0:
138,297,167524,5,4,1:0:0:0:
429,185,168319,2,0,P|430:98|437:39,2,120,8|0|2,0:0|0:0|1:0,0:0:0:0:
240,323,169709,2,0,P|244:281|235:248,1,60,2|8,1:0|0:0,0:0:0:0:
88,81,170703,6,0,L|226:66,1,120,2|0,1:0|0:0,0:0:0:0:
279,206,171497,2,0,L|141:191,1,120,8|0,0:0|0:0,0:0:0:0:
28,277,172292,2,0,L|34:357,2,60,2|8|8,1:0|3:0|3:0,0:0:0:0:
79,218,172888,2,0,L|85:138,2,60,4|8|8,3:0|3:0|3:0,0:0:0:0:
107,290,173484,2,0,P|140:280|187:281,1,60,4|4,3:0|3:0,0:0:0:0:
243,287,173882,5,4,1:0:0:0:
394,323,174279,2,0,L|402:255,1,60,8|2,0:0|1:0,0:0:0:0:
490,135,174875,2,0,L|482:67,1,60,2|8,1:0|0:0,0:0:0:0:
335,127,175471,6,0,P|286:132|228:75,1,120,2|8,1:0|0:0,0:0:0:0:
207,15,176067,1,2,1:0:0:0:
80,105,176464,1,2,1:0:0:0:
132,163,176663,2,0,L|123:239,1,60,8|0,0:0|0:0,0:0:0:0:
116,300,177060,5,2,1:0:0:0:
264,252,177458,2,0,P|333:254|361:299,2,120,8|0|8,0:0|0:0|0:0,0:0:0:0:
116,300,178650,6,0,L|40:294,2,60,2|8|8,1:0|3:0|3:0,0:0:0:0:
179,254,179246,2,0,L|255:248,2,60,2|2|8,1:0|1:0|3:0,0:0:0:0:
115,208,179842,1,2,1:0:0:0:
150,138,180040,1,2,1:0:0:0:
150,138,182623,6,0,P|214:104|271:106,2,120,2|2|4,0:0|0:0|1:0,0:0:0:0:
270,339,184014,5,2,0:0:0:0:
347,350,184213,2,0,P|329:287|192:348,1,240,2|4,0:0|1:0,0:0:0:0:
54,248,185405,6,0,P|40:164|43:111,1,120,2|2,0:0|0:0,0:0:0:0:
177,53,186199,2,0,P|191:137|188:190,1,120,2|4,0:0|1:0,0:0:0:0:
347,350,187193,5,2,0:0:0:0:
416,314,187391,2,0,P|420:175|424:118,1,180,2|2,0:0|0:0,0:0:0:0:
370,191,188186,6,0,P|327:195|271:168,1,90,2|8,1:0|3:0,0:0:0:0:
253,154,188584,1,4,3:0:0:0:
202,213,188782,2,0,L|197:265,1,30,4|4,3:0|3:0,0:0:0:0:
273,265,189080,2,0,L|278:317,1,30,8|4,3:0|3:0,0:0:0:0:
214,343,189378,1,8,0:0:0:0:
103,232,189776,6,0,L|99:108,1,120,4|8,1:0|0:0,0:0:0:0:
142,47,190372,1,4,0:0:0:0:
218,58,190570,2,0,P|255:49|288:55,2,60,0|4|8,0:0|0:0|0:0,0:0:0:0:
180,126,191166,1,0,0:0:0:0:
243,171,191365,6,0,B|272:210|272:210|229:236|240:295,1,120,4|8,0:0|0:0,0:0:0:0:
270,339,191961,1,4,0:0:0:0:
348,339,192160,2,0,P|370:318|384:271,1,60,0|4,0:0|0:0,0:0:0:0:
354,218,192557,2,0,P|354:174|364:136,1,60,8|0,0:0|0:0,0:0:0:0:
424,120,192954,6,0,P|388:121|296:110,1,120,4|8,0:0|0:0,0:0:0:0:
240,64,193551,1,4,0:0:0:0:
211,136,193749,2,0,L|222:209,2,60,0|4|8,0:0|0:0|0:0,0:0:0:0:
141,99,194345,1,0,0:0:0:0:
137,177,194544,6,0,L|155:315,1,120,4|8,0:0|0:0,0:0:0:0:
205,353,195140,1,4,0:0:0:0:
232,280,195338,2,0,L|216:161,1,120,0|8,0:0|0:0,0:0:0:0:
253,91,195935,1,0,0:0:0:0:
310,150,196133,6,0,P|386:133|406:93,1,120,4|8,1:0|0:0,0:0:0:0:
330,75,196729,1,4,0:0:0:0:
253,91,196928,2,0,P|235:121|235:168,1,60,0|4,0:0|0:0,0:0:0:0:
268,213,197325,2,0,P|286:243|286:290,1,60,8|0,0:0|0:0,0:0:0:0:
261,340,197723,5,4,0:0:0:0:
110,298,198120,2,0,P|102:262|95:168,2,120,8|0|8,0:0|0:0|0:0,0:0:0:0:
172,154,199312,6,0,P|132:104|61:109,1,120,4|8,0:0|0:0,0:0:0:0:
94,179,199908,2,0,P|128:225|186:232,1,120,4|2,0:0|1:0,0:0:0:0:
248,185,200504,2,0,P|269:168|312:159,1,60,8|0,0:0|0:0,0:0:0:0:
364,204,200902,6,0,P|359:227|356:338,1,120,4|8,0:0|0:0,0:0:0:0:
425,356,201498,1,4,0:0:0:0:
483,304,201696,2,0,P|491:266|485:228,1,60,0|2,0:0|1:0,0:0:0:0:
444,181,202093,2,0,P|436:143|442:105,1,60,8|0,0:0|0:0,0:0:0:0:
506,83,202491,6,0,L|386:73,1,120,4|8,2:0|2:0,0:0:0:0:
314,43,203087,1,4,1:0:0:0:
181,124,203484,1,4,0:0:0:0:
224,189,203683,2,0,L|218:268,1,60,8|0,0:0|0:0,0:0:0:0:
297,251,204080,6,0,L|305:130,1,120,4|8,0:0|0:0,0:0:0:0:
248,76,204676,1,4,1:0:0:0:
108,147,205074,1,4,0:0:0:0:
70,214,205272,2,0,P|70:240|82:293,1,60,8|0,0:0|0:0,0:0:0:0:
143,313,205670,6,0,L|204:296,1,60,4|8,0:0|3:0,0:0:0:0:
233,225,206067,2,0,L|301:245,1,60,8|8,3:0|3:0,0:0:0:0:
347,294,206464,1,4,3:0:0:0:
415,256,206663,1,4,3:0:0:0:
392,181,206862,1,4,0:0:0:0:
443,122,207060,1,4,3:0:0:0:
510,161,207259,5,2,1:0:0:0:
365,102,207656,2,0,P|330:88|247:78,1,120,2|2,0:0|0:0,0:0:0:0:
126,175,208451,2,0,P|160:188|244:199,1,120,2|4,0:0|1:0,0:0:0:0:
320,203,209047,6,0,L|313:262,1,60,0|0,0:0|0:0,0:0:0:0:
368,318,209445,1,4,0:0:0:0:
297,350,209643,2,0,P|270:328|181:320,1,120,8|0,0:0|0:0,0:0:0:0:
117,178,210438,6,0,P|120:137|117:80,2,90,4|0|4,1:0|0:0|0:0,0:0:0:0:
52,222,211233,2,0,P|91:253|174:232,1,120,8|0,0:0|0:0,0:0:0:0:
269,137,212027,6,0,P|279:184|285:255,1,120,4|0,1:0|0:0,0:0:0:0:
248,324,212623,1,4,0:0:0:0:
325,331,212822,2,0,P|398:332|431:289,1,120,8|0,0:0|0:0,0:0:0:0:
419,144,213617,6,0,L|432:40,2,90,4|0|4,1:0|0:0|0:0,0:0:0:0:
406,220,214411,2,0,P|382:209|335:201,1,60,8|4,0:0|0:0,0:0:0:0:
281,242,214809,2,0,P|251:235|224:223,1,60,0|0,0:0|0:0,0:0:0:0:
173,163,215206,6,0,P|150:138|61:138,1,120,4|0,1:0|0:0,0:0:0:0:
25,198,215802,1,4,0:0:0:0:
103,205,216001,2,0,L|88:325,1,120,8|0,0:0|0:0,0:0:0:0:
232,264,216796,6,0,P|253:264|331:267,2,90,2|0|2,1:0|0:0|1:0,0:0:0:0:
170,311,217590,2,0,P|156:276|159:232,1,60,8|0,0:0|0:0,0:0:0:0:
203,192,217988,2,0,P|193:155|164:122,1,60,0|0,0:0|0:0,0:0:0:0:
104,120,218385,6,0,P|163:106|240:94,1,120,4|0,1:0|0:0,0:0:0:0:
291,131,218981,1,4,0:0:0:0:
368,138,219180,2,0,P|362:188|363:279,1,120,8|0,0:0|0:0,0:0:0:0:
260,376,219974,6,0,P|222:357|164:344,1,90,4|8,0:0|3:0,0:0:0:0:
137,349,220372,1,4,3:0:0:0:
101,279,220570,2,0,L|96:224,1,30,4|4,3:0|3:0,0:0:0:0:
90,171,220868,2,0,L|101:121,1,30,8|4,3:0|3:0,0:0:0:0:
165,104,221166,2,0,P|200:110|236:132,1,60,8|4,3:0|3:0,0:0:0:0:
256,192,221564,5,4,1:0:0:0:
256,192,221762,12,0,229113,0:0:0:0:
