osu file format v14

[General]
AudioFilename: 01. Believe.mp3
AudioLeadIn: 0
PreviewTime: 65007
Countdown: 0
SampleSet: Soft
StackLeniency: 0.7
Mode: 0
LetterboxInBreaks: 0
EpilepsyWarning: 1
WidescreenStoryboard: 1

[Editor]
DistanceSpacing: 1.9
BeatDivisor: 4
GridSize: 4
TimelineZoom: 1.7

[Metadata]
Title:Believe
TitleUnicode:Believe
Artist:Nishino Kana
ArtistUnicode:西野カナ
Creator:samplefish
Version:Believe
Source:
Tags:lanturn kuey
BeatmapID:745176
BeatmapSetID:336743

[Difficulty]
HPDrainRate:7
CircleSize:4
OverallDifficulty:7
ApproachRate:8
SliderMultiplier:1.4
SliderTickRate:1

[Events]
//Background and Video events
0,0,"thanksagainringating.jpg",0,0
//Break Periods
2,155009,166774
//Storyboard Layer 0 (Background)
//Storyboard Layer 1 (Fail)
//Storyboard Layer 2 (Pass)
//Storyboard Layer 3 (Foreground)
Sprite,Foreground,Centre,"SB/Credits/samplefish.png",320,240 M,0,156199,156398,-242,304,141,310 F,0,156199,156398,0,1 S,0,156199,156398,0.1,0.6563289 M,0,156398,165537,141,310,162,308 F,0,156398,165537,1 S,0,156398,165537,0.6563289 M,0,165537,165935,162,308,164,-65 F,0,165537,165935,1,0 S,0,165537,165935,0.6563289,0.1
//Storyboard Sound Samples

[TimingPoints]
637,397.350993377483,4,2,1,70,1,0
13352,-90.9090909090909,4,2,1,70,0,0
27656,-90.9090909090909,4,2,2,70,0,0
33617,-90.9090909090909,4,2,1,70,0,0
34014,-90.9090909090909,4,2,2,70,0,0
35901,-90.9090909090909,4,2,2,50,0,0
36001,-90.9090909090909,4,2,2,70,0,0
46332,-90.9090909090909,4,2,1,70,0,0
46729,-90.9090909090909,4,2,2,70,0,0
53087,-100,4,2,1,60,0,0
59345,-90.9090909090909,4,2,1,60,0,0
64213,-90.9090909090909,4,2,1,70,0,0
65802,-83.3333333333333,4,2,1,80,0,1
91233,-90.9090909090909,4,2,1,70,0,0
103948,-90.9090909090909,4,2,2,60,0,0
109908,-90.9090909090909,4,2,1,60,0,0
110305,-90.9090909090909,4,2,2,60,0,0
112193,-90.9090909090909,4,2,2,50,0,0
112292,-90.9090909090909,4,2,2,60,0,0
116663,-100,4,2,1,60,0,0
123021,-90.9090909090909,4,2,1,70,0,0
127789,-90.9090909090909,4,2,1,75,0,0
129378,-83.3333333333333,4,2,1,80,0,1
154809,-100,4,2,1,50,0,0
173882,-90.9090909090909,4,2,1,60,0,0
184213,-125,4,2,1,70,0,0
188186,-90.9090909090909,4,2,1,70,0,0
189776,-83.3333333333333,4,2,1,80,0,1
207259,-90.9090909090909,4,2,1,70,0,0
223153,-90.9090909090909,4,2,1,60,0,0
224742,-90.9090909090909,4,2,1,40,0,0
226332,-90.9090909090909,4,2,1,20,0,0
229113,-90.9090909090909,4,2,1,5,0,0

[Colours]
Combo1 : 152,189,245
Combo2 : 235,248,122
Combo3 : 162,252,80
Combo4 : 250,188,242

[HitObjects]
156,152,637,5,4,1:0:0:0:
216,236,836,2,0,P|212:280|212:336,1,70
280,152,1233,1,2,1:0:0:0:
172,60,1431,2,0,P|104:72|68:156,1,140,8|0,0:0|0:0,0:0:0:0:
292,140,2226,6,0,P|360:128|416:128,2,105,4|0|2,0:1|0:0|1:0,0:0:0:0:
204,264,3021,1,0,3:2:0:0:
217,253,3120,1,0,3:2:0:0:
234,247,3219,1,0,3:2:0:0:
251,245,3319,1,0,3:2:0:0:
268,249,3418,1,8,3:2:0:0:
284,257,3517,1,0,3:2:0:0:
296,269,3617,1,0,3:2:0:0:
305,284,3716,1,0,3:2:0:0:
309,301,3815,6,0,P|320:244|320:204,1,70,4|0,0:1|0:0,0:0:0:0:
228,112,4213,2,0,P|217:169|217:209,1,70,0|2,0:0|1:0,0:0:0:0:
320,88,4610,2,0,P|288:40|184:32,1,140,8|0,0:0|0:0,0:0:0:0:
128,220,5405,6,0,P|124:258|124:336,2,105,2|0|0,1:0|0:0|0:0,0:0:0:0:
216,180,6199,2,0,P|200:152|144:128,1,70,0|0,3:2|3:2,0:0:0:0:
216,272,6597,2,0,P|248:268|291:226,1,70,0|0,3:2|3:2,0:0:0:0:
384,148,6994,6,0,B|373:196|372:252|372:252|396:264|432:252,1,140,4|0,0:1|0:0,0:0:0:0:
496,248,7590,1,2,0:1:0:0:
440,344,7789,2,0,P|396:348|292:320,1,140,8|0,0:0|0:0,0:0:0:0:
88,184,8584,6,0,L|80:292,2,105,4|0|2,0:1|0:0|0:1,0:0:0:0:
208,224,9378,1,0,3:2:0:0:
208,210,9477,1,0,3:2:0:0:
209,197,9576,1,0,3:2:0:0:
210,184,9676,1,0,3:2:0:0:
211,171,9775,1,8,3:2:0:0:
212,158,9874,1,0,3:2:0:0:
213,145,9974,1,0,3:2:0:0:
214,132,10073,1,0,3:2:0:0:
215,119,10173,6,0,P|252:92|308:88,1,70,4|0,0:1|0:0,0:0:0:0:
368,112,10570,1,0,0:0:0:0:
336,208,10769,1,2,0:1:0:0:
468,168,10968,2,0,P|464:208|464:324,1,140,8|0,0:0|0:0,0:0:0:0:
272,336,11762,6,0,P|240:316|156:316,1,105,4|8,0:0|3:0,0:0:0:0:
148,332,12160,1,4,3:0:0:0:
36,240,12358,1,2,3:0:0:0:
36,240,12458,2,0,P|72:224|104:224,1,70,2|2,3:0|3:0,0:0:0:0:
136,228,12756,2,0,P|170:226|202:211,1,70,2|8,3:0|3:0,0:0:0:0:
192,116,13153,1,4,3:0:0:0:
302,267,13352,6,0,P|382:263|414:191,1,154.000004699707,4|8,0:1|0:0,0:0:0:0:
364,80,13948,1,4,0:0:0:0:
249,109,14146,1,0,0:0:0:0:
334,195,14345,1,4,0:0:0:0:
364,80,14544,1,8,0:0:0:0:
260,120,14742,1,0,0:0:0:0:
260,120,14842,1,0,0:0:0:0:
260,120,14941,6,0,P|224:124|164:108,1,77.0000023498536,4|0,0:0|0:0,0:0:0:0:
104,64,15338,1,8,0:0:0:0:
28,232,15537,2,0,P|116:216|184:212,1,154.000004699707,4|4,0:0|0:0,0:0:0:0:
156,312,16133,1,8,0:0:0:0:
296,256,16332,1,0,0:0:0:0:
296,256,16531,6,0,P|292:300|292:360,1,77.0000023498536,4|0,0:0|0:0,0:0:0:0:
392,268,16928,1,8,0:0:0:0:
216,176,17127,2,0,P|200:244|196:340,1,154.000004699707,4|4,0:0|0:0,0:0:0:0:
296,256,17723,1,8,0:0:0:0:
264,96,17921,1,0,0:0:0:0:
264,96,18021,1,0,0:0:0:0:
264,96,18120,6,0,P|195:88|125:168,1,154.000004699707,4|8,0:0|0:0,0:0:0:0:
344,168,18716,2,0,P|412:175|482:95,1,154.000004699707,4|4,0:0|0:0,0:0:0:0:
388,92,19312,1,8,0:0:0:0:
472,236,19511,1,0,0:0:0:0:
384,348,19709,6,0,P|352:332|216:312,1,154.000004699707,4|8,1:1|0:0,0:0:0:0:
116,360,20305,1,4,0:0:0:0:
116,360,20703,1,4,0:0:0:0:
124,148,20901,1,8,0:0:0:0:
48,240,21100,1,0,0:0:0:0:
48,240,21199,1,0,0:0:0:0:
48,240,21299,6,0,P|116:228|216:224,1,154.000004699707,4|8,0:0|0:0,0:0:0:0:
304,288,21895,2,0,P|380:284|456:271,1,154.000004699707,4|4,0:0|0:0,0:0:0:0:
416,172,22491,1,8,0:0:0:0:
256,208,22689,1,0,0:0:0:0:
256,208,22789,1,0,0:0:0:0:
256,208,22888,6,0,P|232:228|240:352,1,154.000004699707,4|8,0:1|0:0,0:0:0:0:
136,188,23484,1,4,0:0:0:0:
136,188,23584,1,0,0:0:0:0:
136,188,23683,2,0,B|144:120|116:80|116:80|76:100,1,154.000004699707,0|8,0:0|0:0,0:0:0:0:
40,296,24279,1,0,0:0:0:0:
40,296,24378,1,0,0:0:0:0:
40,296,24478,6,0,P|80:284|136:284,1,77.0000023498536,4|0,0:0|0:0,0:0:0:0:
200,348,24875,2,0,P|238:345|275:333,1,77.0000023498536,8|4,0:0|0:0,0:0:0:0:
356,208,25272,2,0,L|364:308,1,77.0000023498536,0|4,0:0|0:0,0:0:0:0:
460,184,25670,2,0,L|468:84,1,77.0000023498536,8|0,0:0|0:0,0:0:0:0:
328,96,26067,6,0,P|296:76|216:73,1,115.50000352478,2|8,1:0|3:0,0:0:0:0:
204,88,26465,1,4,3:0:0:0:
160,196,26663,1,2,3:0:0:0:
160,196,26762,2,0,P|124:180|80:180,1,77.0000023498536,2|2,3:0|3:0,0:0:0:0:
64,192,27060,1,2,3:0:0:0:
196,276,27259,1,8,3:0:0:0:
218,262,27358,1,8,3:0:0:0:
232,240,27458,1,4,3:0:0:0:
120,96,27656,6,0,P|196:76|300:64,1,154.000004699707,4|8,0:1|0:0,0:0:0:0:
252,172,28252,2,0,P|328:161|402:141,1,154.000004699707,2|2,0:1|0:1,0:0:0:0:
416,52,28848,2,0,P|456:68|484:116,1,77.0000023498536,8|0,0:0|0:0,0:0:0:0:
480,188,29246,6,0,B|464:236|464:236|480:344,1,154.000004699707,2|8,0:1|0:0,0:0:0:0:
376,308,29842,2,0,P|356:272|232:264,1,154.000004699707,2|2,0:1|0:1,0:0:0:0:
288,340,30438,1,8,0:0:0:0:
288,340,30636,1,0,0:0:0:0:
136,364,30835,6,0,B|124:352|100:340|100:340|108:288|92:224,1,154.000004699707,2|8,0:1|0:0,0:0:0:0:
28,56,31431,2,0,P|104:66|127:141,1,154.000004699707,2|2,0:1|0:1,0:0:0:0:
15,258,32027,1,8,0:0:0:0:
54,124,32226,1,0,0:0:0:0:
202,81,32425,6,0,P|246:73|302:69,1,77.0000023498536,2|0,0:1|0:0,0:0:0:0:
260,168,32822,2,0,P|303:177|356:196,1,77.0000023498536,8|2,0:0|0:1,0:0:0:0:
324,272,33219,1,0,0:0:0:0:
440,228,33418,1,2,0:1:0:0:
396,92,33617,1,8,0:0:0:0:
412,336,34014,6,0,P|384:324|244:312,1,154.000004699707,2|8,0:1|0:0,0:0:0:0:
160,352,34610,2,0,P|172:324|80:236,1,154.000004699707,2|2,0:1|0:1,0:0:0:0:
88,312,35206,1,8,0:0:0:0:
208,204,35405,1,0,0:0:0:0:
8,160,35603,6,0,P|68:132|144:132,1,115.50000352478,2|0,0:1|0:0,0:0:0:0:
160,144,36001,2,0,P|152:84|164:64,1,77.0000023498536,8|2,0:0|0:1,0:0:0:0:
292,32,36398,2,0,P|300:92|288:112,1,77.0000023498536,0|2,0:0|0:1,0:0:0:0:
248,200,36795,1,8,0:0:0:0:
380,336,37193,6,0,P|400:244|448:228,1,154.000004699707,2|8,0:1|0:0,0:0:0:0:
452,308,37789,2,0,P|448:228|468:140,1,154.000004699707,2|2,0:1|0:1,0:0:0:0:
492,64,38385,1,8,0:0:0:0:
400,100,38584,1,0,0:0:0:0:
320,40,38782,6,0,P|246:26|184:69,1,154.000004699707,2|8,0:1|0:0,0:0:0:0:
168,192,39378,1,2,0:1:0:0:
292,184,39577,2,0,P|286:147|251:100,1,77.0000023498536,0|2,0:0|0:1,0:0:0:0:
168,192,39974,2,0,P|173:228|208:275,1,77.0000023498536,8|0,0:0|0:0,0:0:0:0:
376,292,40372,5,6,0:1:0:0:
260,336,40570,1,0,0:0:0:0:
292,184,40769,1,8,0:0:0:0:
168,192,40968,1,2,0:1:0:0:
240,68,41166,1,0,0:0:0:0:
240,68,41365,2,0,P|208:56|136:60,1,77.0000023498536,2|8,0:1|0:0,0:0:0:0:
72,96,41762,1,0,0:0:0:0:
92,220,41961,6,0,L|84:328,2,77.0000023498536,2|0|8,0:1|0:0|0:0,0:0:0:0:
168,192,42557,2,0,P|115:140|43:156,1,154.000004699707,2|0,0:1|0:0,0:0:0:0:
176,272,43153,2,0,P|220:260|240:232,1,77.0000023498536,8|0,0:0|0:0,0:0:0:0:
364,88,43550,6,0,P|356:156|360:268,1,154.000004699707,2|8,0:1|0:0,0:0:0:0:
388,336,44146,1,2,0:1:0:0:
288,320,44345,2,0,P|260:309|184:308,1,77.0000023498536,0|2,0:0|0:1,0:0:0:0:
64,360,44742,2,0,P|93:355|160:318,1,77.0000023498536,8|0,0:0|0:0,0:0:0:0:
84,192,45140,6,0,L|76:292,1,77.0000023498536,2|0,0:1|0:0,0:0:0:0:
168,152,45537,2,0,L|168:252,1,77.0000023498536,8|2,0:0|0:1,0:0:0:0:
248,120,45935,2,0,L|257:219,1,77.0000023498536,0|2,0:0|0:1,0:0:0:0:
328,84,46332,1,8,0:0:0:0:
0,164,46729,6,0,P|44:116|136:124,1,154.000004699707,2|8,0:1|0:0,0:0:0:0:
168,220,47325,2,0,P|124:268|32:260,1,154.000004699707,2|2,0:1|0:1,0:0:0:0:
84,188,47921,2,0,P|96:224|96:272,1,77.0000023498536,8|0,0:0|0:0,0:0:0:0:
64,368,48319,6,0,P|132:344|192:352,1,115.50000352478,2|0,0:1|0:0,0:0:0:0:
208,360,48716,2,0,P|208:304|216:268,1,77.0000023498536,8|2,0:0|0:1,0:0:0:0:
276,184,49113,2,0,P|208:192|156:108,1,154.000004699707,0|8,0:0|0:0,0:0:0:0:
180,40,49709,1,0,0:0:0:0:
356,128,49908,6,0,P|368:160|348:232,1,77.0000023498536,2|0,0:1|0:0,0:0:0:0:
236,116,50305,2,0,P|224:84|244:12,1,77.0000023498536,8|2,0:0|0:1,0:0:0:0:
276,184,50703,2,0,P|280:232|280:352,2,154.000004699707,0|8|2,0:0|0:0|0:1,0:0:0:0:
452,280,51895,5,8,0:0:0:0:
380,360,52093,1,2,0:1:0:0:
204,236,52292,1,0,0:0:0:0:
288,320,52491,1,2,0:1:0:0:
324,216,52689,1,8,0:0:0:0:
152,316,52888,1,0,0:0:0:0:
68,144,53087,6,0,B|124:108|200:136|200:136|208:100|232:72,1,210,4|0,0:1|0:0,0:0:0:0:
312,44,53882,1,8,0:0:0:0:
160,280,54279,2,0,P|140:256|140:200,1,70
118,347,54676,6,0,B|158:374|210:347|210:347|218:359|218:359|254:331|330:355,1,210,2|2,0:1|0:1,0:0:0:0:
393,368,55471,1,8,0:0:0:0:
376,96,55868,1,0,0:0:0:0:
288,72,56067,1,0,0:0:0:0:
200,48,56266,6,0,B|180:92|180:92|112:104|96:220|168:232,1,210,2|2,0:1|0:1,0:0:0:0:
200,168,57060,1,8,0:0:0:0:
328,300,57458,2,0,P|336:328|332:388,1,70
248,280,57855,6,0,B|312:252|400:264|400:264|388:244|376:208,1,210,2|2,0:1|0:1,0:0:0:0:
384,107,58650,1,8,0:0:0:0:
304,188,58848,1,2,0:1:0:0:
223,107,59047,1,0,0:0:0:0:
304,27,59246,1,0,0:0:0:0:
377,212,59444,6,0,P|340:196|268:188,1,77.0000023498536,4|0,0:1|0:0,0:0:0:0:
204,232,59842,1,8,0:0:0:0:
268,320,60040,1,0,0:0:0:0:
164,352,60239,2,0,L|64:360,2,77.0000023498536,2|2|8,0:1|0:1|0:0,0:0:0:0:
268,320,60835,1,0,0:0:0:0:
388,356,61034,6,0,P|440:300|416:220,1,154.000004699707,2|8,0:1|0:0,0:0:0:0:
340,184,61630,1,0,0:0:0:0:
232,228,61829,2,0,L|248:316,2,77.0000023498536,2|2|8,0:1|0:1|0:0,0:0:0:0:
124,120,62425,1,0,0:0:0:0:
124,120,62623,6,0,L|140:32,1,77.0000023498536,2|0,0:1|0:0,0:0:0:0:
104,132,63021,1,0,3:0:0:0:
252,104,63219,1,0,3:0:0:0:
196,300,63418,1,2,0:1:0:0:
52,192,63617,1,2,0:1:0:0:
308,180,63815,1,2,3:0:0:0:
112,312,64014,1,2,0:1:0:0:
192,52,64213,5,4,0:0:0:0:
368,112,64511,2,0,L|364:184,1,38.5000011749268,4|8,3:0|3:0,0:0:0:0:
456,260,64809,2,0,L|452:188,1,38.5000011749268,2|2,3:0|3:0,0:0:0:0:
336,320,65107,1,2,3:0:0:0:
308,324,65206,1,8,3:0:0:0:
286,344,65306,1,0,0:0:0:0:
264,364,65405,2,0,P|228:348|152:340,1,115.50000352478,8|0,0:0|0:0,0:0:0:0:
120,356,65802,6,0,P|56:300|92:228,1,167.999994873047,4|8,0:1|0:0,0:0:0:0:
240,172,66398,1,2,1:0:0:0:
240,172,66497,1,0,0:0:0:0:
240,172,66597,2,0,P|248:124|236:84,1,83.9999974365235,0|4,0:0|0:0,0:0:0:0:
228,184,66994,1,8,0:0:0:0:
340,264,67193,1,0,0:0:0:0:
456,160,67391,6,0,P|456:118|445:77,1,83.9999974365235,4|0,0:0|0:0,0:0:0:0:
352,272,67789,2,0,L|372:380,1,83.9999974365235,8|4,0:0|0:0,0:0:0:0:
252,220,68186,2,0,L|251:329,1,83.9999974365235,0|4,0:0|0:0,0:0:0:0:
164,160,68584,2,0,L|138:266,1,83.9999974365235,8|0,0:0|0:0,0:0:0:0:
88,88,68981,6,0,B|180:60|180:60|216:52|256:68,1,167.999994873047,4|8,0:0|0:0,0:0:0:0:
340,168,69577,1,4,0:0:0:0:
460,120,69776,2,0,L|464:20,1,83.9999974365235,0|4,0:0|0:0,0:0:0:0:
340,168,70173,2,0,L|344:268,1,83.9999974365235,8|0,0:0|0:0,0:0:0:0:
392,364,70570,6,0,P|376:352|280:340,1,83.9999974365235,4|0,0:0|0:0,0:0:0:0:
104,376,70968,2,0,P|123:373|200:313,1,83.9999974365235,8|4,0:0|0:0,0:0:0:0:
264,168,71365,2,0,P|252:184|240:280,1,83.9999974365235,0|4,0:0|0:0,0:0:0:0:
364,240,71762,1,8,0:0:0:0:
104,108,72160,6,0,P|79:123|95:258,1,167.999994873047,4|8,1:1|0:0,0:0:0:0:
184,332,72756,1,4,0:0:0:0:
260,212,72954,2,0,P|260:168|224:120,1,83.9999974365235,0|4,0:0|0:0,0:0:0:0:
108,232,73352,1,8,0:0:0:0:
108,232,73550,1,0,0:0:0:0:
260,212,73749,6,0,P|324:228|340:248,1,83.9999974365235,4|0,0:0|0:0,0:0:0:0:
432,340,74146,1,8,0:0:0:0:
508,220,74345,2,0,L|512:120,1,83.9999974365235,4|0,0:0|0:0,0:0:0:0:
320,56,74742,1,4,0:0:0:0:
368,196,74941,1,8,0:0:0:0:
476,40,75140,1,0,0:0:0:0:
272,128,75338,6,0,P|236:120|96:104,1,167.999994873047,4|8,0:0|0:0,0:0:0:0:
12,168,75935,1,4,0:0:0:0:
116,220,76133,2,0,P|128:252|120:308,1,83.9999974365235,0|4,0:0|0:0,0:0:0:0:
32,264,76531,1,8,0:0:0:0:
208,184,76729,1,0,0:0:0:0:
208,184,76928,6,0,B|256:160|324:176|324:176|308:244,1,167.999994873047,4|8,0:0|0:0,0:0:0:0:
200,312,77524,1,4,0:0:0:0:
200,312,77723,2,0,P|176:308|92:312,1,83.9999974365235,0|4,0:0|0:0,0:0:0:0:
212,328,78120,1,8,0:0:0:0:
312,232,78319,1,0,0:0:0:0:
208,104,78517,6,0,P|152:128|147:232,1,167.999994873047,4|8,0:1|0:0,0:0:0:0:
92,64,79113,1,4,0:0:0:0:
208,184,79312,2,0,P|256:171|284:125,1,83.9999974365235,0|4,0:0|0:0,0:0:0:0:
412,48,79709,2,0,P|395:95|404:148,1,83.9999974365235,8|0,0:0|0:0,0:0:0:0:
496,220,80107,5,4,0:0:0:0:
235,353,80504,2,0,B|181:342|166:275|166:275|131:288|96:259,1,167.999994873047,8|0,0:0|0:0,0:0:0:0:
136,184,81100,1,4,0:0:0:0:
108,356,81299,1,8,0:0:0:0:
256,272,81497,1,0,0:0:0:0:
136,184,81696,6,0,P|88:192|44:232,1,83.9999974365235,4|0,0:0|0:0,0:0:0:0:
232,188,82093,1,8,0:0:0:0:
132,88,82292,2,0,P|80:92|-20:168,1,167.999994873047,4|4,0:0|0:0,0:0:0:0:
224,96,82888,2,0,P|220:52|172:8,1,83.9999974365235,8|0,0:0|0:0,0:0:0:0:
136,184,83286,6,0,P|152:264|152:356,1,167.999994873047,4|8,0:0|0:0,0:0:0:0:
36,288,83882,1,4,0:0:0:0:
128,176,84080,1,0,0:0:0:0:
236,292,84279,1,4,0:0:0:0:
324,204,84478,1,8,0:0:0:0:
472,340,84676,1,0,0:0:0:0:
472,340,84875,6,0,B|476:280|468:236|468:236|472:200|488:152,1,167.999994873047,4|8,0:0|0:0,0:0:0:0:
333,37,85471,2,0,B|329:97|337:141|337:141|333:177|317:225,1,167.999994873047,4|4,0:1|0:0,0:0:0:0:
276,356,86067,1,8,0:0:0:0:
156,260,86266,1,0,0:0:0:0:
268,128,86464,6,0,P|344:112|412:188,1,167.999994873047,4|8,0:0|0:0,0:0:0:0:
200,200,87060,2,0,P|124:216|64:136,1,167.999994873047,4|4,0:1|0:0,0:0:0:0:
236,276,87656,1,8,0:0:0:0:
148,140,87855,1,0,0:0:0:0:
48,320,88054,6,0,P|120:304|168:308,1,83.9999974365235,4|8,0:0|3:0,0:0:0:0:
228,360,88451,2,0,P|269:356|309:343,1,83.9999974365235,8|8,3:0|3:0,0:0:0:0:
428,228,88848,1,4,3:0:0:0:
256,148,89047,1,4,3:0:0:0:
424,76,89246,1,4,3:0:0:0:
332,276,89444,1,4,3:0:0:0:
204,32,89643,5,4,0:0:0:0:
148,288,90040,2,0,L|164:392,1,83.9999974365235,2|0,0:0|0:0,0:0:0:0:
60,224,90438,2,0,L|76:120,1,83.9999974365235,2|0,0:0|0:0,0:0:0:0:
188,208,90835,2,0,P|261:191|296:128,1,125.999996154785,2|0,0:0|0:0,0:0:0:0:
296,116,91233,6,0,L|304:212,1,77.0000023498536,4|0,0:1|0:0,0:0:0:0:
416,216,91630,2,0,L|408:312,1,77.0000023498536,0|4,0:0|0:0,0:0:0:0:
224,344,92027,2,0,P|248:288|336:272,1,154.000004699707,8|0,0:0|0:0,0:0:0:0:
128,144,92822,6,0,P|137:193|140:280,2,115.50000352478,4|0|4,0:1|0:0|0:0,0:0:0:0:
40,164,93617,1,0,3:2:0:0:
38,144,93716,1,0,3:2:0:0:
40,125,93815,1,0,3:2:0:0:
46,107,93915,1,0,3:2:0:0:
57,91,94014,1,0,3:2:0:0:
70,78,94113,1,0,3:2:0:0:
87,67,94213,1,0,3:2:0:0:
105,61,94312,1,0,3:2:0:0:
124,59,94411,6,0,P|176:56|224:48,1,77.0000023498536,4|0,0:1|0:0,0:0:0:0:
312,140,94809,2,0,P|260:143|212:151,1,77.0000023498536,0|4,0:0|0:0,0:0:0:0:
344,220,95206,2,0,P|388:184|372:80,1,154.000004699707,8|0,0:0|0:0,0:0:0:0:
168,232,96001,6,0,L|184:356,2,115.50000352478,4|0|4,0:1|0:0|0:0,0:0:0:0:
260,212,96795,1,0,3:2:0:0:
258,231,96894,1,0,3:2:0:0:
262,250,96993,1,0,3:2:0:0:
270,267,97093,1,0,3:2:0:0:
282,282,97192,1,0,3:2:0:0:
297,294,97291,1,0,3:2:0:0:
314,302,97391,1,0,3:2:0:0:
333,305,97490,1,0,3:2:0:0:
352,304,97590,6,0,P|340:232|372:128,1,154.000004699707,4|0,0:1|0:0,0:0:0:0:
428,80,98186,1,4,0:0:0:0:
472,204,98385,2,0,L|464:364,1,154.000004699707,8|0,0:0|0:0,0:0:0:0:
224,332,99180,6,0,P|184:332|92:356,2,115.50000352478,2|0|4,1:0|0:0|0:0,0:0:0:0:
316,372,99974,1,0,3:2:0:0:
316,352,100073,1,0,3:2:0:0:
316,333,100172,1,0,3:2:0:0:
317,314,100272,1,0,3:2:0:0:
317,295,100371,1,0,3:2:0:0:
318,275,100470,1,0,3:2:0:0:
318,256,100570,1,0,3:2:0:0:
319,237,100669,1,0,3:2:0:0:
319,218,100769,5,4,0:1:0:0:
272,128,100968,2,0,P|236:120|160:128,1,77.0000023498536
108,168,101365,1,4,0:0:0:0:
156,256,101564,2,0,P|160:316|84:360,1,154.000004699707,8|0,0:0|0:0,0:0:0:0:
288,332,102358,6,0,P|320:312|408:312,1,115.50000352478,4|8,0:0|3:0,0:0:0:0:
408,320,102756,1,4,3:0:0:0:
348,196,102954,1,2,3:0:0:0:
348,196,103054,2,0,P|344:152|352:88,1,77.0000023498536,2|2,3:0|3:0,0:0:0:0:
356,100,103352,1,2,3:0:0:0:
256,188,103550,1,8,3:0:0:0:
232,196,103650,1,8,3:0:0:0:
208,192,103749,1,4,3:0:0:0:
60,124,103948,6,0,L|76:296,1,154.000004699707,4|8,0:1|0:0,0:0:0:0:
176,348,104544,2,0,P|280:320|352:320,1,154.000004699707,2|2,0:1|0:1,0:0:0:0:
424,344,105140,2,0,P|464:328|492:280,1,77.0000023498536,8|0,0:0|0:0,0:0:0:0:
408,108,105538,6,0,B|392:156|392:156|408:264,1,154.000004699707,2|8,0:1|0:0,0:0:0:0:
488,160,106133,1,2,0:1:0:0:
212,72,106729,2,0,L|316:88,1,77.0000023498536,8|0,3:0|0:0,0:0:0:0:
152,160,107127,6,0,L|48:144,1,77.0000023498536,6|0,0:1|0:0,0:0:0:0:
192,252,107524,1,8,0:0:0:0:
88,284,107723,2,0,P|76:328|80:396,1,77.0000023498536,2|0,0:1|0:0,0:0:0:0:
96,276,108120,1,2,0:1:0:0:
208,348,108319,1,8,0:0:0:0:
296,248,108518,1,0,0:0:0:0:
128,152,108716,6,0,P|84:144|28:140,1,77.0000023498536,2|0,0:1|0:0,0:0:0:0:
216,112,109113,2,0,P|177:89|126:66,1,77.0000023498536,8|2,0:0|0:1,0:0:0:0:
308,92,109511,2,0,P|279:57|239:18,1,77.0000023498536,0|2,0:0|0:1,0:0:0:0:
276,188,109909,1,8,0:0:0:0:
464,144,110305,6,0,B|448:200|448:200|460:292|452:332,1,154.000004699707,2|8,0:1|0:0,0:0:0:0:
344,368,110901,2,0,B|360:312|360:312|348:220|356:180,1,154.000004699707,2|2,0:1|0:1,0:0:0:0:
388,104,111498,1,8,0:0:0:0:
280,56,111697,1,0,0:0:0:0:
228,188,111895,6,0,P|216:228|220:308,1,115.50000352478,2|0,0:1|0:0,0:0:0:0:
192,292,112292,2,0,P|168:276|108:272,1,77.0000023498536,8|2,0:0|0:1,0:0:0:0:
52,132,112689,2,0,P|76:148|136:152,1,77.0000023498536,0|2,0:0|0:1,0:0:0:0:
240,136,113087,1,8,0:0:0:0:
240,136,113286,1,0,0:0:0:0:
192,292,113484,6,0,P|228:272|280:264,1,77.0000023498536,2|0,0:1|0:0,0:0:0:0:
336,349,113882,2,0,P|377:349|426:368,1,77.0000023498536,8|2,0:0|0:1,0:0:0:0:
368,228,114279,2,0,P|360:136|384:52,2,154.000004699707,0|8|2,0:0|0:0|0:1,0:0:0:0:
100,88,115471,5,8,0:0:0:0:
32,184,115670,1,2,0:1:0:0:
192,320,115868,1,0,0:0:0:0:
160,216,116067,1,2,0:1:0:0:
312,92,116266,1,8,0:0:0:0:
284,200,116464,1,0,0:0:0:0:
432,348,116663,6,0,B|440:296|400:252|400:252|440:212|436:128,1,210,4|2,0:1|0:1,0:0:0:0:
384,72,117459,1,8,0:0:0:0:
188,148,117856,2,0,P|221:152|265:124,1,70
108,104,118253,6,0,B|88:152|111:195|111:195|99:204|99:204|128:260|107:316,1,210,2|2,0:1|0:1,0:0:0:0:
40,376,119048,1,8,0:0:0:0:
400,328,119445,1,0,0:0:0:0:
428,224,119644,1,0,0:0:0:0:
400,328,119842,6,0,P|369:317|312:308,1,70,2|0,0:1|0:0,0:0:0:0:
184,336,120239,2,0,P|214:346|272:356,1,70,0|2,0:0|0:1,0:0:0:0:
240,256,120637,1,8,0:0:0:0:
400,40,121035,2,0,P|408:68|404:128,1,70
336,176,121432,6,0,B|264:204|184:160|184:160|180:128|224:116,1,210,2|2,0:1|0:1,0:0:0:0:
300,80,122226,1,8,0:0:0:0:
336,176,122425,1,2,0:1:0:0:
268,256,122624,1,0,0:0:0:0:
352,320,122822,1,2,0:1:0:0:
224,360,123021,6,0,P|187:344|115:336,1,77.0000023498536,4|0,1:0|0:0,0:0:0:0:
28,340,123419,1,8,0:0:0:0:
104,244,123617,1,0,0:0:0:0:
56,128,123815,2,0,L|44:44,2,77.0000023498536,2|2|8,0:1|0:1|0:0,0:0:0:0:
168,88,124412,1,0,0:0:0:0:
224,216,124610,6,0,P|296:239|359:183,1,154.000004699707,2|8,0:1|0:0,0:0:0:0:
404,100,125206,1,0,0:0:0:0:
464,188,125406,2,0,P|472:224|476:276,2,77.0000023498536,2|2|8,0:1|0:1|0:0,0:0:0:0:
404,100,126002,1,0,0:0:0:0:
404,100,126199,6,0,P|395:63|392:12,1,77.0000023498536,2|0,1:0|0:0,0:0:0:0:
464,188,126598,1,8,3:0:0:0:
304,160,126796,1,8,3:0:0:0:
184,316,126995,1,4,3:0:0:0:
120,132,127194,1,4,3:0:0:0:
300,268,127392,1,4,3:0:0:0:
92,248,127591,1,4,3:0:0:0:
232,68,127790,5,2,1:0:0:0:
392,352,128584,2,0,L|396:268,1,77.0000023498536,0|2,0:0|1:0,0:0:0:0:
384,180,128981,2,0,P|348:196|272:200,1,115.50000352478,8|0,0:0|0:0,0:0:0:0:
244,184,129378,6,8,P|180:272|220:340,1,167.999994873047,4|8,1:0|0:0,0:0:0:0:
100,196,129975,1,4,0:0:0:0:
100,196,130074,1,0,0:0:0:0:
100,196,130174,2,0,P|57:176|-14:177,1,83.9999974365235,0|4,0:0|0:0,0:0:0:0:
100,304,130571,1,8,0:0:0:0:
200,228,130770,1,0,0:0:0:0:
180,60,130968,6,0,P|137:40|65:41,1,83.9999974365235,4|0,0:0|0:0,0:0:0:0:
320,108,131365,2,0,P|376:64|396:24,1,83.9999974365235,8|4,0:0|0:0,0:0:0:0:
312,236,131762,2,0,P|382:226|419:201,1,83.9999974365235,0|4,0:0|0:0,0:0:0:0:
216,332,132160,2,0,P|281:358|326:355,1,83.9999974365235,8|0,0:0|0:0,0:0:0:0:
104,212,132557,6,0,P|56:264|88:368,1,167.999994873047,4|8,0:0|0:0,0:0:0:0:
216,332,133154,1,4,0:0:0:0:
252,192,133353,2,0,P|260:148|232:96,1,83.9999974365235,0|4,0:0|0:0,0:0:0:0:
104,56,133749,2,0,P|84:96|96:151,1,83.9999974365235,8|0,0:0|0:0,0:0:0:0:
192,308,134146,6,0,P|240:288|304:280,1,83.9999974365235,4|0,0:0|0:0,0:0:0:0:
464,360,134544,2,0,P|415:340|365:300,1,83.9999974365235,8|4,0:0|0:0,0:0:0:0:
400,140,134941,2,0,P|380:188|340:238,1,83.9999974365235,0|4,0:0|0:0,0:0:0:0:
236,128,135339,1,8,0:0:0:0:
236,128,135538,1,0,0:0:0:0:
88,292,135736,6,0,P|59:285|33:151,1,167.999994873047,4|8,1:0|0:0,0:0:0:0:
144,72,136332,1,4,0:0:0:0:
264,164,136531,2,0,L|252:272,1,83.9999974365235,0|4,0:0|0:0,0:0:0:0:
356,324,136929,1,8,0:0:0:0:
428,204,137127,1,0,0:0:0:0:
272,80,137325,6,0,P|216:92|196:120,1,83.9999974365235,4|0,0:0|0:0,0:0:0:0:
144,248,137723,1,8,0:0:0:0:
280,350,137921,1,4,0:0:0:0:
336,144,138120,1,0,0:0:0:0:
239,256,138319,1,4,0:0:0:0:
462,249,138518,1,8,0:0:0:0:
459,71,138717,1,0,0:0:0:0:
380,216,138915,6,0,P|316:228|250:141,1,167.999994873047,4|8,0:0|0:0,0:0:0:0:
324,53,139512,1,4,0:0:0:0:
455,169,139710,2,0,P|467:201|461:255,1,83.9999974365235,0|4,0:0|0:0,0:0:0:0:
371,340,140108,1,8,0:0:0:0:
277,242,140306,1,0,0:0:0:0:
100,341,140504,6,0,P|95:287|94:163,1,167.999994873047,4|8,0:0|0:0,0:0:0:0:
244,37,141100,1,4,0:0:0:0:
244,37,141299,2,0,P|260:69|268:133,1,83.9999974365235,0|4,0:0|0:0,0:0:0:0:
170,242,141696,1,8,0:0:0:0:
262,372,141895,1,0,0:0:0:0:
420,349,142093,6,0,P|476:325|481:221,1,167.999994873047,4|8,1:0|0:0,0:0:0:0:
360,144,142690,1,4,0:0:0:0:
228,284,142889,2,0,P|276:271|304:225,1,83.9999974365235,0|4,0:0|0:0,0:0:0:0:
374,63,143286,2,0,P|357:110|366:163,1,83.9999974365235,8|0,0:0|0:0,0:0:0:0:
472,256,143683,5,4,0:0:0:0:
53,173,144080,2,0,P|56:215|68:256,1,83.9999974365235,8|4,0:0|0:0,0:0:0:0:
230,202,144478,2,0,P|227:160|216:120,1,83.9999974365235,0|4,0:0|0:0,0:0:0:0:
102,70,144876,1,8,0:0:0:0:
162,272,145074,1,0,0:0:0:0:
304,152,145272,6,0,P|392:148|480:160,1,167.999994873047,4|8,0:0|0:0,0:0:0:0:
424,300,145868,2,0,P|336:304|248:292,1,167.999994873047,4|4,0:0|0:0,0:0:0:0:
192,148,146465,2,0,P|215:185|205:249,1,83.9999974365235,8|0,0:0|0:0,0:0:0:0:
52,204,146862,6,0,L|48:36,1,167.999994873047,4|8,0:0|0:0,0:0:0:0:
168,72,147459,1,4,0:0:0:0:
372,40,147657,1,0,0:0:0:0:
316,152,147856,1,4,0:0:0:0:
152,208,148055,1,8,0:0:0:0:
208,312,148252,1,0,0:0:0:0:
387,191,148451,6,0,P|383:99|293:74,1,167.999994873047,4|8,0:0|0:0,0:0:0:0:
256,294,149048,2,0,P|358:276|441:281,1,167.999994873047,4|4,1:0|0:0,0:0:0:0:
368,376,149643,1,8,0:0:0:0:
238,285,149843,1,0,0:0:0:0:
253,146,150040,6,0,P|329:130|389:210,1,167.999994873047,4|8,0:0|0:0,0:0:0:0:
242,309,150636,2,0,P|166:325|106:245,1,167.999994873047,4|4,1:0|0:0,0:0:0:0:
169,154,151233,1,8,0:0:0:0:
65,70,151432,1,0,0:0:0:0:
0,247,151631,6,0,P|72:231|120:235,1,83.9999974365235,4|8,1:0|3:0,0:0:0:0:
204,341,152027,2,0,P|132:357|84:353,1,83.9999974365235,8|8,3:0|3:0,0:0:0:0:
217,196,152425,1,4,3:0:0:0:
314,297,152624,1,4,3:0:0:0:
89,297,152823,1,4,3:0:0:0:
40,163,153021,1,4,3:0:0:0:
334,67,153220,5,2,1:0:0:0:
371,264,153617,2,0,L|387:368,1,83.9999974365235,2|0,0:0|0:0,0:0:0:0:
255,263,154015,2,0,L|271:159,1,83.9999974365235,2|0,0:0|0:0,0:0:0:0:
286,338,154412,2,0,P|214:336|176:277,1,125.999996154785,2|0,0:0|0:0,0:0:0:0:
172,264,154809,5,4,1:0:0:0:
185,115,167524,5,4,1:0:0:0:
79,332,168319,2,0,P|152:303|215:302,1,140,8|0,0:0|0:0,0:0:0:0:
378,352,169113,6,0,P|384:249|487:224,1,210,2|2,1:0|1:0,0:0:0:0:
451,303,169908,1,8,0:0:0:0:
66,208,170703,6,0,B|93:262|93:262|83:303|85:352,1,140,2|0,1:0|0:0,0:0:0:0:
192,200,171497,2,0,B|165:146|165:146|175:105|173:56,1,140,8|0,0:0|0:0,0:0:0:0:
346,290,172292,6,0,P|405:278|440:276,2,70,2|8|8,1:0|3:0|3:0,0:0:0:0:
262,355,172888,2,0,P|202:366|168:369,2,70,4|8|8,3:0|3:0|3:0,0:0:0:0:
346,290,173484,2,0,P|343:252|346:196,1,70,4|4,3:0|3:0,0:0:0:0:
402,95,173882,6,0,P|382:77|302:53,1,77.0000023498536,4|0,1:0|0:0,0:0:0:0:
249,119,174279,1,8,0:0:0:0:
131,95,174478,2,0,P|142:138|151:264,1,154.000004699707,2|2,1:0|1:0,0:0:0:0:
107,344,175074,1,8,0:0:0:0:
399,266,175471,6,0,P|376:226|258:230,1,154.000004699707,2|8,1:0|0:0,0:0:0:0:
320,284,176067,2,0,P|335:204|336:101,1,154.000004699707,2|2,1:0|1:0,0:0:0:0:
217,59,176663,2,0,P|205:91|223:165,1,77.0000023498536,8|0,0:0|0:0,0:0:0:0:
321,31,177060,5,2,1:0:0:0:
320,284,177458,2,0,P|277:267|152:256,2,154.000004699707,8|0|8,0:0|0:0|0:0,0:0:0:0:
400,344,178451,1,0,0:0:0:0:
440,252,178650,6,0,P|444:202|420:160,1,77.0000023498536,2|8,1:0|3:0,0:0:0:0:
336,132,179047,2,0,P|331:181|356:224,1,77.0000023498536,8|2,3:0|1:0,0:0:0:0:
440,252,179444,1,2,1:0:0:0:
400,344,179643,1,8,3:0:0:0:
272,264,179842,1,2,1:0:0:0:
136,356,180040,1,2,1:0:0:0:
136,356,182623,6,0,B|144:324|168:300|168:300|132:264|136:208,1,154.000004699707,2|2,0:0|0:0,0:0:0:0:
256,64,183418,5,4,1:0:0:0:
412,296,184014,1,2,0:0:0:0:
416,204,184213,2,0,P|360:216|352:364,1,224,2|4,0:0|1:0,0:0:0:0:
124,236,185405,6,0,P|80:240|28:300,2,112,2|2|2,0:0|0:0|0:0,0:0:0:0:
256,320,186597,5,4,1:0:0:0:
384,104,187193,1,2,0:0:0:0:
384,104,187391,2,0,P|348:84|216:64,1,168,2|2,0:0|0:0,0:0:0:0:
144,144,188186,6,0,P|184:192|184:268,1,115.50000352478,2|8,1:0|3:0,0:0:0:0:
184,268,188584,1,4,3:0:0:0:
312,316,188782,1,4,3:0:0:0:
312,316,188882,2,0,P|373:305|412:318,1,77.0000023498536,4|8,3:0|3:0,0:0:0:0:
408,320,189180,1,4,3:0:0:0:
500,200,189378,1,8,0:0:0:0:
296,29,189776,6,0,B|272:53|244:77|244:77|260:117|264:185,1,167.999994873047,4|8,1:0|0:0,0:0:0:0:
184,268,190372,1,4,0:0:0:0:
352,256,190570,2,0,P|406:257|452:268,1,83.9999974365235,0|4,0:0|0:0,0:0:0:0:
274,350,190968,1,8,0:0:0:0:
264,172,191166,1,0,0:0:0:0:
264,172,191365,6,0,P|208:160|92:170,1,167.999994873047,4|8,0:0|0:0,0:0:0:0:
48,272,191961,1,4,0:0:0:0:
208,260,192159,1,0,0:0:0:0:
144,360,192358,1,4,0:0:0:0:
376,296,192557,1,8,0:0:0:0:
336,140,192756,1,0,0:0:0:0:
380,216,192954,6,0,P|316:228|250:141,1,167.999994873047,4|8,0:0|0:0,0:0:0:0:
200,32,193550,1,4,0:0:0:0:
112,112,193749,2,0,P|100:144|106:198,1,83.9999974365235,0|4,0:0|0:0,0:0:0:0:
224,328,194147,1,8,0:0:0:0:
312,252,194345,1,0,0:0:0:0:
460,336,194544,6,0,P|465:282|466:158,1,167.999994873047,4|8,0:0|0:0,0:0:0:0:
248,144,195139,1,4,0:0:0:0:
248,144,195338,2,0,P|252:196|272:260,1,83.9999974365235,0|4,0:0|0:0,0:0:0:0:
384,304,195736,1,8,0:0:0:0:
360,176,195935,1,0,0:0:0:0:
232,308,196133,6,0,B|196:292|180:252|180:252|132:284|68:256,1,167.999994873047,4|8,1:0|0:0,0:0:0:0:
16,184,196729,1,4,0:0:0:0:
140,120,196928,2,0,P|152:67|140:16,1,83.9999974365235,0|4,0:0|0:0,0:0:0:0:
267,145,197325,2,0,P|254:197|267:249,1,83.9999974365235,8|0,0:0|0:0,0:0:0:0:
356,340,197723,5,4,0:0:0:0:
428,80,198120,2,0,P|472:91|507:117,1,83.9999974365235,8|4,0:0|0:0,0:0:0:0:
292,160,198517,2,0,P|324:192|341:228,1,83.9999974365235,0|4,0:0|0:0,0:0:0:0:
148,104,198915,2,0,P|159:147|157:187,1,83.9999974365235,8|0,0:0|0:0,0:0:0:0:
78,56,199312,6,0,P|153:20|225:72,1,167.999994873047,4|8,0:0|0:0,0:0:0:0:
212,236,199908,2,0,P|137:272|65:220,1,167.999994873047,4|2,0:0|1:0,0:0:0:0:
271,174,200504,2,0,P|294:211|284:275,1,83.9999974365235,8|0,0:0|0:0,0:0:0:0:
144,191,200902,6,0,L|140:359,1,167.999994873047,4|8,0:0|0:0,0:0:0:0:
256,320,201498,1,4,0:0:0:0:
360,184,201696,2,0,P|412:168|464:180,1,83.9999974365235,0|2,0:0|1:0,0:0:0:0:
336,307,202093,2,0,P|284:323|232:311,1,83.9999974365235,8|0,0:0|0:0,0:0:0:0:
247,152,202490,6,0,L|255:324,1,167.999994873047,4|8,2:0|2:0,2:0:0:0:
440,188,203087,2,0,P|390:110|300:133,1,167.999994873047,4|4,1:0|0:0,2:0:0:0:
248,260,203683,1,8,0:0:0:0:
360,184,203882,1,0,0:0:0:0:
394,351,204080,6,0,P|381:349|223:332,1,167.999994873047,4|8,0:0|0:0,0:0:0:0:
90,204,204676,2,0,P|103:206|261:223,1,167.999994873047,4|4,1:0|0:0,0:0:0:0:
352,124,205272,1,8,0:0:0:0:
449,259,205471,1,0,0:0:0:0:
281,375,205670,6,0,P|270:332|265:258,1,83.9999974365235,4|8,0:0|3:0,0:0:0:0:
352,124,206067,2,0,P|363:167|368:241,1,83.9999974365235,8|8,3:0|3:0,0:0:0:0:
358,320,206464,1,4,3:0:0:0:
139,254,206663,1,4,3:0:0:0:
352,124,206862,1,4,0:0:0:0:
281,375,207060,1,4,3:0:0:0:
210,77,207259,5,2,1:0:0:0:
416,262,207656,2,0,P|435:283|435:349,1,77.0000023498536,2|0,0:0|0:0,0:0:0:0:
327,247,208054,2,0,P|332:219|386:180,1,77.0000023498536,2|0,0:0|0:0,0:0:0:0:
358,320,208451,2,0,P|286:318|250:261,1,115.50000352478,2|0,0:0|0:0,0:0:0:0:
248,256,208848,5,4,1:0:0:0:
244,100,209047,2,0,P|220:72|168:64,2,77.0000023498536,0|0|4,0:0|0:0|0:0,0:0:0:0:
193,182,209643,2,0,P|286:175|336:239,1,154.000004699707,8|0,0:0|0:0,0:0:0:0:
147,247,210438,6,0,P|108:191|133:129,2,115.50000352478,4|0|4,1:0|0:0|0:0,0:0:0:0:
248,256,211233,2,0,P|245:286|250:347,1,77.0000023498536,8|0,0:0|0:0,0:0:0:0:
392,250,211630,2,0,P|395:220|390:159,1,77.0000023498536
331,306,212027,6,0,P|422:328|470:268,1,154.000004699707,4|0,1:0|0:0,0:0:0:0:
426,157,212623,1,4,0:0:0:0:
332,56,212822,2,0,P|314:46|170:40,1,154.000004699707,8|0,0:0|0:0,0:0:0:0:
74,235,213617,6,0,B|102:288|102:288|91:323|104:356,2,115.50000352478,4|0|4,1:0|0:0|0:0,0:0:0:0:
182,322,214411,2,0,P|224:316|268:274,1,77.0000023498536,8|4,0:0|0:0,0:0:0:0:
303,184,214809,2,0,P|261:189|217:232,1,77.0000023498536
398,269,215206,6,0,L|409:78,1,154.000004699707,4|0,1:0|0:0,0:0:0:0:
309,39,215802,1,4,0:0:0:0:
136,164,216001,2,0,P|244:140|288:140,1,154.000004699707,8|0,0:0|0:0,0:0:0:0:
136,312,216795,6,0,P|116:304|16:296,2,115.50000352478,2|0|2,1:0|0:0|1:0,0:0:0:0:
228,360,217590,2,0,L|320:344,1,77.0000023498536,8|0,0:0|0:0,0:0:0:0:
416,272,217987,2,0,L|340:258,1,77.0000023498536
192,260,218385,6,0,P|124:244|100:164,1,154.000004699707,4|0,1:0|0:0,0:0:0:0:
164,76,218981,1,4,0:0:0:0:
264,208,219180,2,0,P|280:248|220:344,1,154.000004699707,8|0,0:0|0:0,0:0:0:0:
400,72,219974,6,0,P|396:120|408:192,1,115.50000352478,4|8,0:0|3:0,0:0:0:0:
420,208,220372,1,4,3:0:0:0:
340,336,220570,1,2,3:0:0:0:
312,312,220670,1,2,3:0:0:0:
88,248,220868,1,2,3:0:0:0:
116,228,220968,1,8,3:0:0:0:
296,112,221166,1,8,3:0:0:0:
260,112,221266,1,8,3:0:0:0:
236,92,221365,1,4,3:0:0:0:
192,332,221564,5,4,1:0:0:0:
256,192,221762,12,0,229113,0:0:0:0:
