osu file format v14

[General]
AudioFilename: rakuenmadetv.mp3
AudioLeadIn: 0
PreviewTime: 44649
Countdown: 0
SampleSet: Normal
StackLeniency: 0.7
Mode: 0
LetterboxInBreaks: 0
WidescreenStoryboard: 0

[Editor]
DistanceSpacing: 1
BeatDivisor: 4
GridSize: 4
TimelineZoom: 1

[Metadata]
Title:Rakuen made
TitleUnicode:楽園まで
Artist:Nishimori Yusa(CV.Uchida Maaya)
ArtistUnicode:西森柚咲(CV:内田真礼)
Creator:Rizia
Version:Insane
Source:Charlotte
Tags:シャーロット key ending how-low-hello kawaiwkyik xxdeathx Enjoy enju - e n j u - Flask Kencho Rakuen
BeatmapID:744184
BeatmapSetID:336241

[Difficulty]
HPDrainRate:7
CircleSize:4
OverallDifficulty:8
ApproachRate:9
SliderMultiplier:1.8
SliderTickRate:1

[Events]
//Background and Video events
0,0,"ED07.png",0,0
//Break Periods
//Storyboard Layer 0 (Background)
//Storyboard Layer 1 (Fail)
//Storyboard Layer 2 (Pass)
//Storyboard Layer 3 (Foreground)
//Storyboard Sound Samples

[TimingPoints]
528,394.736842105263,4,1,1,80,1,0
6843,-100,4,2,1,60,0,0
19475,-100,4,1,1,60,0,0
32106,-100,4,1,1,70,0,0
44738,-100,4,1,1,80,0,1
66843,-100,4,1,1,70,0,0
79475,-100,4,1,1,80,0,1
84212,-133.333333333333,4,1,1,80,0,0
85791,-100,4,1,1,80,0,1
88850,-100,4,1,1,80,0,0

[Colours]
Combo1 : 255,128,0
Combo2 : 255,0,0
Combo3 : 255,255,0
Combo4 : 128,0,0

[HitObjects]
316,100,528,6,0,P|352:144|348:232,1,135,4|0,0:0|0:0,0:0:0:0:
332,248,922,1,8,0:0:0:0:
100,236,1120,2,0,P|160:174|247:184,1,180,4|0,0:2|0:0,0:0:0:0:
484,176,1712,1,8,0:0:0:0:
340,232,1909,1,0,0:0:0:0:
432,372,2106,6,0,L|440:268,1,90
438,282,2402,1,0,0:0:0:0:
438,282,2501,1,8,0:0:0:0:
252,204,2699,1,0,0:0:0:0:
193,282,2896,1,0,0:0:0:0:
234,298,2994,1,8,0:0:0:0:
278,293,3093,1,0,0:0:0:0:
316,269,3192,1,0,0:0:0:0:
339,231,3290,1,8,0:0:0:0:
164,168,3488,1,0,0:0:0:0:
104,364,3685,6,0,B|152:344|192:368|236:392|284:356,1,180,4|8,0:0|0:0,0:0:0:0:
252,204,4277,1,0,0:0:0:0:
278,359,4475,1,0,0:0:0:0:
412,268,4672,2,0,P|400:332|392:384,1,90,0|8,0:0|0:0,0:0:0:0:
160,208,5067,6,0,L|344:192,1,180,0|8,0:0|0:0,0:0:0:0:
339,192,5560,1,8,0:0:0:0:
339,192,5659,1,8,0:0:0:0:
456,132,5856,1,0,0:0:0:0:
320,280,6054,1,8,0:0:0:0:
284,92,6251,1,8,0:0:0:0:
244,72,6350,1,8,0:0:0:0:
200,72,6449,1,8,0:0:0:0:
160,92,6547,1,8,0:0:0:0:
124,120,6646,1,8,0:0:0:0:
80,120,6745,1,8,0:0:0:0:
44,92,6843,6,0,L|56:212,1,90,4|0,0:0|0:0,0:0:0:0:
38,321,7238,1,0,0:0:0:0:
52,181,7436,1,0,0:0:0:0:
165,263,7633,1,0,0:0:0:0:
4,246,7830,1,0,0:0:0:0:
132,190,8028,1,0,0:0:0:0:
117,329,8225,1,0,0:0:0:0:
256,348,8422,6,0,P|312:340|356:336,1,90,2|0,0:0|0:0,0:0:0:0:
271,209,8817,1,0,0:0:0:0:
165,263,9014,2,0,P|109:271|65:275,1,90
240,276,9409,1,0,0:0:0:0:
152,168,9606,1,0,0:0:0:0:
128,356,9804,1,0,0:0:0:0:
152,168,10001,6,0,L|140:72,2,90,2|0|0,0:0|0:0|0:0,0:0:0:0:
320,220,10593,2,0,P|332:268|328:316,1,90,2|0,0:0|0:0,0:0:0:0:
232,176,10988,2,0,P|267:141|311:121,1,90,2|0,0:0|0:0,0:0:0:0:
240,276,11383,1,0,0:0:0:0:
240,276,11580,6,0,P|192:262|152:234,2,90,2|0|0,0:0|0:0|0:0,0:0:0:0:
384,360,12172,2,0,P|340:368|280:384,1,90,2|0,0:0|0:0,0:0:0:0:
200,256,12567,1,0,0:0:0:0:
156,368,12764,1,0,0:0:0:0:
216,224,12962,6,0,P|144:264|48:252,1,180,0|0,3:0|0:0,0:0:0:0:
200,112,13554,1,0,0:0:0:0:
200,112,13751,2,0,L|96:136,1,90,2|0,0:0|0:0,0:0:0:0:
312,272,14146,2,0,L|416:248,2,90,2|0|0,0:0|0:0|0:0,0:0:0:0:
256,344,14738,6,0,P|260:296|272:160,1,180,2|0,0:0|0:0,0:0:0:0:
160,200,15330,2,0,P|108:212|52:220,1,90,2|0,0:0|0:0,0:0:0:0:
200,96,15725,1,2,0:0:0:0:
264,248,15922,2,0,P|316:236|372:228,1,90
432,300,16317,6,0,P|464:256|432:144,2,180,2|0|2,0:0|0:0|0:0,0:0:0:0:
432,300,17304,1,0,0:0:0:0:
340,248,17501,1,0,0:0:0:0:
264,360,17699,1,0,0:0:0:0:
144,300,17896,6,0,L|132:200,1,90,2|0,0:0|0:0,0:0:0:0:
224,256,18291,2,0,L|212:156,1,90
300,208,18685,1,0,0:0:0:0:
264,360,18883,1,8,0:1:0:0:
140,208,19080,1,8,0:1:0:0:
352,284,19277,1,0,0:0:0:0:
312,32,19475,6,0,P|320:88|324:132,1,90,4|0,0:0|0:0,0:0:0:0:
224,256,19870,1,8,0:0:0:0:
236,140,20067,1,0,0:0:0:0:
388,204,20264,1,0,0:0:0:0:
144,304,20462,1,0,0:0:0:0:
300,208,20659,1,8,0:0:0:0:
128,88,20856,1,0,0:0:0:0:
40,280,21054,5,0,0:0:0:0:
144,212,21251,1,0,0:0:0:0:
224,352,21449,2,0,P|264:348|316:336,2,90,8|0|0,0:0|0:0|0:0,0:0:0:0:
144,304,22041,1,0,0:0:0:0:
300,208,22238,1,8,0:0:0:0:
108,324,22435,1,0,0:0:0:0:
200,68,22633,5,0,0:0:0:0:
216,156,22830,1,0,0:0:0:0:
232,244,23027,1,8,0:0:0:0:
44,172,23225,2,0,L|92:180|164:192,1,90
300,296,23620,1,0,0:0:0:0:
196,338,23817,2,0,L|148:330|76:318,1,90,8|0,0:0|0:0,0:0:0:0:
132,186,24212,5,0,0:0:0:0:
107,323,24409,1,0,0:0:0:0:
132,186,24606,1,8,0:0:0:0:
288,232,24804,1,0,0:0:0:0:
124,100,25001,1,0,0:0:0:0:
72,248,25199,1,0,0:0:0:0:
216,156,25396,1,8,0:0:0:0:
20,68,25593,1,2,0:3:0:0:
28,316,25791,6,0,P|80:300|196:368,1,180,0|8,0:0|0:0,0:0:0:0:
380,324,26383,1,0,0:0:0:0:
316,264,26580,2,0,L|224:280,2,90,0|0|8,0:0|0:0|0:0,0:0:0:0:
456,372,27172,6,0,P|468:320|460:276,1,90
156,232,27567,2,0,P|144:284|152:328,1,90,0|8,0:0|0:0,0:0:0:0:
316,264,27962,1,0,0:0:0:0:
176,152,28159,2,0,B|140:148|140:148|80:172,1,90
296,348,28554,2,0,B|332:352|332:352|392:328,1,90,8|0,0:0|0:0,0:0:0:0:
360,36,28949,5,0,0:0:0:0:
320,136,29146,1,0,0:0:0:0:
420,172,29343,1,8,0:0:0:0:
260,72,29541,1,0,0:0:0:0:
244,248,29738,2,0,P|252:308|256:348,1,90
431,261,30133,2,0,P|423:201|419:161,1,90,8|0,0:0|0:0,0:0:0:0:
176,152,30527,5,0,0:0:0:0:
419,171,30725,1,0,0:0:0:0:
249,334,30922,2,0,P|235:291|244:248,1,90,4|0,0:2|0:0,0:0:0:0:
332,56,31317,1,0,0:0:0:0:
336,84,31416,1,8,0:0:0:0:
340,112,31514,1,8,0:0:0:0:
360,256,31712,1,0,0:0:0:0:
360,256,31909,1,0,0:0:0:0:
224,196,32106,6,0,L|136:212,1,90,4|0,0:0|0:0,0:0:0:0:
56,280,32501,1,8,0:0:0:0:
168,368,32699,2,0,P|212:384|344:304,1,180
456,224,33291,1,8,0:0:0:0:
272,196,33488,1,0,0:0:0:0:
380,104,33685,5,0,0:0:0:0:
360,256,33883,1,0,0:0:0:0:
316,56,34080,1,8,0:0:0:0:
252,224,34277,2,0,P|344:212|472:196,1,180
380,104,34870,1,8,0:0:0:0:
268,120,35067,1,0,0:0:0:0:
312,328,35264,6,0,P|366:320|442:311,1,90,0|0,0:0|3:0,0:0:0:0:
252,224,35659,1,8,0:0:0:0:
176,332,35856,2,0,P|104:348|-4:376,1,180,4|0,0:0|0:0,0:0:0:0:
52,140,36449,1,8,0:0:0:0:
88,264,36646,1,8,0:0:0:0:
88,264,36745,1,8,0:0:0:0:
88,264,36843,6,0,P|152:244|196:236,1,90,4|0,0:0|0:0,0:0:0:0:
376,192,37238,1,8,0:0:0:0:
300,360,37435,2,0,P|284:304|256:176,1,180,4|0,0:0|0:0,0:0:0:0:
420,112,38027,1,8,0:0:0:0:
456,137,38125,1,8,0:0:0:0:
474,177,38224,1,8,0:0:0:0:
469,222,38323,1,8,0:0:0:0:
442,257,38422,6,0,L|340:272,1,90,4|0,0:0|0:0,0:0:0:0:
176,260,38817,1,8,0:0:0:0:
276,285,39014,2,0,P|278:240|260:200,1,90
72,240,39409,2,0,P|69:284|88:325,1,90,0|8,0:0|0:0,0:0:0:0:
100,144,39804,1,0,0:0:0:0:
100,144,40001,6,0,B|64:140|64:140|12:160,1,90
176,260,40396,2,0,B|212:264|212:264|264:244,1,90,8|0,0:0|0:0,0:0:0:0:
304,132,40791,1,0,0:0:0:0:
272,332,40988,1,0,0:0:0:0:
192,180,41185,1,8,0:0:0:0:
368,284,41383,1,0,0:0:0:0:
176,368,41580,6,0,L|80:360,1,90
8,236,41975,2,0,L|104:244,1,90,4|8,0:2|0:0,0:0:0:0:
97,243,42271,1,8,0:0:0:0:
97,243,42370,1,8,0:0:0:0:
192,344,42567,1,0,0:0:0:0:
272,180,42764,1,8,0:0:0:0:
352,368,42962,1,0,0:0:0:0:
116,280,43159,5,8,0:0:0:0:
396,104,43356,1,8,0:0:0:0:
344,332,43554,1,8,0:0:0:0:
168,52,43751,1,8,0:0:0:0:
256,192,43949,1,8,0:0:0:0:
200,296,44738,6,0,P|136:308|20:336,1,180,4|8,0:0|0:0,0:0:0:0:
320,320,45330,1,0,0:0:0:0:
320,320,45429,1,8,0:0:0:0:
320,320,45527,1,0,0:0:0:0:
248,124,45725,2,0,L|264:224,1,90,0|8,0:0|0:0,0:0:0:0:
288,352,46120,1,0,0:0:0:0:
424,288,46317,5,0,0:0:0:0:
232,212,46514,1,0,0:0:0:0:
344,100,46712,1,8,0:0:0:0:
488,224,46909,1,0,0:0:0:0:
448,202,47007,1,8,0:0:0:0:
404,201,47106,1,0,0:0:0:0:
363,220,47205,1,8,0:0:0:0:
336,255,47303,1,0,0:0:0:0:
364,364,47501,1,8,0:0:0:0:
392,68,47699,2,0,L|397:112,1,45
424,288,47896,5,0,0:0:0:0:
232,212,48093,1,0,0:0:0:0:
328,136,48291,1,8,0:0:0:0:
264,336,48488,1,0,0:0:0:0:
264,336,48587,1,0,0:0:0:0:
264,336,48685,1,0,0:0:0:0:
120,268,48883,1,0,0:0:0:0:
8,372,49080,1,8,0:0:0:0:
166,326,49277,2,0,L|174:270,1,45
188,130,49475,6,0,P|140:202|173:282,1,180,0|8,0:0|0:0,0:0:0:0:
368,356,50067,1,0,0:0:0:0:
364,312,50166,1,8,0:0:0:0:
360,268,50264,1,0,0:0:0:0:
356,224,50363,1,8,0:0:0:0:
352,180,50462,1,0,0:0:0:0:
232,212,50659,1,8,0:0:0:0:
464,336,50856,1,0,0:0:0:0:
460,292,50955,1,8,0:0:0:0:
456,248,51054,6,0,B|448:184|448:184|456:132|456:132|448:56,1,180,4|8,0:0|0:0,0:0:0:0:
268,60,51646,1,0,0:0:0:0:
292,52,51745,1,8,0:0:0:0:
316,44,51843,1,0,0:0:0:0:
172,140,52041,1,0,0:0:0:0:
338,268,52238,2,0,P|346:220|354:164,1,90,8|0,0:0|0:0,0:0:0:0:
108,80,52633,6,0,P|100:128|92:184,1,90
180,296,53027,1,8,0:0:0:0:
416,260,53225,1,0,0:0:0:0:
398,219,53323,1,8,0:0:0:0:
362,193,53422,1,0,0:0:0:0:
317,191,53521,1,8,0:0:0:0:
278,212,53619,1,0,0:0:0:0:
104,344,53817,1,8,0:0:0:0:
350,357,54014,1,0,0:0:0:0:
350,357,54113,1,0,0:0:0:0:
350,357,54212,6,0,P|342:297|334:241,1,90
244,136,54606,1,8,0:0:0:0:
204,256,54804,1,0,0:0:0:0:
204,256,54902,1,8,0:0:0:0:
204,256,55001,1,0,0:0:0:0:
320,232,55199,1,0,0:0:0:0:
124,160,55396,1,8,0:0:0:0:
336,64,55593,1,0,0:0:0:0:
268,352,55791,5,0,0:0:0:0:
48,200,55988,1,0,0:0:0:0:
316,32,56185,1,8,0:0:0:0:
88,324,56383,1,0,0:0:0:0:
61,287,56481,1,8,0:0:0:0:
48,244,56580,1,0,0:0:0:0:
48,200,56679,1,8,0:0:0:0:
62,157,56777,1,0,0:0:0:0:
336,64,56975,1,8,0:0:0:0:
268,352,57172,2,0,L|256:288,1,45,0|8,0:0|0:0,0:0:0:0:
304,196,57370,6,0,P|292:304|284:388,1,180,4|8,0:0|0:0,0:0:0:0:
192,208,57962,1,0,0:0:0:0:
188,180,58060,1,8,0:0:0:0:
184,152,58159,1,0,0:0:0:0:
165,19,58356,1,0,0:0:0:0:
276,152,58554,1,8,0:0:0:0:
208,332,58751,1,0,0:0:0:0:
208,332,58850,1,0,0:0:0:0:
208,332,58949,6,0,P|160:356|56:304,1,180,0|8,0:0|0:0,0:0:0:0:
165,19,59541,1,0,0:0:0:0:
171,63,59639,1,8,0:0:0:0:
178,108,59738,1,0,0:0:0:0:
184,152,59837,1,8,0:0:0:0:
191,197,59935,1,0,0:0:0:0:
336,272,60133,1,8,0:0:0:0:
328,136,60330,1,0,0:0:0:0:
328,136,60429,1,0,0:0:0:0:
328,136,60527,5,0,0:0:0:0:
164,228,60725,1,0,0:0:0:0:
416,312,60922,1,8,0:0:0:0:
268,372,61120,1,0,0:0:0:0:
264,344,61218,1,8,0:0:0:0:
260,316,61317,1,0,0:0:0:0:
236,168,61514,5,8,0:0:0:0:
198,143,61612,1,8,0:0:0:0:
154,138,61711,1,8,0:0:0:0:
112,153,61810,1,8,0:0:0:0:
81,186,61908,1,8,0:0:0:0:
69,228,62007,1,8,0:0:0:0:
77,272,62106,6,0,L|84:336,1,45,4|0,0:0|0:0,0:0:0:0:
178,376,62304,2,0,L|182:331,1,45
244,240,62501,1,0,0:0:0:0:
280,232,62600,1,0,0:0:0:0:
316,232,62699,1,0,0:0:0:0:
348,244,62797,1,0,0:0:0:0:
376,268,62896,5,4,0:0:0:0:
492,160,63093,1,0,0:0:0:0:
504,116,63192,1,0,0:0:0:0:
492,72,63291,1,0,0:0:0:0:
456,48,63389,1,0,0:0:0:0:
412,48,63488,1,0,0:0:0:0:
376,72,63587,1,0,0:0:0:0:
336,96,63685,6,0,P|280:112|128:88,1,180,4|8,0:0|0:0,0:0:0:0:
76,200,64277,2,0,L|88:308,1,90
224,352,64672,1,0,0:0:0:0:
224,352,64771,1,0,0:0:0:0:
224,352,64870,2,0,L|212:244,1,90,8|0,0:0|0:0,0:0:0:0:
160,101,65264,5,0,0:0:0:0:
76,200,65462,1,0,0:0:0:0:
284,236,65659,1,12,0:0:0:0:
68,176,65856,1,0,0:0:0:0:
244,144,66054,1,8,0:0:0:0:
244,144,66152,1,8,0:0:0:0:
244,144,66251,1,8,0:0:0:0:
184,320,66449,2,0,L|136:312,1,45,8|8,0:0|0:0,0:0:0:0:
52,252,66646,2,0,L|100:244,1,45,8|8,0:0|0:0,0:0:0:0:
184,192,66843,6,0,P|204:136|104:48,1,180,4|8,0:0|0:0,0:0:0:0:
308,176,67435,1,0,0:0:0:0:
324,184,67534,1,8,0:0:0:0:
340,192,67633,2,0,L|444:176,1,90
452,72,68027,2,0,L|348:88,1,90,8|0,0:0|0:0,0:0:0:0:
256,288,68422,6,0,P|296:272|396:316,1,135
396,324,68817,1,8,0:0:0:0:
212,372,69014,1,0,0:0:0:0:
179,341,69112,1,8,0:0:0:0:
164,299,69211,1,0,0:0:0:0:
169,255,69310,1,8,0:0:0:0:
193,217,69408,1,0,0:0:0:0:
220,48,69606,1,8,0:0:0:0:
256,288,69804,1,0,0:0:0:0:
256,288,69902,1,0,0:0:0:0:
256,288,70001,6,0,L|236:136,1,135
236,128,70396,1,8,0:0:0:0:
344,248,70593,1,0,0:0:0:0:
344,248,70692,1,8,0:0:0:0:
344,248,70791,1,0,0:0:0:0:
168,332,70988,1,0,0:0:0:0:
336,380,71185,1,8,0:0:0:0:
136,328,71383,1,0,0:0:0:0:
392,172,71580,6,0,P|424:212|412:304,1,135
352,336,71975,2,0,L|256:328,1,90,8|0,0:0|0:0,0:0:0:0:
262,328,72271,1,8,0:0:0:0:
262,328,72370,1,0,0:0:0:0:
88,256,72567,1,0,0:0:0:0:
236,128,72764,2,0,L|325:135,1,90,4|0,0:0|0:0,0:0:0:0:
344,248,73159,6,0,B|288:244|288:244|232:256|232:256|164:252,1,180,4|8,0:0|0:0,0:0:0:0:
48,240,73751,1,0,0:0:0:0:
48,240,73850,1,8,0:0:0:0:
48,240,73949,1,0,0:0:0:0:
124,156,74146,1,0,0:0:0:0:
60,344,74343,1,8,0:0:0:0:
100,128,74541,1,0,0:0:0:0:
208,300,74738,5,0,0:0:0:0:
312,268,74935,1,0,0:0:0:0:
236,192,75133,1,8,0:0:0:0:
328,360,75330,1,0,0:0:0:0:
352,348,75429,1,8,0:0:0:0:
376,340,75527,1,0,0:0:0:0:
404,332,75626,1,8,0:0:0:0:
432,328,75725,1,0,0:0:0:0:
288,248,75922,1,8,0:0:0:0:
444,112,76120,2,0,L|436:176,1,45,0|8,0:0|0:0,0:0:0:0:
424,252,76317,6,0,L|408:64,1,180,0|8,0:0|0:0,0:0:0:0:
252,56,76909,1,0,0:0:0:0:
252,56,77008,1,8,0:0:0:0:
252,56,77106,1,0,0:0:0:0:
320,144,77304,1,0,0:0:0:0:
140,200,77501,1,8,0:0:0:0:
304,328,77699,1,0,0:0:0:0:
168,284,77896,6,0,P|112:300|64:316,1,90
304,328,78291,2,0,P|360:312|408:296,1,90,8|0,0:0|0:0,0:0:0:0:
390,302,78587,1,8,0:0:0:0:
390,302,78685,1,0,0:0:0:0:
480,164,78883,1,12,0:0:0:0:
320,144,79080,1,8,0:0:0:0:
280,140,79179,1,8,0:0:0:0:
240,136,79277,1,8,0:0:0:0:
200,132,79376,1,8,0:0:0:0:
160,128,79475,6,0,P|124:176|136:252,1,135,4|0,0:0|0:0,0:0:0:0:
160,272,79870,1,8,0:0:0:0:
48,136,80067,1,0,0:0:0:0:
48,136,80166,1,8,0:0:0:0:
48,136,80264,1,0,0:0:0:0:
248,232,80462,1,0,0:0:0:0:
76,364,80659,2,0,P|68:304|64:252,1,90,8|0,0:0|0:0,0:0:0:0:
60,120,81054,6,0,P|80:232|92:324,1,180,0|8,0:0|0:0,0:0:0:0:
312,320,81646,1,0,0:0:0:0:
343,289,81744,1,8,0:0:0:0:
358,247,81843,1,0,0:0:0:0:
354,202,81942,1,8,0:0:0:0:
331,164,82040,1,0,0:0:0:0:
164,184,82238,1,8,0:0:0:0:
308,24,82435,2,0,L|292:96,1,45,0|8,0:0|0:0,0:0:0:0:
248,232,82633,5,0,0:0:0:0:
200,100,82830,1,0,0:0:0:0:
96,292,83027,2,0,P|84:256|80:104,1,180,8|0,0:0|0:0,0:0:0:0:
248,232,83620,1,8,0:0:0:0:
290,248,83718,1,8,0:0:0:0:
333,238,83817,1,8,0:0:0:0:
363,206,83916,1,8,0:0:0:0:
371,162,84014,1,8,0:0:0:0:
352,122,84113,1,8,0:0:0:0:
314,99,84212,6,0,L|152:132,1,135.000005149842,4|0,0:0|0:0,0:0:0:0:
72,284,84804,1,0,0:0:0:0:
24,192,85001,2,0,L|156:218,1,135.000005149842,4|0,0:0|0:0,0:0:0:0:
276,352,85593,1,0,0:0:0:0:
312,276,85791,6,0,P|268:268|204:308,1,90,4|0,0:0|0:0,0:0:0:0:
376,368,86185,2,0,P|420:376|484:336,1,90,8|0,0:0|0:0,0:0:0:0:
424,168,86580,2,0,L|416:268,1,90
288,184,86975,1,8,0:0:0:0:
408,68,87172,1,0,0:0:0:0:
232,8,87370,5,8,0:0:0:0:
197,36,87468,1,8,0:0:0:0:
179,77,87567,1,8,0:0:0:0:
183,121,87666,1,8,0:0:0:0:
207,159,87764,1,8,0:0:0:0:
460,320,87962,5,8,0:0:0:0:
432,285,88060,1,8,0:0:0:0:
391,267,88159,1,8,0:0:0:0:
347,271,88258,1,8,0:0:0:0:
309,295,88356,1,8,0:0:0:0:
96,368,88554,5,8,0:0:0:0:
88,324,88652,1,8,0:0:0:0:
80,280,88751,1,8,0:0:0:0:
72,236,88850,1,8,0:0:0:0:
