osu file format v14

[General]
AudioFilename: Nirre - Science Blaster.mp3
AudioLeadIn: 0
PreviewTime: 488
Countdown: 0
SampleSet: None
StackLeniency: 0.7
Mode: 0
LetterboxInBreaks: 0
WidescreenStoryboard: 1

[Editor]
Bookmarks: 3321,8654,13988,19321,24654,29988,35321,40654,45988
DistanceSpacing: 1.4
BeatDivisor: 4
GridSize: 32
TimelineZoom: 1.5

[Metadata]
Title:Science Blaster (ft. Acid Usagi) (Cut ver.)
TitleUnicode:Science Blaster (ft. Acid Usagi) (Cut ver.)
Artist:Nirre
ArtistUnicode:Nirre
Creator:KecHik445
Version:Insane
Source:
Tags:Game Theory
BeatmapID:1665542
BeatmapSetID:793035

[Difficulty]
HPDrainRate:6
CircleSize:4
OverallDifficulty:7.5
ApproachRate:8.8
SliderMultiplier:1.6
SliderTickRate:2

[Events]
//Background and Video events
0,0,"bg.jpg",0,0
//Break Periods
//Storyboard Layer 0 (Background)
//Storyboard Layer 1 (Fail)
//Storyboard Layer 2 (Pass)
//Storyboard Layer 3 (Foreground)
//Storyboard Sound Samples

[TimingPoints]
655,333.333333333333,4,1,0,100,1,0
3321,-100,4,1,0,100,0,0
12821,-200,4,1,0,100,0,0
13154,-100,4,1,0,100,0,0
13488,-66.6666666666667,4,1,0,100,0,0
13988,-100,4,1,0,100,0,0
24654,-100,4,1,0,100,0,0
34154,-200,4,1,0,100,0,0
34488,-100,4,1,0,100,0,0
34821,-66.6666666666667,4,1,0,100,0,0
35321,-100,4,1,0,100,0,0
46321,-100,4,1,0,75,0,0
46654,-100,4,1,0,50,0,0
46988,-100,4,1,0,25,0,0
47321,-100,4,1,0,5,0,0

[HitObjects]
391,74,2988,5,0,0:0:0:0:
391,74,3321,6,0,P|454:122|464:200,1,160,12|2,0:0|0:0,0:0:0:0:
395,266,3821,1,0,0:0:0:0:
367,173,3988,2,0,P|327:195|310:224,1,80,10|2,0:0|0:0,0:0:0:0:
315,318,4321,1,0,0:0:0:0:
170,298,4488,2,0,P|239:334|315:318,1,160,2|0,0:0|0:0,0:0:0:0:
293,102,4988,5,2,0:0:0:0:
255,223,5154,1,2,0:0:0:0:
169,129,5321,1,8,0:0:0:0:
24,215,5488,5,2,0:0:0:0:
170,298,5654,1,2,0:0:0:0:
169,129,5821,1,0,0:0:0:0:
57,328,5988,5,8,0:0:0:0:
255,223,6154,1,2,0:0:0:0:
34,192,6321,1,2,0:0:0:0:
195,347,6488,1,0,0:0:0:0:
156,127,6654,1,10,0:0:0:0:
69,68,6821,2,0,P|137:24|229:51,1,160,2|2,0:0|0:0,0:0:0:0:
436,80,7488,6,0,P|400:97|361:94,2,80,0|2|2,0:0|0:0|0:0,0:0:0:0:
435,201,7988,2,0,P|470:184|510:187,2,80,8|2|2,0:0|0:0|0:0,0:0:0:0:
307,362,8488,1,0,0:0:0:0:
307,362,8571,1,0,0:0:0:0:
307,362,8654,6,0,P|334:289|304:217,1,160,12|2,0:0|0:0,0:0:0:0:
148,103,9321,1,10,0:0:0:0:
25,193,9488,2,0,B|61:149|149:231|185:185,1,160,2|2,0:0|0:0,0:0:0:0:
333,58,10154,6,0,L|354:146,1,80,0|2,0:0|0:0,0:0:0:0:
398,351,10488,2,0,L|416:273,1,80,2|8,0:0|0:0,0:0:0:0:
463,81,10821,1,2,0:0:0:0:
509,191,10988,1,2,0:0:0:0:
390,175,11154,1,0,0:0:0:0:
271,159,11321,6,0,L|183:143,1,80,8|2,0:0|0:0,0:0:0:0:
14,249,11654,2,0,L|101:233,1,80,2|0,0:0|0:0,0:0:0:0:
220,277,11988,1,10,0:0:0:0:
192,145,12154,2,0,P|121:159|94:240,1,160,2|2,0:0|0:0,0:0:0:0:
352,267,12821,6,0,P|372:262|376:282,1,40,0|2,0:0|0:0,0:0:0:0:
374,190,13154,6,0,P|412:180|420:218,1,80,2|8,0:0|0:0,0:0:0:0:
401,115,13488,6,0,P|453:101|464:154,1,120.000004577637,2|2,0:0|0:0,0:0:0:0:
437,330,13821,1,0,0:0:0:0:
232,253,13988,6,0,P|237:161|189:91,1,160,12|2,0:0|0:0,0:0:0:0:
112,40,14488,1,0,0:0:0:0:
31,115,14654,2,0,P|63:139|101:150,1,80,10|2,0:0|0:0,0:0:0:0:
204,104,14988,1,0,0:0:0:0:
101,150,15154,2,0,L|92:322,1,160,2|0,0:0|0:0,0:0:0:0:
182,376,15654,5,2,0:0:0:0:
362,342,15821,2,0,P|325:330|266:336,1,80,2|8,0:0|0:0,0:0:0:0:
182,376,16070,1,0,0:0:0:0:
182,376,16154,2,0,L|203:279,1,80,2|2,0:0|0:0,0:0:0:0:
242,195,16488,5,0,0:0:0:0:
242,195,16571,1,0,0:0:0:0:
242,195,16654,2,0,P|283:202|340:193,1,80,8|2,0:0|0:0,0:0:0:0:
418,142,16988,1,2,0:0:0:0:
322,86,17154,1,0,0:0:0:0:
418,30,17321,1,10,0:0:0:0:
418,142,17488,2,0,P|430:226|382:298,1,160,2|2,0:0|0:0,0:0:0:0:
182,376,18154,5,0,0:0:0:0:
182,376,18238,1,0,0:0:0:0:
182,376,18321,2,0,L|170:278,1,80,2|2,0:0|0:0,0:0:0:0:
147,140,18654,1,8,0:0:0:0:
38,111,18821,1,2,0:0:0:0:
68,220,18988,1,2,0:0:0:0:
226,60,19154,1,0,0:0:0:0:
226,60,19238,1,0,0:0:0:0:
226,60,19321,6,0,P|265:49|308:51,1,80,12|2,0:0|0:0,0:0:0:0:
461,170,19654,2,0,P|422:181|379:179,1,80,2|0,0:0|0:0,0:0:0:0:
408,73,19988,1,10,0:0:0:0:
382,179,20154,1,2,0:0:0:0:
356,285,20321,1,0,0:0:0:0:
106,331,20488,6,0,P|168:297|252:316,1,160,2|0,0:0|0:0,0:0:0:0:
428,277,20988,2,0,P|396:294|354:284,1,80,2|2,0:0|0:0,0:0:0:0:
276,209,21238,1,0,0:0:0:0:
276,209,21321,2,0,L|238:114,1,80,8|2,0:0|0:0,0:0:0:0:
181,0,21654,2,0,L|143:95,1,80,2|0,0:0|0:0,0:0:0:0:
67,198,21988,5,8,0:0:0:0:
67,198,22071,1,0,0:0:0:0:
67,198,22154,2,0,L|147:187,1,80,0|2,0:0|0:0,0:0:0:0:
257,175,22488,1,0,0:0:0:0:
368,168,22654,1,10,0:0:0:0:
479,176,22821,1,2,0:0:0:0:
479,176,23154,5,2,0:0:0:0:
381,46,23321,1,10,0:0:0:0:
178,235,23654,1,2,0:0:0:0:
410,336,23988,1,10,0:0:0:0:
202,61,24321,1,0,0:0:0:0:
68,379,24654,6,0,P|48:310|79:208,1,160,12|2,0:0|0:0,0:0:0:0:
132,134,25154,1,0,0:0:0:0:
178,235,25321,2,0,L|214:311,1,80,10|2,0:0|0:0,0:0:0:0:
318,341,25654,1,0,0:0:0:0:
443,264,25821,2,0,P|394:325|317:340,1,160,2|0,0:0|0:0,0:0:0:0:
226,171,26321,5,2,0:0:0:0:
339,233,26488,1,2,0:0:0:0:
389,115,26654,1,8,0:0:0:0:
229,300,26821,5,2,0:0:0:0:
389,115,26988,1,2,0:0:0:0:
149,69,27154,1,0,0:0:0:0:
453,295,27321,5,8,0:0:0:0:
312,13,27488,1,2,0:0:0:0:
261,325,27654,1,2,0:0:0:0:
486,103,27821,1,0,0:0:0:0:
174,151,27988,1,10,0:0:0:0:
265,214,28154,2,0,P|281:137|242:62,1,160,2|2,0:0|0:0,0:0:0:0:
41,369,28821,6,0,L|56:290,2,80,0|2|2,0:0|0:0|0:0,0:0:0:0:
181,232,29321,2,0,L|166:311,2,80,8|2|2,0:0|0:0|0:0,0:0:0:0:
224,53,29821,1,0,0:0:0:0:
224,53,29904,1,0,0:0:0:0:
224,53,29988,6,0,P|303:63|387:42,1,160,12|2,0:0|0:0,0:0:0:0:
368,294,30654,1,10,0:0:0:0:
487,192,30821,2,0,B|453:234|365:152|337:191,1,160,2|2,0:0|0:0,0:0:0:0:
97,268,31488,6,0,L|182:282,1,80,0|2,0:0|0:0,0:0:0:0:
177,95,31821,2,0,L|92:109,1,80,2|8,0:0|0:0,0:0:0:0:
0,192,32154,1,2,0:0:0:0:
112,193,32321,1,2,0:0:0:0:
224,194,32488,1,0,0:0:0:0:
416,195,32654,6,0,L|327:195,1,80,8|2,0:0|0:0,0:0:0:0:
177,95,32988,2,0,L|257:95,1,80,2|0,0:0|0:0,0:0:0:0:
289,314,33321,1,10,0:0:0:0:
44,302,33488,2,0,P|106:260|190:272,1,160,2|2,0:0|0:0,0:0:0:0:
378,246,34154,6,0,L|406:273,1,40,0|2,0:0|0:0,0:0:0:0:
320,190,34488,6,0,L|377:245,1,80,2|8,0:0|0:0,0:0:0:0:
233,106,34821,6,0,L|321:192,1,120.000004577637,2|2,0:0|0:0,0:0:0:0:
406,273,35154,1,0,0:0:0:0:
465,40,35321,6,0,P|385:31|301:70,1,160,12|2,0:0|0:0,0:0:0:0:
242,147,35821,1,0,0:0:0:0:
315,232,35988,2,0,P|341:202|352:164,1,80,10|2,0:0|0:0,0:0:0:0:
312,60,36321,1,0,0:0:0:0:
351,164,36488,2,0,L|374:339,1,160,2|0,0:0|0:0,0:0:0:0:
468,265,36988,5,2,0:0:0:0:
274,267,37154,2,0,P|271:315|257:344,1,80,2|8,0:0|0:0,0:0:0:0:
189,216,37404,1,0,0:0:0:0:
189,216,37488,2,0,P|192:168|206:139,1,80,2|2,0:0|0:0,0:0:0:0:
425,91,37821,5,0,0:0:0:0:
425,91,37904,1,0,0:0:0:0:
425,91,37988,2,0,P|379:102|327:100,1,80,8|2,0:0|0:0,0:0:0:0:
234,104,38321,1,2,0:0:0:0:
122,95,38488,1,0,0:0:0:0:
113,207,38654,1,10,0:0:0:0:
224,214,38821,2,0,P|191:285|120:318,1,160,2|2,0:0|0:0,0:0:0:0:
16,63,39488,5,0,0:0:0:0:
16,63,39571,1,0,0:0:0:0:
16,63,39654,2,0,L|20:167,1,80,2|2,0:0|0:0,0:0:0:0:
15,255,39988,1,8,0:0:0:0:
113,207,40154,1,2,0:0:0:0:
203,267,40321,1,2,0:0:0:0:
391,279,40488,5,0,0:0:0:0:
391,279,40571,1,0,0:0:0:0:
391,279,40654,2,0,P|398:226|382:177,1,80,12|2,0:0|0:0,0:0:0:0:
221,38,40988,2,0,P|215:77|222:116,1,80,2|0,0:0|0:0,0:0:0:0:
264,243,41321,1,10,0:0:0:0:
392,200,41488,1,2,0:0:0:0:
349,72,41654,1,0,0:0:0:0:
63,100,41821,6,0,L|238:118,1,160,2|0,0:0|0:0,0:0:0:0:
392,200,42321,2,0,L|286:210,1,80,2|2,0:0|0:0,0:0:0:0:
278,332,42571,1,0,0:0:0:0:
278,332,42654,2,0,L|383:321,1,80,8|2,0:0|0:0,0:0:0:0:
185,208,42988,2,0,L|106:200,1,80,2|0,0:0|0:0,0:0:0:0:
256,32,43321,5,8,0:0:0:0:
256,32,43404,1,0,0:0:0:0:
256,32,43488,2,0,L|256:118,1,80,2|2,0:0|0:0,0:0:0:0:
182,247,43821,1,0,0:0:0:0:
343,242,43988,1,10,0:0:0:0:
256,112,44154,1,2,0:0:0:0:
256,112,44488,5,2,0:0:0:0:
108,382,44654,1,10,0:0:0:0:
416,376,44988,1,2,0:0:0:0:
256,112,45321,1,10,0:0:0:0:
108,382,45654,1,0,0:0:0:0:
416,376,45988,1,14,0:0:0:0:
256,192,46071,12,0,47321,0:0:0:0:
