osu file format v5

[General]
AudioFilename: C09 - Ocarina of Time - Medley.mp3
AudioLeadIn: 1268
PreviewTime: -1
Countdown: 1
SampleSet: Soft
StackLeniency: 0.7
Mode: 0
LetterboxInBreaks: 1

[Metadata]
Title:Ocarina of Time Medley
Artist:Nintendo/Michiko Naruko
Creator:Ace of Trades
Version:Normal
Source:The Ocarina of Time Medley from Super Smash Bros Brawl
Tags:Brawl Super Smash Bros Ocarina Time Medley Zelda Legend of

[Difficulty]
HPDrainRate:4
CircleSize:5
OverallDifficulty:4
SliderMultiplier:1
SliderTickRate:2

[Events]
//Background and Video events
0,0,"ocarina-of-time-logo.jpg"
//Break Periods
2,91707,96560
//Storyboard Layer 0 (Background)
//Storyboard Layer 1 (Failing)
//Storyboard Layer 2 (Passing)
//Storyboard Layer 3 (Foreground)
//Storyboard Sound Samples
//Background Colour Transformations
3,100,0,0,0

[TimingPoints]
36,413.793103448276,4,2,0,70,1
35208,413.850186232584,4,1,0,70,0
37691,413.850186232584,4,2,0,70,0
78242,413.850186232584,4,1,0,70,0

[Colours]
Combo1 : 200,38,38
Combo2 : 40,205,31
Combo3 : 45,88,228

[HitObjects]
256,192,35,1,2
336,192,449,2,2,B|384:336|224:272,1,200
168,224,1691,2,2,B|128:96|256:56,1,200
320,64,2932,6,2,B|432:112|400:240,1,200
360,288,4173,2,2,B|280:360|168:280,1,200
128,224,5415,2,2,B|88:112|216:56,1,200
280,56,6656,6,2,B|408:72|408:200,1,200,0|0
392,264,7898,2,2,B|304:336|200:280,1,200
136,240,9139,2,2,B|144:328|208:368|288:336,1,200
336,296,10380,6,2,B|408:200|336:104,1,200
288,56,11622,2,2,B|160:24|120:128,1,200
112,200,12863,2,2,B|120:312|256:312,1,200
328,312,14104,6,2,B|448:312|424:160,1,200
400,96,15346,2,2,B|320:24|208:80,1,200
152,128,16587,2,2,B|128:192|152:288|216:312,1,200
256,192,17829,12,0,19898
256,192,20518,5,0
336,192,20932,1,2
176,192,21760,1,0
96,192,22173,1,2
256,192,23001,5,0
336,192,23415,1,2
416,192,23829,2,0,B|416:88,3,100,0|2|2|2
336,88,25484,5,0
256,88,25898,1,2
96,88,26725,1,0
176,88,27139,1,2
296,96,27760,5,0
376,88,28173,2,0,B|432:128|400:184,1,100
360,240,29001,2,0,B|320:296,2,50
360,80,30242,5,0
280,80,30656,2,0,B|216:80|192:144,1,100
160,200,31484,2,0,B|128:256,3,50
248,200,32725,6,0,B|304:200,3,50
336,200,33553,6,0,B|336:264,3,50
336,288,34380,6,0,B|272:288,3,50
240,288,35208,5,4
200,288,35415,1,4
120,288,35829,1,4
120,208,36242,1,4
120,168,36449,6,0,B|176:168,1,50
168,128,36863,2,0,B|112:128,1,50
120,88,37277,2,0,B|176:88,1,50
208,88,37691,5,0
272,40,38104,1,2
272,200,38932,1,0
200,160,39346,1,2
40,200,40173,6,0,B|72:272|160:296,1,150,0|8
192,296,41001,1,0
272,280,41415,2,0,B|392:208|360:96,1,200,0|8
304,56,42656,5,0
304,136,43070,1,0
224,136,43484,1,0
224,56,43898,2,0,B|336:56|336:200,1,200,0|2
336,272,45139,5,0
256,272,45553,1,0
256,192,45967,1,0
336,192,46380,2,2,B|336:280|216:280|216:184,1,200,0|2
216,104,47622,5,0
288,64,48036,1,2
288,224,48863,1,0
216,184,49277,1,2
352,264,50104,6,0,B|288:320|208:272,1,150,0|8
176,248,50932,1,0
128,184,51346,2,0,B|152:56|272:40,1,200,0|8
256,120,52587,1,0
256,200,53001,1,0
336,200,53415,1,0
336,120,53829,2,0,B|336:272|216:272,1,200
160,280,55070,5,0
96,232,55484,1,0
96,152,55898,1,0
160,104,56311,1,0
240,104,56725,1,0
296,160,57139,1,0
336,224,57553,6,0,B|336:288|272:288,1,100
264,208,58380,1,0
192,248,58794,2,0,B|144:112|296:128,1,200,0|2
360,160,60036,5,0
360,240,60449,1,0
304,296,60863,1,0
224,296,61277,1,0
168,240,61691,1,0
168,160,62104,1,0
232,112,62518,6,0,B|368:112|368:280|216:280,3,300
168,224,66656,1,0
168,144,67070,1,0
232,96,67484,5,0
272,96,67691,1,0
312,104,67898,2,0,B|272:200|208:144|160:248,1,200
168,272,68932,1,0
208,296,69139,2,0,B|312:312|384:200,1,200
392,176,70173,1,0
376,136,70380,2,0,B|336:88|264:120,4,100,0|0|0|2|2
400,208,72449,5,0
384,288,72863,1,0
312,312,73277,1,0
232,280,73691,1,0
192,208,74104,2,0,B|176:144|224:112,1,100,0|2
280,168,74932,5,0
352,144,75346,1,0
376,64,75760,1,0
296,64,76173,2,0,B|184:80|112:192|160:304,1,300,0|2
120,64,78242,5,0
120,144,78656,2,0,B|120:272|248:272,1,200
240,192,79898,1,0
320,192,80311,6,0,B|320:328|448:328,1,200,0|0
432,248,81553,1,0
432,208,81760,1,0
432,168,81967,1,8
432,88,82380,5,8
352,88,82794,1,0
312,88,83001,1,0
272,88,83208,1,8
272,168,83622,5,8
272,248,84036,1,0
232,248,84242,1,0
192,248,84449,1,8
192,168,84863,5,0
112,168,85277,2,0,B|64:280|200:336,1,200
216,256,86518,1,0
256,184,86932,2,0,B|376:240|424:104,1,200
344,80,88173,5,0
304,80,88380,1,0
264,80,88587,1,8
264,160,89001,5,8
264,240,89415,1,0
264,280,89622,1,0
264,320,89829,2,0,B|176:320|176:216,1,150,0|8
256,192,90863,12,0,91484
352,136,98104,5,0
352,96,98311,1,0
352,56,98518,1,8
280,96,98932,5,0
280,136,99139,1,0
280,176,99346,1,8
208,144,99760,5,0
208,104,99967,1,0
208,64,100173,1,8
136,104,100587,1,8
72,152,101001,5,0
72,112,101208,1,0
72,72,101415,1,0
144,112,101829,2,8,B|144:176|208:176,2,100
144,32,103070,1,0
224,32,103484,6,0,B|224:88|296:88,3,100,8|8|8|0
328,88,104932,1,0
368,88,105139,1,8
408,160,105553,5,0
368,160,105760,1,0
328,160,105967,1,8
368,232,106380,5,0
328,232,106587,1,0
288,232,106794,1,8
208,232,107208,1,0
256,192,107415,12,0,108036
216,120,108587,5,4
216,176,108863,1,4
304,120,109415,1,4
304,176,109691,1,12
