osu file format v5

[General]
AudioFilename: C09 - Ocarina of Time - Medley.mp3
AudioLeadIn: 1268
PreviewTime: -1
Countdown: 1
SampleSet: Normal
StackLeniency: 0.7
Mode: 0
LetterboxInBreaks: 1

[Metadata]
Title:Ocarina of Time Medley
Artist:Nintendo/Michiko Naruko
Creator:Ace of Trades
Version:Master Quest
Source:The Ocarina of Time Medley from Super Smash Bros Brawl
Tags:Brawl Super Smash Bros Ocarina Time Medley Zelda Legend of

[Difficulty]
HPDrainRate:7
CircleSize:6
OverallDifficulty:8
SliderMultiplier:1.6
SliderTickRate:2

[Events]
//Background and Video events
0,0,"ocarina-of-time-logo.jpg"
//Break Periods
//Storyboard Layer 0 (Background)
//Storyboard Layer 1 (Failing)
//Storyboard Layer 2 (Passing)
//Storyboard Layer 3 (Foreground)
//Storyboard Sound Samples
//Background Colour Transformations
3,100,0,0,0

[TimingPoints]
36,413.793103448276,4,2,0,70,1
35208,413.850186232584,4,1,0,70,0
37691,413.850186232584,4,2,0,70,0
78242,413.850186232584,4,1,0,70,0

[Colours]
Combo1 : 200,38,38
Combo2 : 40,205,31
Combo3 : 45,88,228

[HitObjects]
256,192,35,1,2
304,144,242,1,2
352,96,449,2,2,B|453:85|467:247|328:232,1,240,2|0
280,232,1277,1,2
280,104,1691,2,0,B|140:108|138:232|208:296,1,240,2|0
232,304,2518,5,2
296,320,2725,1,2
360,304,2932,2,0,B|479:204|368:96,1,240,2|0
312,72,3760,1,2
184,64,4173,2,0,B|62:161|160:280,1,240,2|0
208,304,5001,5,2
272,296,5208,1,2
328,264,5415,2,0,B|449:155|312:64,1,240,2|0
256,56,6242,1,2
136,96,6656,2,0,B|64:192|128:272|224:248,1,240,2|0
272,224,7484,5,2
376,144,7898,2,0,B|377:-1|200:24,1,240,2|0
152,48,8725,1,2
120,104,8932,1,2
120,168,9139,2,0,B|201:363|384:216,1,320,2|0
424,104,10380,6,0,B|347:221|200:176,1,240,2|0
160,144,11208,1,2
104,24,11622,2,0,B|-31:49|40:224,1,240,2|0
64,272,12449,5,2
112,312,12656,1,2
176,320,12863,2,0,B|329:343|360:192,1,240,2|0
368,144,13691,1,2
368,16,14104,2,0,B|526:-1|496:168,1,240,2|0
480,224,14932,5,2
448,280,15139,1,2
392,312,15346,2,0,B|239:360|160:248,1,240,2|0
144,200,16173,1,2
168,72,16587,2,0,B|295:8|384:120,1,240,2|0
392,176,17415,1,2
256,192,17829,12,0,19898
256,192,20518,5,0
304,232,20725,1,0
352,192,20932,1,2
96,192,21760,1,0
152,232,21967,1,0
200,192,22173,1,2
448,192,23001,5,0
392,232,23208,1,0
336,192,23415,1,2
248,96,23829,5,0
216,96,23932,1,0
192,120,24035,1,0
192,152,24139,1,0
208,176,24242,5,2
248,224,24449,1,2
248,288,24656,1,2
192,328,24863,1,2
136,288,25070,1,2
152,168,25484,5,0
152,104,25691,1,0
216,104,25898,1,2
320,336,26725,1,0
384,336,26932,1,0
384,272,27139,1,2
384,80,27760,5,0
360,136,27967,1,0
336,192,28173,1,0
208,192,28587,1,0
120,96,29001,5,0
120,64,29104,1,0
152,64,29208,1,0
216,72,29415,2,0,B|315:65|320:176,1,160,0|2
296,296,30242,5,0
256,344,30449,1,0
208,304,30656,1,0
208,176,31070,1,0
208,48,31484,5,0
232,24,31587,1,0
256,48,31691,1,0
256,112,31898,1,0
256,176,32104,1,0
448,192,32725,5,0
408,240,32932,1,0
368,192,33139,1,0
328,240,33346,1,0
280,192,33553,5,0
240,144,33760,1,0
288,96,33967,1,0
240,56,34173,1,0
192,96,34380,5,0
144,144,34587,1,0
104,96,34794,1,0
64,144,35001,1,0
64,208,35208,5,4
64,272,35415,1,4
152,360,35829,1,4
248,272,36242,1,4
248,208,36449,5,0
248,176,36553,1,0
280,176,36656,1,0
280,208,36760,1,0
280,240,36863,5,0
312,240,36967,1,0
312,272,37070,1,0
280,272,37173,1,0
248,272,37277,5,0
248,304,37380,1,0
216,304,37484,1,0
216,272,37587,1,0
216,240,37691,5,0
176,192,37898,1,0
176,128,38104,1,2
408,240,38932,1,0
456,192,39139,1,0
456,128,39346,1,2
208,64,40173,6,0,B|106:64|88:160,1,160
88,216,40794,1,8
112,272,41001,1,0
136,296,41104,1,0
168,296,41208,1,0
232,288,41415,2,0,B|420:294|408:72,1,320,0|8
312,64,42553,5,2
280,72,42656,2,0,B|208:112|232:224,1,160
144,288,43484,1,0
200,272,43691,1,0
232,224,43898,2,0,B|357:33|488:240,1,320,0|2
448,312,45036,5,2
432,320,45139,2,0,B|360:384|288:312,1,160
208,208,45967,1,0
176,152,46173,1,0
136,208,46380,2,0,B|9:285|-14:38|152:56,1,320,0|2
184,176,47622,5,0
224,128,47829,1,0
224,64,48036,1,2
448,176,48863,1,0
408,128,49070,1,0
408,64,49277,1,2
488,304,50104,6,0,B|435:361|336:344,1,160
272,336,50725,1,8
208,320,50932,1,0
184,304,51036,1,0
176,272,51139,1,0
176,208,51346,2,0,B|98:-6|344:48,1,320,0|8
424,88,52484,5,2
432,120,52587,1,0
400,240,53001,1,0
320,136,53415,1,0
288,80,53622,1,0
256,136,53829,2,0,B|194:240|80:312,1,240,0|2
24,320,54656,1,0
152,328,55070,5,0
280,304,55484,1,0
344,192,55898,1,0
280,80,56311,1,0
152,56,56725,1,0
152,184,57139,1,0
272,136,57553,5,0
304,192,57760,1,0
272,248,57967,1,0
160,192,58380,1,0
48,248,58794,2,0,B|30:122|120:34|248:72,1,320,0|2
352,136,60036,5,0
392,256,60449,1,0
312,352,60863,1,0
184,352,61277,1,0
96,256,61691,1,0
184,160,62104,1,0
296,96,62518,6,0,B|440:96|423:278|53:286|48:96|184:96,3,480
288,56,66656,1,0
408,104,67070,1,0
448,224,67484,5,0
416,280,67691,1,0
352,256,67898,2,0,B|303:364|144:360,1,240,0|2
112,304,68725,5,0
168,328,68932,1,0
232,320,69139,2,0,B|415:328|448:192,1,240,0|2
440,160,69967,5,0
384,192,70173,1,0
320,184,70380,2,0,B|246:238|160:160,4,160,0|0|0|2|2
408,96,72449,5,0
408,224,72863,1,0
304,304,73277,1,0
176,304,73691,1,0
136,248,73898,1,0
176,192,74104,2,0,B|251:126|320:192,1,160,0|2
368,304,74932,5,0
432,192,75346,1,0
360,88,75760,1,0
232,72,76173,2,0,B|152:112|120:192|200:320|304:296,1,320,0|2
256,24,78242,5,0
136,72,78656,2,0,B|136:160|256:152,1,160,0|8
256,280,79484,1,0
256,152,79898,1,0
128,152,80311,2,0,B|13:192|128:280,1,160,0|8
232,232,81139,5,0
304,128,81553,1,0
304,64,81760,1,0
240,64,81967,1,8
160,160,82380,5,8
88,264,82794,1,0
88,328,83001,1,0
152,328,83208,1,8
272,368,83622,5,8
360,272,84036,1,0
408,224,84242,1,0
456,272,84449,1,8
456,144,84863,5,0
456,272,85277,2,0,B|403:370|320:304,1,160,0|8
240,216,86104,1,0
160,112,86518,1,0
88,216,86932,2,8,B|99:300|208:296,1,160,0|8
328,264,87760,5,0
400,136,88173,1,0
360,96,88380,1,0
320,136,88587,1,8
240,240,89001,1,8
168,344,89415,1,0
112,368,89622,1,0
88,304,89829,2,0,B|-10:228|88:152,1,160,0|8
112,128,90449,1,8
256,192,90863,12,0,91484
256,184,92311,5,8
384,40,92932,5,0
416,40,93036,1,0
416,72,93139,1,8
416,264,93760,1,0
416,296,93863,1,0
384,296,93967,1,8
192,296,94587,5,0
192,264,94691,1,0
224,264,94794,1,8
416,264,95415,1,0
448,264,95518,1,0
448,232,95622,1,8
256,232,96242,1,0
224,232,96346,1,0
224,200,96449,1,8
280,176,96656,5,0
312,176,96760,1,0
312,144,96863,1,8
280,144,96967,1,0
248,144,97070,1,0
216,144,97173,1,0
216,112,97277,1,8
248,112,97380,1,0
280,112,97484,5,0
280,80,97587,1,0
312,80,97691,1,8
312,112,97794,1,0
312,144,97898,1,0
312,176,98001,1,0
344,176,98104,5,0
384,128,98311,1,0
384,64,98518,1,8
272,128,98932,5,0
232,80,99139,1,0
232,16,99346,1,8
104,16,99760,5,0
104,80,99967,1,0
136,136,100173,1,8
168,80,100380,1,0
200,136,100587,1,8
296,224,101001,5,0
344,176,101208,1,0
384,224,101415,1,0
344,272,101622,1,0
296,320,101829,2,0,B|217:381|152:296,2,160,8|8|8
344,360,102863,5,0
384,304,103070,1,0
416,248,103277,1,0
448,304,103484,2,8,B|485:228|448:144,2,160
400,184,104725,5,0
352,136,104932,1,0
352,72,105139,1,8
296,184,105553,5,0
248,136,105760,1,0
248,72,105967,1,8
112,240,106380,5,0
112,304,106587,1,0
152,352,106794,1,8
192,304,107001,1,0
232,352,107208,1,8
256,192,107415,12,0,108036
256,192,108311,5,4
192,136,108587,1,4
176,96,108725,1,4
192,56,108863,1,4
256,0,109139,1,4
320,56,109415,1,4
336,96,109553,1,4
320,136,109691,1,12
