osu file format v5

[General]
AudioFilename: Super Smash Bros. NES.mp3
AudioLeadIn: 0
PreviewTime: -1
Countdown: 1
SampleSet: Normal
EditorBookmarks: 5078,17850,30622,43394,49780,55368

[Metadata]
Title:Super Smash Bros. Melee (NES)
Artist:Nintendo
Creator:YoshiKart
Version:Very Hard

[Difficulty]
HPDrainRate:7
CircleSize:6
OverallDifficulty:6
SliderMultiplier:1.4
SliderTickRate:2

[Events]
//Background and Video events
0,0,"oldschoolsmashbros.jpg"
//Break Periods
//Storyboard Layer 0 (Background)
//Storyboard Layer 1 (Failing)
//Storyboard Layer 2 (Passing)
//Storyboard Layer 3 (Foreground)
//Storyboard Sound Samples
//Background Colour Transformations
3,100,163,162,255

[TimingPoints]
5062,399.414192517641,4,1,0,100

[Colours]
Combo1 : 249,232,28
Combo2 : 255,0,0
Combo3 : 0,0,255
Combo4 : 28,217,56

[HitObjects]
448,288,5062,1,0
384,288,5261,1,0
352,288,5361,1,0
320,288,5461,1,0
160,288,6060,5,0
128,256,6260,1,0
160,224,6459,1,0
128,192,6659,1,0
160,160,6859,1,0
128,128,7058,1,0
400,128,8057,5,0
400,128,8157,1,0
400,128,8257,1,0
416,336,9255,1,0
352,336,9455,1,0
304,304,9655,1,0
256,272,9854,1,0
256,208,10054,6,6,C|256:64,2,140
160,288,11452,5,0
224,288,11652,2,0,C|256:288,2,35
400,288,12450,1,0
432,240,12650,1,0
384,208,12850,1,0
432,176,13049,1,0
384,144,13249,1,0
336,112,13449,1,0
304,176,13649,6,2,B|240:224|215:239|160:176,1,140
160,96,14447,5,0
144,64,14547,1,0
112,64,14647,1,0
16,128,15046,1,0
128,128,15446,1,0
71,185,15745,2,0,C|151:281,1,105
192,272,16245,6,2,B|208:240|244:212|284:208|304:210|337:248|337:277|336:304|331:302|272:336|272:356|204:324|215:282|272:272,1,350
256,96,17842,5,0
224,48,18042,1,0
256,32,18142,1,0
288,48,18242,1,0
256,192,18841,1,0
224,224,19040,1,0
288,224,19240,1,0
288,272,19440,1,0
224,272,19640,1,0
256,304,19839,1,0
304,304,20039,6,2,B|301:242|336:201|368:208,1,140
432,288,20838,5,0
400,288,20938,1,0
368,288,21037,1,0
256,288,21437,2,2,L|208:288|193:276|192:256,1,70
96,288,22036,1,0
144,256,22236,2,2,C|208:208,1,70
240,192,22635,1,0
288,144,22835,6,4,C|432:144,2,140
432,224,24233,5,0
368,224,24432,1,0
336,240,24532,1,0
304,224,24633,1,4
144,160,25231,5,0
144,208,25431,1,0
176,256,25631,1,0
224,288,25830,1,0
272,272,26030,2,2,C|304:240|320:208|320:144,2,140
240,48,27229,6,0,C|272:48,2,35
384,208,28028,2,0,C|368:240,1,35
352,272,28227,1,4
208,320,28826,1,0
176,320,28926,2,4,C|176:288,1,35
160,128,29625,1,0
192,96,29724,1,0
240,96,29824,1,0
432,96,30623,5,0
432,160,30823,1,0
432,192,30923,1,0
432,224,31022,1,0
304,336,31622,5,0
256,336,31821,1,0
208,336,32021,1,0
256,304,32221,1,0
176,224,32620,2,0,B|112:192|80:192|48:208|32:240|11:316|144:320,1,280
224,304,33818,5,0
400,304,34417,1,0
448,272,34617,1,0
448,192,34917,1,0
416,112,35216,1,0
368,112,35416,1,0
320,160,35715,5,2
320,224,36015,1,2
272,192,36216,2,2,B|160:192,2,105
256,240,37013,5,4
256,80,38012,1,0
208,112,38212,1,0
192,160,38411,1,0
224,208,38611,1,0
272,224,38811,1,0
320,208,39010,2,4,C|403:122|404:190|332:106,1,280
240,96,40209,6,2,C|175:101|135:117|112:160,1,140
160,256,41007,1,0
240,288,41307,1,0
320,272,41607,1,0
368,240,41806,1,2
368,128,42206,1,2
272,80,42605,1,2
80,192,43404,5,0
32,192,43604,1,0
32,192,43703,1,0
32,192,43803,1,0
160,80,44402,1,0
160,144,44602,1,0
224,144,44802,1,0
224,208,45001,1,0
288,208,45201,1,0
288,272,45401,1,0
512,272,46200,1,0
400,208,46599,5,0
352,176,46799,2,0,C|320:160,1,35
288,144,46998,1,0
128,96,47598,2,0,C|80:160,1,70
80,224,47997,1,0
144,224,48197,2,0,C|224:224,1,70
208,304,48596,6,2,B|280:304,5,70
336,304,49794,5,0
400,272,49994,1,0
432,256,50094,1,0
464,240,50194,2,0,C|496:176,1,70
496,64,50793,5,0
448,64,50992,1,0
400,64,51192,1,0
352,64,51392,1,0
240,64,51791,5,0
96,192,52590,5,0
192,192,52989,6,6,B|336:192,1,140
240,80,53788,2,6,B|240:192,1,105
240,208,54387,2,6,B|240:304,1,70
256,192,54689,12,0,55388
