osu file format v4

[General]
AudioFilename: MARIO.mp3
AudioLeadIn: 1512
AudioHash: d9dc13016ca3aeb5acb727b5a51c1d08
PreviewTime: -1
SampleSet: Normal
EditorBookmarks: 9164,9594,9881,10025,10168,10312,10743,11030,11173,11317,11460,11891,12178,12321,12465,12608

[Metadata]
Title:Super Mario Bros. (TECHNO remix)
Artist:Nintendo
Creator:Rolled
Version:Insane

[Difficulty]
HPDrainRate:6
CircleSize:6
OverallDifficulty:8
SliderMultiplier: 0.999999999999999
SliderTickRate: 1

[Events]
0,0,"realmario.jpg"
3,0,163,162,255

[TimingPoints]
2275,287.05387044302,4,1,0

[HitObjects]
104,96,2274,1,0,
133,122,2418,1,0,
166,143,2562,1,0,
199,164,2705,1,0,
199,123,2849,1,0,
199,83,2992,1,0,
228,109,3136,1,0,
254,138,3279,1,0,
277,170,3423,1,0,
278,209,3566,1,0,
278,249,3710,1,0,
279,288,3853,2,0,C|279:288|320:325|373:313,1,99.9999999999999
365,276,4284,1,0,
366,236,4427,1,0,
367,195,4571,5,0,
334,171,4714,1,0,
362,143,4858,1,0,
329,119,5002,1,0,
360,95,5145,1,0,
330,68,5289,1,0,
290,66,5432,1,0,
261,94,5576,1,0,
239,127,5719,1,0,
237,167,5863,1,0,
197,168,6006,1,0,
156,168,6150,1,0,
152,248,6437,5,0,
152,248,6580,5,0,
216,296,6867,6,0,L|216:296|248:320|304:264,1,99.9999999999999
344,224,7441,6,0,L|344:224|376:200|432:256,1,99.9999999999999
424,320,8016,6,0,B|424:320|384:352|312:352|256:352|144:296,1,250
144,328,8877,1,0,
150,288,9020,1,0,
128,256,9164,6,0,B|128:256|120:192|160:152|208:128,1,150
264,168,9881,1,0,
264,128,10025,1,0,
264,88,10168,1,0,
264,48,10312,6,0,B|264:48|336:32|392:64|432:112,1,150
408,160,11030,1,0,
408,200,11173,1,0,
408,240,11317,1,0,
408,280,11460,6,0,B|408:280|360:304|296:304|240:280,1,150
232,208,12178,1,0,
200,176,12321,1,0,
168,144,12465,1,0,
136,112,12608,1,0,
40,184,13039,6,0,B|40:184|64:216,1,25
104,168,13326,2,0,B|104:168|80:136,2,25
128,200,13613,5,0,
152,232,13757,1,0,
176,264,13900,1,0,
200,296,14044,5,0,
232,272,14187,1,0,
264,248,14331,1,0,
296,224,14474,1,0,
360,176,14761,2,0,B|360:176|392:152,2,25
360,256,15192,5,0,
400,256,15335,1,0,
432,232,15479,1,0,
432,192,15623,1,0,
432,112,15910,2,0,B|432:112|408:112,2,25
352,112,16340,5,0,
312,112,16484,1,0,
272,112,16627,1,0,
232,112,16771,1,0,
152,112,17058,2,0,B|152:112|152:128,2,25
152,192,17488,5,0,
176,224,17632,1,0,
216,224,17775,1,0,
256,224,17919,1,0,
288,200,18062,2,0,B|288:200|312:176,1,50
328,120,18350,2,0,B|328:120|328:72,1,50
368,72,18637,5,0,
400,96,18780,1,0,
400,136,18924,1,0,
400,176,19067,2,0,B|400:176|400:224,1,50
400,264,19354,2,0,B|400:264|400:280,2,25
320,264,19785,5,0,
280,264,19928,1,0,
280,224,20072,1,0,
280,184,20215,2,0,B|280:184|224:184,1,50
232,144,20502,2,0,B|232:144|232:136,2,25
176,88,20933,5,0,
136,88,21077,1,0,
136,128,21220,1,0,
136,168,21364,2,0,B|136:168|136:216,1,50
176,216,21651,2,0,B|176:216|176:280,2,50
216,216,22081,5,0,
216,216,22225,5,0,
216,216,22368,5,0,
216,216,22512,5,0,
216,216,22655,5,0,
216,216,22799,5,0,
216,216,22942,5,0,
216,216,23086,5,0,
216,216,23229,6,0,B|216:216|320:216,4,99.9999999999999
216,176,24521,1,0,
216,136,24665,1,0,
216,96,24808,1,0,
256,96,24952,1,0,
256,136,25095,1,0,
256,176,25239,1,0,
296,176,25382,1,0,
296,136,25526,1,0,
296,96,25669,1,0,
336,96,25813,1,0,
336,136,25956,2,0,B|336:136|336:216|272:224|248:224,1,99.9999999999999
288,256,26387,1,0,
288,296,26531,1,0,
248,296,26674,5,0,
208,296,26818,1,0,
168,296,26961,1,0,
168,256,27105,1,0,
208,256,27248,1,0,
248,256,27392,1,0,
248,216,27535,1,0,
208,216,27679,1,0,
168,216,27822,1,0,
128,216,27966,1,0,
128,176,28109,2,0,B|128:176|128:120,1,50
192,80,28540,5,0,
192,80,28683,5,0,
272,80,28971,6,0,B|272:80|336:80,1,50
360,80,29258,2,0,B|360:80|360:128,1,50
400,128,29545,2,0,B|400:128|448:128,1,50
448,168,29832,2,0,B|448:168|448:224,1,50
448,256,30119,2,0,B|448:256|400:256,1,50
360,256,30406,2,0,B|360:256|360:208,1,50
280,200,30836,2,0,B|280:200|272:200,6,25
256,272,31554,5,0,
144,224,31985,2,0,B|144:224|144:216,6,25
64,224,32702,5,0,
64,104,33133,2,0,B|64:104|64:96,6,25
144,104,33850,5,0,
264,104,34281,2,0,B|264:104|280:104,6,25
400,184,35142,6,0,B|400:184|400:296,1,99.9999999999999
400,284,35573,1,0,
336,232,35860,6,0,C|336:232|248:232,1,50
248,232,36147,1,0,
208,232,36290,1,0,
168,232,36434,6,0,C|168:232|168:168,1,50
168,144,36721,1,0,
168,104,36864,1,0,
200,80,37008,6,0,C|200:80|240:48,1,50
280,48,37295,1,0,
320,48,37439,1,0,
320,128,37726,5,0,
320,168,37869,1,0,
320,208,38013,1,0,
320,248,38156,6,0,C|320:248|376:248,3,50
368,288,38730,6,0,C|368:288|328:288,2,50
408,288,39161,6,0,C|408:288|408:240,4,50
488,288,40022,5,0,
488,288,40166,5,0,
256,192,40453,12,0,42031
256,128,42462,1,0,
256,192,42749,12,0,43180
256,128,43610,1,0,
256,192,43898,12,0,44329
256,128,44758,1,0,
256,192,45046,12,0,45476
256,240,45907,1,0,
256,152,46193,1,0,
184,72,46624,6,0,C|184:72|264:72,1,50
272,72,46911,2,0,C|272:72|296:72,6,25
