osu file format v4

[General]
AudioFilename: MARIO.mp3
AudioLeadIn: 1512
AudioHash: d9dc13016ca3aeb5acb727b5a51c1d08
PreviewTime: -1
SampleSet: Normal
EditorBookmarks: 9164,9594,9881,10025,10168,10312,10743,11030,11173,11317,11460,11891,12178,12321,12465,12608,40453

[Metadata]
Title:Super Mario Bros. (TECHNO remix)
Artist:Nintendo
Creator:Rolled
Version:Hard

[Difficulty]
HPDrainRate:5
CircleSize:5
OverallDifficulty:5
SliderMultiplier: 1
SliderTickRate: 1

[Events]
0,0,"realmario.jpg"
3,0,163,162,255

[TimingPoints]
2275,287.05387044302,4,1,0

[HitObjects]
48,136,2275,1,0,
76,160,2418,1,0,
107,138,2562,1,0,
134,163,2705,1,0,
161,188,2849,1,0,
185,216,2992,1,0,
187,328,3423,1,0,
212,354,3566,1,0,
249,352,3710,1,0,
288,352,3853,2,0,B|288:352|352:335|391:295|407:260|412:178|414:148,1,250
344,112,4858,5,0,
304,108,5002,1,0,
264,106,5145,1,0,
223,108,5289,1,0,
129,182,5719,1,0,
125,221,5863,1,0,
160,238,6006,1,0,
139,272,6150,1,0,
255,300,6437,5,0,
255,300,6580,5,0,
334,300,6867,6,0,C|334:300|421:301|468:189,1,200
449,121,7729,1,0,
441,41,8016,2,0,C|441:41|351:-8|280:65,1,200
284,148,8877,1,0,
284,227,9164,6,0,C|284:227|233:309|156:235,3,200
285,139,11460,6,0,C|285:139|234:57|157:131,2,200
343,243,13039,5,0,
413,280,13326,1,0,
413,280,13470,1,0,
415,120,14044,5,0,
385,93,14187,1,0,
351,70,14331,1,0,
320,45,14474,1,0,
277,112,14761,2,0,C|277:112|240:68,1,50
165,87,15192,5,0,
187,118,15335,1,0,
214,147,15479,1,0,
242,175,15623,1,0,
186,232,15910,2,0,C|186:232|230:276,1,50
300,256,16340,5,0,
339,258,16484,1,0,
370,233,16627,1,0,
371,193,16771,1,0,
368,113,17058,2,0,C|368:113|366:60,1,50
286,57,17488,5,0,
246,59,17632,1,0,
206,60,17775,1,0,
166,64,17919,1,0,
126,67,18062,1,0,
126,67,18350,1,0,
120,144,18637,5,0,
120,184,18780,1,0,
120,224,18924,1,0,
120,264,19067,1,0,
200,272,19354,1,0,
200,272,19498,1,0,
280,272,19785,5,0,
280,232,19928,1,0,
280,192,20072,1,0,
280,152,20215,1,0,
360,152,20502,1,0,
360,152,20646,1,0,
440,152,20933,5,0,
440,192,21077,1,0,
440,232,21220,1,0,
440,272,21364,1,0,
360,280,21651,2,0,C|360:280|360:352,3,50
280,336,22368,2,0,C|280:336|232:336,2,50
280,256,22942,5,0,
280,216,23086,1,0,
280,176,23229,1,0,
280,136,23373,1,0,
280,96,23516,1,0,
280,56,23660,1,0,
280,16,23804,1,0,
280,16,24091,1,0,
200,8,24378,5,0,
160,8,24521,1,0,
80,8,24808,1,0,
80,48,24952,1,0,
80,88,25095,1,0,
80,208,25526,1,0,
104,240,25669,1,0,
128,208,25813,1,0,
144,240,25956,2,0,B|144:240|230:188|258:292|322:256|400:224,1,250
416,256,26818,5,0,
472,192,27105,1,0,
480,152,27248,1,0,
464,112,27392,1,0,
376,40,27822,1,0,
376,40,27966,1,0,
376,40,28109,1,0,
376,40,28253,1,0,
176,56,28971,6,0,C|176:56|256:128,3,100
328,144,30119,6,0,C|328:144|256:224,3,100
224,288,31267,6,0,C|224:288|128:200,3,100
96,160,32415,6,0,C|96:160|16:248,3,100
104,256,33563,6,0,C|104:256|192:336,3,100
240,272,34712,1,0,
232,152,35142,5,0,
280,88,35429,1,0,
280,88,35573,1,0,
360,88,35860,6,0,B|360:88|456:160,1,100
448,224,36434,2,0,B|448:224|328:224,1,100
320,152,37008,2,0,B|320:152|320:48,2,100
344,224,37869,1,0,
336,304,38156,6,0,B|336:304|224:304,2,100
336,304,38874,1,0,
336,304,39017,1,0,
392,248,39304,2,0,B|392:248|464:248,3,50
256,192,40453,12,0,42031
256,192,42749,12,0,43610
256,192,44041,12,0,44758
256,192,45046,12,0,46194
186,119,46624,1,0,
265,122,46911,2,0,C|265:122|288:121,7,25
