osu file format v5

[General]
AudioFilename: taikomario1.mp3
AudioLeadIn: 2500
PreviewTime: 69701
Countdown: 1
SampleSet: Normal
StackLeniency: 0.7
Mode: 0
LetterboxInBreaks: 1

[Metadata]
Title:Super Mario Bros Medley
Artist:Nintendo
Creator:LuigiHann
Version:Super Hard
Source:
Tags:

[Difficulty]
HPDrainRate:4
CircleSize:6
OverallDifficulty:5
SliderMultiplier:1.4
SliderTickRate:3

[Events]
//Background and Video events
0,0,"super-mario-bros.e_00.png"
//Break Periods
2,138585,143173
//Storyboard Layer 0 (Background)
4,0,0,"bg.png",0,0 L,0,5 M,0,0,20000,0,0,-512,0
4,0,0,"endbg.png",0,0 M,0,137787,147879,0,0,0,0
4,0,0,"bg2.png",0,0 L,80929,3 M,0,0,20000,0,0,-512,0 F,0,80929,82029,0,1 F,0,129703,130002,1,0
4,0,0,"bg.png",0,0 L,124613,1 M,0,0,20000,0,0,-512,0 F,0,124613,125212,0,1 F,0,129703,130002,1,0
4,0,0,"bg3.png",0,0 L,129104,1 M,0,0,8500,0,0,-640,0 F,0,129104,129703,0,1
4,0,0,"endbg.png",0,0 F,0,137217,137614,0,1 F,0,137614,147879,1,1
//Storyboard Layer 1 (Failing)
6,1,0,"mario.png",226,386,3,350 F,0,0,107126,1,1
6,1,0,"imario.png",226,386,3,250 F,0,107126,118326,1,1
6,1,0,"mario.png",226,386,3,350 F,0,118326,139899,1,1 M,0,137787,139899,226,386,315,386
4,1,0,"bill.png",640,386 M,0,138409,141588,640,386,-32,386
4,1,0,"dead.png",315,386 L,139899,1 M,0,0,500,315,386,315,386 M,0,500,1000,315,386,315,250 M,0,1000,1500,315,250,315,480
//Storyboard Layer 2 (Passing)
6,2,0,"super.png",226,354,3,350 F,0,0,107126,1,1
6,2,0,"isuper.png",226,354,3,250 F,0,107126,118326,1,1
6,2,0,"super.png",226,354,3,350 F,0,118326,142780,1,1 M,0,137787,142780,226,354,430,354
4,2,0,"endfg.png",0,0 F,0,141588,143972,1,1
//Storyboard Layer 3 (Foreground)
4,3,0,"pipe.png",0,0 M,0,60621,82029,640,288,97,288 F,0,80929,82029,1,0
4,3,0,"score.png",113,12 F,0,0,147879,1,1
//Storyboard Sound Samples
5,138409,1,"cannon.wav"
5,139899,1,"die.wav"
//Background Colour Transformations
3,100,163,162,255

[TimingPoints]
2935,598.802395209581,4,1,1,100,1,0
107126,400,4,1,1,100,1,1
118326,598.802395209581,4,1,1,100,1,0
130860,397.350993377483,4,1,1,100,1,0
137416,-100,4,1,1,100,0,1

[Colours]
Combo1 : 252,152,56
Combo2 : 128,208,16
Combo3 : 156,252,240
Combo4 : 216,40,0

[HitObjects]
104,80,539,1,0
104,80,689,1,0
192,80,988,1,0
280,80,1288,1,0
280,80,1437,1,0
368,80,1737,1,0
256,224,2336,5,6
120,96,2935,5,0
256,96,3384,1,0
392,96,3833,1,0
320,216,4282,5,0
408,240,4581,1,0
496,264,4881,1,0
496,264,5030,1,0
424,320,5330,6,0,L|352:320,3,70
264,320,6527,2,0,L|192:320,3,70
152,240,7725,5,0
72,128,8174,1,0
208,120,8623,1,0
344,104,9072,1,0
416,168,9372,1,0
352,232,9671,1,0
352,232,9821,1,0
288,168,10120,6,0,L|368:168,3,70
432,112,11318,2,0,L|328:112,3,70
184,136,12815,5,0
184,136,12964,1,0
184,136,13114,1,0
184,136,13264,1,0
272,136,13563,1,0
360,136,13863,2,0,L|360:200,2,35
360,48,14461,1,0
360,48,14611,1,0
360,48,14761,1,0
272,208,15210,5,0
272,208,15360,1,0
272,208,15509,1,0
272,208,15659,1,0
184,192,15958,1,0
112,128,16258,1,2
200,104,16557,1,2
200,104,16707,1,2
288,88,17006,5,0
376,112,17306,1,0
376,200,17605,5,0
376,200,17755,1,0
376,200,17905,1,0
376,200,18054,1,0
368,288,18354,1,0
280,312,18653,1,0
280,312,18803,1,0
280,312,18952,1,0
232,216,19252,1,0
232,216,19402,1,0
232,216,19551,1,0
152,104,20000,5,4
288,104,20449,1,4
424,104,20899,1,4
424,240,21348,5,0
424,240,21497,1,0
328,240,21797,1,0
208,104,22396,5,0
208,104,22545,1,0
208,104,22695,1,0
208,104,22845,1,0
128,144,23144,1,0
88,224,23443,1,0
88,224,23593,1,0
88,224,23743,1,0
168,272,24042,1,0
168,272,24192,1,0
168,272,24342,1,0
384,280,24791,5,0
384,280,24940,1,0
384,280,25090,1,0
384,280,25240,1,0
384,176,25539,1,0
384,104,25839,1,2
312,104,26138,1,2
312,104,26288,1,2
224,104,26587,5,0
128,104,26887,1,0
128,192,27186,5,0
128,192,27336,1,0
128,192,27485,1,0
128,192,27635,1,0
136,280,27935,1,0
216,312,28234,1,0
216,312,28384,1,0
216,312,28533,1,0
272,240,28833,1,0
272,240,28982,1,0
272,240,29132,1,0
304,104,29581,5,4
440,104,30030,1,4
304,104,30479,1,4
168,104,30929,5,0
168,104,31078,1,0
168,192,31378,1,0
248,232,31677,5,0
248,232,31827,1,0
336,224,32126,1,0
368,136,32426,1,0
368,136,32575,1,0
368,72,32875,1,0
368,72,33024,1,0
296,72,33324,1,0
296,72,33473,1,0
200,72,33773,5,4
112,72,34072,5,0
112,72,34222,1,0
112,160,34521,1,0
112,248,34821,1,0
112,248,34970,1,0
112,248,35120,1,0
288,288,35719,5,0
376,184,36168,1,0
344,96,36467,5,0
344,96,36617,1,0
256,64,36917,1,0
168,96,37216,1,0
168,96,37366,1,0
120,176,37665,1,0
120,176,37815,1,0
136,264,38114,1,0
136,264,38264,1,0
320,280,38863,5,0
320,280,39012,1,0
320,184,39312,1,0
320,96,39611,1,0
320,96,39761,1,0
408,88,40060,1,0
256,192,40659,1,6
120,72,41258,5,0
256,72,41707,1,0
256,72,41857,1,0
344,72,42156,1,0
480,72,42605,5,0
448,152,42905,1,0
360,152,43204,1,0
360,152,43354,1,0
360,240,43653,6,0,L|264:240,3,70
360,296,44851,2,0,L|256:296,3,70
216,240,46048,5,0
96,176,46497,1,0
216,240,46946,1,0
216,104,47396,1,0
288,56,47695,1,0
360,104,47994,1,0
360,104,48144,1,0
312,184,48443,6,0,L|416:184,3,70
472,184,49641,2,0,L|472:280,3,70
384,280,50839,5,0
384,280,50988,1,0
288,280,51288,1,0
288,280,51437,1,0
192,280,51737,1,0
128,216,52036,1,0
128,216,52186,1,0
216,216,52485,1,0
216,216,52635,1,0
304,216,52935,1,0
368,152,53234,6,0,B|360:96|304:72,1,105
264,56,53833,2,0,B|208:40|152:64,1,105
120,80,54432,2,0,B|72:104|40:160,1,105
45,151,55030,1,2
128,280,55629,5,0
128,280,55778,1,0
224,280,56078,1,0
224,280,56227,1,0
320,280,56527,1,0
384,216,56826,1,0
384,216,56976,1,0
296,216,57275,1,0
296,216,57425,1,0
208,216,57725,1,0
144,152,58024,6,0,B|152:96|208:72,1,105
248,56,58623,2,0,B|304:40|360:64,1,105
392,80,59222,2,0,B|440:104|472:160,1,105
467,151,59820,1,4
384,280,60420,5,0
384,280,60569,1,0
288,280,60869,1,0
288,280,61018,1,0
192,280,61318,1,0
128,216,61617,1,0
128,216,61767,1,0
216,216,62066,1,0
216,216,62216,1,0
304,216,62516,1,0
368,152,62815,6,0,B|360:96|304:72,1,105
264,56,63414,2,0,B|208:40|152:64,1,105
120,80,64013,2,0,B|72:104|40:160,1,105
45,151,64611,1,2
128,104,65210,5,0
128,104,65359,1,0
224,104,65659,1,0
224,104,65808,1,0
320,104,66108,1,0
384,168,66407,1,0
384,168,66557,1,0
296,168,66856,1,0
296,168,67006,1,0
208,168,67306,1,0
144,232,67605,6,0,B|152:288|208:312,1,105
248,328,68204,2,0,B|304:344|360:320,1,105
392,304,68803,2,0,B|440:280|472:224,1,105
467,233,69401,1,2
296,168,70000,5,0
296,168,70150,1,0
208,152,70449,1,0
120,120,70749,1,0
120,120,70899,1,0
208,152,71198,1,0
208,152,71348,1,0
296,168,71647,1,0
296,168,71797,1,0
264,256,72096,5,0
176,264,72396,5,0
176,264,72545,1,0
96,216,72845,1,0
88,128,73144,1,0
120,88,73294,1,0
160,64,73443,1,0
232,232,73893,5,2
232,232,74192,1,2
224,96,74791,5,0
224,96,74940,1,0
136,120,75240,1,0
224,96,75539,1,0
224,96,75689,1,0
288,160,75988,1,0
288,160,76138,1,0
344,232,76437,1,0
344,232,76587,1,0
176,312,77186,5,0
176,312,77336,1,0
224,232,77635,1,0
264,152,77934,1,0
288,112,78084,1,0
328,32,78384,1,0
256,192,78982,1,6
64,312,79731,6,0,B|128:312,1,35
136,312,80030,2,0,B|176:312,1,35
208,312,80330,2,0,B|256:312,1,35
368,192,81976,5,0
368,192,82126,1,0
392,192,82276,1,0
392,192,82426,1,0
416,192,82575,1,0
416,192,82725,1,0
216,192,83773,5,0
216,192,83923,1,0
240,192,84072,1,0
240,192,84222,1,0
264,192,84372,1,0
264,192,84521,1,0
336,192,85569,5,0
336,192,85719,1,0
360,192,85869,1,0
360,192,86018,1,0
384,192,86168,1,0
384,192,86318,1,0
56,192,87366,5,0
56,192,87515,1,0
56,216,87665,1,0
56,216,87815,1,0
56,240,87964,1,0
56,240,88114,1,0
248,72,88863,6,0,B|344:72,1,70
408,72,89461,1,0
440,160,89761,1,0
392,240,90060,1,0
320,296,90360,1,0
256,232,90659,1,0
256,192,90958,12,0,92605
200,304,94551,5,0
200,304,94701,1,0
184,304,94851,1,0
184,304,95000,1,0
168,304,95150,1,0
168,304,95300,1,0
184,240,95749,5,2
208,160,96348,5,0
208,160,96497,1,0
224,144,96647,1,0
224,144,96797,1,0
240,128,96946,1,0
240,128,97096,1,0
288,168,97545,5,2
352,224,98144,5,0
352,224,98294,1,0
344,240,98443,1,0
344,240,98593,1,0
336,256,98743,1,0
336,256,98893,1,0
296,208,99342,5,4
232,160,99940,5,0
232,160,100090,1,0
248,144,100240,1,0
248,144,100390,1,0
264,128,100539,1,0
264,128,100689,1,0
320,160,101138,5,4
280,216,101437,6,0,B|224:272,1,70
200,328,102036,1,0
128,312,102336,1,0
80,256,102635,1,0
80,184,102935,1,0
128,128,103234,1,0
256,192,103533,12,0,105180
256,224,105629,5,0
256,200,105779,1,0
256,176,105929,1,0
256,152,106078,1,0
416,72,107126,5,0
344,72,107326,5,0
272,72,107526,5,0
200,72,107726,6,0,L|200:168,4,70
128,72,108726,5,0
128,144,108926,5,0
128,216,109126,5,0
128,288,109326,6,0,L|224:288,4,70
128,216,110326,5,0
200,216,110526,5,0
272,216,110726,5,0
344,216,110926,6,0,L|344:112,4,70
344,288,111926,5,0
272,288,112126,5,0
200,288,112326,5,0
128,288,112526,6,0,L|128:192,4,70
56,288,113526,5,0
56,216,113726,5,0
56,144,113926,5,0
56,72,114126,6,0,L|152:72,4,70
56,144,115126,5,0
128,144,115326,5,0
200,144,115526,5,0
272,144,115726,6,0,L|272:240,4,70
272,72,116726,5,0
200,72,116926,5,0
128,72,117126,5,0
56,72,117326,6,0,L|56:168,4,70
56,120,118326,5,0
56,120,118475,1,0
56,144,118625,1,0
56,144,118775,1,0
56,168,118924,1,0
56,168,119074,1,0
136,192,119523,5,4
240,216,120122,5,0
240,216,120272,1,0
240,240,120421,1,0
240,240,120571,1,0
240,264,120721,1,0
240,264,120870,1,0
40,264,121918,5,0
40,264,122068,1,0
64,264,122218,1,0
64,264,122367,1,0
88,264,122517,1,0
88,264,122667,1,0
280,264,123715,5,0
280,264,123864,1,0
256,240,124014,1,0
256,240,124164,1,0
232,216,124314,1,0
216,192,124463,2,0,B|216:112,2,70
184,256,125661,5,0
184,256,125811,1,0
272,256,126110,1,0
360,256,126409,1,0
360,256,126559,1,0
440,208,126858,1,0
256,192,127457,1,6
256,192,127906,12,0,128505
256,192,128505,12,0,129104
256,192,129104,12,0,130302
80,104,130860,5,0
144,104,131158,1,0
208,104,131456,1,0
272,104,131754,1,0
312,104,131952,1,0
352,104,132151,1,0
352,104,132250,1,0
352,160,132449,6,0,L|296:240,3,70
256,216,133244,2,0,L|192:136,3,70
176,136,134038,5,0
136,80,134336,1,0
200,88,134634,1,0
264,96,134932,1,0
304,96,135130,1,0
344,104,135329,1,0
344,104,135428,1,0
376,128,135627,6,0,L|432:208,3,70
456,152,136422,2,0,L|520:72,3,70
256,192,137316,12,0,138409
88,136,144369,5,0
88,136,144469,1,0
248,56,144916,5,0
248,56,145015,1,0
400,152,145462,5,0
400,152,145561,1,0
248,56,146009,5,0
248,56,146108,1,0
88,136,146505,5,0
88,136,146605,1,0
248,56,147052,5,0
248,56,147151,1,0
