osu file format v5

[General]
AudioFilename: 10-pokemon-center.mp3
AudioLeadIn: 0
PreviewTime: -1
Countdown: 1
SampleSet: Soft
StackLeniency: 0.7
Mode: 0
LetterboxInBreaks: 1
EditorBookmarks: 67954,68222,68556,69024,69292,69560,70630,70898,71166,71433,71701

[Metadata]
Title:Pokemon Center (Collosseum)
Artist:Nintendo
Creator:Rapidlslayer
Version:Insane
Source:
Tags:

[Difficulty]
HPDrainRate:7
CircleSize:6
OverallDifficulty:8
SliderMultiplier:1.4
SliderTickRate:1

[Events]
//Background and Video events
0,0,"latios_latias.jpg"
//Break Periods
2,19376,20334
2,33293,37396
2,53634,54592
//Storyboard Layer 0 (Background)
//Storyboard Layer 1 (Failing)
//Storyboard Layer 2 (Passing)
//Storyboard Layer 3 (Foreground)
//Storyboard Sound Samples
//Background Colour Transformations
3,100,0,128,192

[TimingPoints]
4188.64601769912,535.284146667856,4,2,0,100,1,0

[Colours]
Combo1 : 237,242,36
Combo2 : 255,255,255

[HitObjects]
96,96,4188,2,0,B|128:128,3,35
96,160,4723,2,2,B|160:192,1,70
256,160,5526,6,0,B|320:192,1,70
384,192,6062,2,0,B|352:256,1,70
288,256,6597,1,0
160,256,7132,6,0,B|96:288,1,70
96,224,7667,2,0,B|128:192,1,35
128,160,7935,1,0
128,96,8203,1,0
192,64,8470,5,0
224,96,8604,1,0
256,64,8738,1,0
288,96,8872,5,0
288,96,9006,2,0,B|320:96|320:160,1,70
288,256,9809,6,0,B|160:256,1,122.5
96,256,10612,1,0
96,320,10879,1,0
160,320,11147,1,0
224,320,11414,1,0
160,320,11682,1,0
160,256,11950,1,0
224,256,12217,5,0
256,224,12351,1,0
288,256,12485,1,0
320,224,12619,1,0
352,192,12753,5,0
384,224,12887,1,0
416,192,13021,1,0
448,224,13155,5,0
448,224,13289,2,0,B|480:224|480:288,1,70
352,320,14091,6,0,B|288:288,1,70
224,256,14626,1,0
160,256,14894,1,0
192,288,15161,2,0,B|192:192|96:192,1,140
96,256,15964,2,0,B|64:288|32:256,1,70
32,192,16500,5,0
64,160,16634,1,0
96,128,16768,1,0
128,96,16902,1,0
160,96,17035,5,0
192,128,17169,1,0
224,160,17303,1,0
256,192,17437,5,0
288,224,17570,2,0,B|320:192|352:224,1,70
416,320,18373,5,0
416,192,18908,1,0
416,128,19176,1,0
96,96,21384,6,0,B|96:224,1,122.5
96,288,22120,1,0
160,288,22388,2,0,B|160:224|256:224|256:288,1,140
320,288,23191,1,0
320,224,23458,6,0,B|352:160,1,70
288,160,23994,2,0,B|320:96,1,70
256,96,24529,1,0
128,96,25064,6,0,B|96:128|128:160,1,70
128,224,25466,1,0
128,224,25600,1,0
128,224,25733,1,0
192,224,26001,5,0
192,224,26135,1,0
192,224,26269,1,0
256,224,26536,6,0,B|288:256,2,35
352,224,27138,6,0,B|384:192,1,35
352,96,27742,6,0,B|288:128,1,70
288,64,28277,1,0
224,96,28544,2,0,B|192:160,1,70
96,192,29347,5,0
64,224,29481,1,0
96,256,29615,1,0
64,288,29749,1,0
96,320,29882,2,0,B|384:320,1,280
416,96,32023,6,0,B|352:128,1,70
288,160,32558,1,0
224,192,32826,2,0,B|160:224,1,70
96,96,38446,6,0,B|128:128,3,35
96,160,38981,2,2,B|160:192,1,70
256,160,39784,6,0,B|320:192,1,70
256,224,40320,2,0,B|224:288,1,70
192,224,40855,1,0
192,96,41390,6,0,B|128:128,1,70
160,192,41925,2,0,B|192:160,1,35
224,160,42193,1,0
288,160,42461,1,0
256,192,42728,5,0
288,224,42862,1,0
320,192,42996,1,0
352,224,43130,5,0
352,224,43264,2,0,B|384:224|384:288,1,70
256,288,44067,6,0,B|128:288,1,122.5
128,224,44870,1,0
128,160,45137,1,0
192,192,45405,1,0
256,160,45672,1,0
256,224,45940,1,0
192,192,46208,1,0
192,128,46475,5,0
224,96,46609,1,0
256,128,46743,1,0
288,96,46877,1,0
320,64,47011,5,0
352,96,47145,1,0
384,64,47279,1,0
416,96,47413,5,0
416,96,47547,2,0,B|448:96|448:160,1,70
384,256,48349,6,0,B|320:224,1,70
256,224,48884,1,0
192,224,49152,1,0
256,224,49419,2,0,B|256:128|160:128,1,140
160,192,50222,2,0,B|128:224|96:192,1,70
32,160,50758,5,0
64,128,50892,1,0
96,96,51026,1,0
128,64,51160,1,0
160,64,51293,5,0
192,96,51427,1,0
224,128,51561,1,0
256,160,51695,5,0
288,192,51828,2,0,B|320:160|352:192,1,70
352,288,52631,5,0
224,288,53166,1,0
160,288,53434,1,0
96,96,55642,6,0,B|96:224,1,122.5
160,192,56378,1,0
160,128,56646,2,0,B|160:64|256:64|256:128,1,140
256,160,57449,1,0
320,192,57716,6,0,B|352:128,1,70
384,192,58252,2,0,B|416:128,1,70
384,64,58787,1,0
256,64,59322,6,0,B|224:96|256:128,1,70
288,96,59724,1,0
288,96,59858,1,0
288,96,59991,1,0
352,96,60259,5,0
352,96,60393,1,0
352,96,60527,1,0
416,96,60794,6,0,B|448:128,2,35
384,160,61396,6,0,B|416:128,1,35
320,160,62000,6,0,B|256:192,1,70
192,224,62535,1,0
128,224,62802,2,0,B|96:288,1,70
64,96,63605,5,0
96,128,63739,1,0
128,96,63873,1,0
160,128,64007,1,0
160,128,64140,2,0,B|448:128,1,280
320,160,66281,6,0,B|256:192,1,70
192,224,66816,1,0
128,256,67084,2,0,B|64:288,1,70
128,160,67887,5,0
128,96,68155,2,0,B|224:96,1,87.5
320,96,68957,1,0
320,160,69225,2,0,B|352:192|320:224,1,70
256,192,70563,12,4,71634
