osu file format v5

[General]
AudioFilename: 10-pokemon-center.mp3
AudioLeadIn: 0
PreviewTime: -1
Countdown: 1
SampleSet: Normal
StackLeniency: 0.7
Mode: 0
LetterboxInBreaks: 1
EditorBookmarks: 4188,4991,8470,9273,12753,13556,17035,69225,69560

[Metadata]
Title:Pokemon Center (Collosseum)
Artist:Nintendo
Creator:Rapidlslayer
Version:Hard
Source:
Tags:

[Difficulty]
HPDrainRate:6
CircleSize:6
OverallDifficulty:6
SliderMultiplier:1.4
SliderTickRate:1

[Events]
//Background and Video events
0,0,"latios_latias.jpg"
//Break Periods
2,19443,20267
2,33360,37463
2,53634,54525
//Storyboard Layer 0 (Background)
//Storyboard Layer 1 (Failing)
//Storyboard Layer 2 (Passing)
//Storyboard Layer 3 (Foreground)
//Storyboard Sound Samples
//Background Colour Transformations
3,100,0,128,192

[TimingPoints]
4188.64601769912,535.284146667856,4,1,0,100,1,0

[Colours]
Combo1 : 255,248,111
Combo2 : 255,255,255

[HitObjects]
160,256,4188,2,0,B|96:256|96:160,2,105
224,256,5526,1,0
256,256,5794,1,0
288,256,6062,1,0
320,256,6329,2,0,B|320:320|288:320,1,70
224,320,7132,1,0
192,288,7400,1,2
160,320,7667,5,0
128,288,7935,1,0
96,320,8203,1,0
96,288,8470,2,0,B|160:256|96:224|192:160|288:224,1,210
320,192,9809,5,0
320,128,10344,2,0,B|288:96|256:128,1,70
224,96,10879,1,2
192,96,11147,1,0
160,96,11414,1,0
128,96,11682,2,0,B|192:128|192:224,1,140
192,256,12485,1,4
192,288,12753,6,0,B|256:288|256:192|384:192,1,210
384,256,14091,1,0
416,224,14359,1,0
448,192,14626,1,0
416,160,14894,1,0
416,96,15161,1,0
416,96,15697,2,0,B|480:96|512:128,1,87.5
480,160,16232,5,2
480,224,16500,1,0
480,288,16767,1,0
480,224,17035,2,0,B|480:288|416:288|416:224|352:224|320:320,1,210
256,288,18373,1,2
192,288,18908,1,0
160,288,19176,1,4
256,128,21384,6,0,B|256:288|320:320,2,210
256,96,23258,1,0
224,96,23525,1,0
224,128,23793,1,0
192,128,24061,1,0
192,96,24328,1,0
160,96,24596,1,0
160,160,25064,6,0,B|256:160|256:256,1,140
288,256,25867,1,2
256,288,26135,2,0,B|256:352|128:320,1,140
128,288,26938,1,2
160,256,27205,1,0
96,224,27741,6,0,B|64:256|64:160,1,87.5
64,128,28276,2,0,B|64:64|96:64,1,70
128,64,28811,1,2
192,64,29347,6,0,B|288:64|320:128,1,140
352,128,30149,1,0
384,160,30417,1,0
384,160,30952,1,0
352,192,31220,1,0
320,160,31488,1,0
256,160,32023,2,2,B|224:96|288:32,2,140
64,96,38446,6,0,B|64:224|224:192,1,210
288,192,39784,1,0
320,192,40052,1,0
320,224,40320,1,0
352,224,40587,2,0,B|352:288|320:288,1,70
256,288,41390,1,0
256,320,41658,1,0
224,320,41925,5,0
192,320,42193,1,0
160,288,42461,1,0
160,256,42728,2,0,B|160:128|320:160,1,210
384,160,44067,5,0
384,96,44602,2,0,B|320:64|288:96,1,87.5
288,96,45137,1,0
256,64,45405,1,0
224,96,45672,1,0
192,96,45940,2,0,B|256:128|256:224,1,140
256,256,46743,1,4
256,288,47011,6,0,B|352:288|384:288|384:160,1,210
384,96,48349,1,0
352,64,48617,1,0
320,96,48884,1,0
288,64,49152,1,0
256,96,49420,1,2
256,160,49955,2,0,B|320:160|352:192,1,87.5
352,192,50490,5,0
384,160,50758,1,0
384,224,51293,2,0,B|384:384|256:352,1,210
224,320,52631,1,0
160,320,53166,1,0
160,320,53434,1,4
96,64,55575,6,0,B|64:96|96:128,1,70
128,160,56111,1,8
160,128,56646,2,0,B|192:96|160:64,1,70
128,32,57181,1,8
192,32,57717,1,0
224,64,57984,1,0
256,32,58252,1,0
288,64,58519,1,0
256,96,58787,1,2
256,160,59322,6,0,B|224:128|192:160,2,70
256,160,60125,1,2
256,160,60393,1,2
192,160,60928,1,0
192,192,61196,1,0
224,192,61464,1,4
288,192,61999,6,0,B|288:128|256:96|192:96,2,140
288,256,63605,2,0,B|256:256,3,17.5
288,288,64207,1,2
224,320,65211,1,2
96,320,66281,1,0
64,288,66549,1,0
96,256,66816,1,2
64,224,67084,1,0
96,192,67352,1,0
96,32,68489,5,0
128,64,68958,1,0
160,96,69225,2,0,B|192:64|224:96,1,70
256,192,70563,12,4,71701
