osu file format v5

[General]
AudioFilename: Advance Wars Dark Conflict - Hope Never Dies.mp3
AudioLeadIn: 2956
PreviewTime: -1
Countdown: 1
SampleSet: Normal
StackLeniency: 0.7
Mode: 0
LetterboxInBreaks: 1
EditorBookmarks: 16255,18755,54998,79994,81244,88118

[Metadata]
Title:Hope Never Dies
Artist:Nintendo
Creator:Murph12
Version:Normal
Source:Advance Wars
Tags:

[Difficulty]
HPDrainRate:8
CircleSize:5
OverallDifficulty:5
SliderMultiplier:2
SliderTickRate:2

[Events]
//Background and Video events
0,0,"1317-1205960161.png"
//Break Periods
2,832,15055
//Storyboard Layer 0 (Background)
//Storyboard Layer 1 (Failing)
//Storyboard Layer 2 (Passing)
//Storyboard Layer 3 (Foreground)
//Storyboard Sound Samples
//Background Colour Transformations
3,100,163,162,255

[TimingPoints]
1258,624.895000000001,4,1,0,50,1,0
51249,-100,4,1,0,50,0,1
66247,-100,4,1,0,50,0,0
81244,-100,4,1,0,50,0,1
90617,-100,4,1,0,50,0,1

[Colours]
Combo1 : 215,215,0
Combo2 : 247,82,2
Combo3 : 17,17,255
Combo4 : 192,192,192

[HitObjects]
160,64,8,2,4,C|384:64,1,200
64,128,16255,5,0
64,224,16567,1,0
160,224,16880,2,0,L|160:128|480:128,1,400
464,224,18755,1,0
464,320,19067,1,0
368,320,19379,2,0,L|272:320|272:96|176:96,1,400
64,96,21254,2,0,C|160:96,2,50
160,96,21879,2,4,L|160:224|256:224,1,200
384,96,23129,5,0
384,128,23285,1,0
384,160,23441,1,0
384,224,23754,1,0
384,320,24379,5,0
288,320,24691,1,0
192,320,25004,6,0,L|96:288|192:256|160:224,1,200
224,160,26253,2,0,L|160:128|32:192,3,200
160,224,28753,2,0,L|192:128|352:192|224:224,1,400
192,128,30315,1,0
192,128,30471,1,2
160,96,30628,1,0
160,96,30784,1,2
128,64,30940,1,0
64,64,31252,6,4,L|64:288|256:288,1,400
256,192,33127,1,0
256,192,33283,1,2
256,192,33440,1,0
256,192,33752,12,0,35627
256,192,36252,6,2,L|320:160|256:96|160:160|256:256,1,400
160,160,38126,2,0,L|224:128|320:192,1,150
288,224,38751,2,0,L|128:224,1,150
128,288,39376,2,0,L|288:288,1,150
288,224,40001,2,0,L|192:192|128:224,2,150
288,160,41251,5,0
384,160,41563,1,0
384,160,41719,1,0
384,160,41876,1,0
384,256,42188,2,0,L|288:256|288:352|160:352,1,300
96,352,43438,1,0
96,256,43750,6,0,C|32:192|32:128,1,150
128,160,44688,1,0
320,64,45625,5,0
320,64,45781,1,0
320,64,45937,1,0
448,64,46250,2,0,L|416:128|384:128|352:224|288:224|288:160,2,300
352,64,48750,6,0,L|320:64|288:128,5,100
192,128,50624,1,0
192,128,50780,1,2
192,128,50937,1,2
256,192,51249,2,4,L|256:320,8,100
256,192,54061,1,2
160,192,54374,1,4
64,224,54686,1,6
128,320,54998,5,2
160,320,55155,1,2
192,320,55311,1,2
224,320,55467,1,2
256,288,55623,1,2
224,288,55780,1,2
192,288,55936,1,2
96,256,56248,5,0
64,96,57186,1,0
176,32,57654,1,0
288,96,58123,1,0
384,96,58435,1,0
384,192,58748,2,0,L|320:192,6,50
256,256,60154,5,0
256,256,60310,1,0
256,256,60466,1,0
352,256,60779,1,0
352,128,61247,6,0,L|224:128,2,100
416,192,62185,1,0
288,192,62653,1,0
160,192,63122,1,0
64,192,63435,1,0
128,96,63747,5,0
160,96,63903,1,0
192,96,64059,1,0
224,96,64216,1,0
224,96,64372,1,0
256,96,64528,1,0
288,96,64684,1,0
384,96,64997,6,0,L|384:160|320:192|352:256,1,200
384,320,65934,1,0
288,288,66247,6,0,L|224:224|224:320|192:352,6,200
384,256,70308,1,0
384,160,70621,1,0
384,160,70777,1,0
384,160,70933,1,0
288,160,71246,5,0
288,160,71402,1,0
256,192,71558,1,0
256,192,71714,1,0
224,224,71871,1,0
288,320,72339,1,0
384,224,72808,1,0
288,128,73277,1,0
192,224,73745,1,0
192,224,73902,1,0
160,256,74058,1,0
192,256,74214,1,0
192,224,74370,1,0
160,128,74839,2,0,L|224:96|256:128|224:160,2,150
256,288,76245,5,0
256,192,76557,1,0
160,192,76870,6,0,L|96:192|32:288,3,150
224,256,78744,1,0
160,160,79057,1,0
96,64,79369,1,0
32,192,79994,2,0,L|32:256|96:256|32:320|128:320|128:352,1,300
192,256,81244,2,0,L|256:160|352:160,3,200
416,160,83431,1,0
416,256,83744,2,0,L|192:256,1,200
64,224,84993,2,0,L|64:160|128:128,3,100
96,96,86243,2,0,L|160:64|256:32|352:32|256:96|224:160|224:224|256:288|288:288,1,600
264,288,88274,1,0
264,288,88430,1,0
256,192,88743,12,0,90617
