osu file format v5

[General]
AudioFilename: Advance Wars Dark Conflict - Hope Never Dies.mp3
AudioLeadIn: 2956
PreviewTime: -1
Countdown: 1
SampleSet: Normal
StackLeniency: 0.7
Mode: 0
LetterboxInBreaks: 1
EditorBookmarks: 16255,18755,54998,56248

[Metadata]
Title:Hope Never Dies
Artist:Nintendo
Creator:Murph12
Version:Hard
Source:Advance Wars
Tags:

[Difficulty]
HPDrainRate:9
CircleSize:6
OverallDifficulty:7
SliderMultiplier:2.6
SliderTickRate:2

[Events]
//Background and Video events
0,0,"1317-1205960161.png"
//Break Periods
2,833,15205
//Storyboard Layer 0 (Background)
//Storyboard Layer 1 (Failing)
//Storyboard Layer 2 (Passing)
//Storyboard Layer 3 (Foreground)
//Storyboard Sound Samples
//Background Colour Transformations
3,100,163,162,255

[TimingPoints]
1258,624.895000000001,4,1,0,50,1,0
56248,-50,4,1,0,50,0,1
61247,-100,4,1,0,50,0,1
71246,-100,4,1,0,50,0,0

[Colours]
Combo1 : 215,215,0
Combo2 : 247,82,2
Combo3 : 17,17,255
Combo4 : 192,192,192

[HitObjects]
224,192,8,6,0,L|320:192,4,65
256,192,16255,5,0
256,192,16411,1,0
256,192,16567,1,0
256,192,16724,1,0
256,192,16880,1,0
256,96,17192,1,0
256,96,17349,1,0
352,96,17661,1,0
352,96,17817,1,0
352,192,18130,1,4
352,192,18442,1,4
256,192,18755,5,0
256,192,18911,1,0
256,192,19067,1,0
256,192,19223,1,0
256,192,19379,2,0,L|256:288|160:320|96:256,2,260
256,128,20942,1,0
160,128,21254,1,0
160,224,21567,1,0
256,224,21879,2,2,L|336:224,1,65
336,256,22191,2,2,L|256:256,1,65
256,288,22504,2,2,L|336:288,1,65
336,320,22816,2,2,L|256:320,1,65
256,192,23129,12,0,23754
256,192,24379,5,4
256,192,25004,2,4,L|352:96|192:96,1,260
227,96,25941,1,4
227,96,26253,2,0,L|96:96,1,130
96,192,26878,1,0
192,192,27191,1,0
288,192,27503,1,0
288,192,27659,1,0
288,192,27816,1,0
384,192,28128,1,0
384,192,28440,2,0,L|320:256,1,65
338,237,28753,2,0,L|288:288,1,65
292,283,29065,2,0,L|224:256,1,65
231,259,29378,2,0,L|160:224,1,65
172,230,29690,2,2,L|192:160,1,65
189,167,30003,2,4,L|224:64,1,65
256,96,30315,5,4
256,192,30628,1,4
256,288,30940,1,4
160,192,31252,6,4,L|352:32,1,195
320,64,31877,2,4,L|448:224,1,195
441,216,32502,2,4,L|256:288,1,195
256,256,33127,5,0
256,224,33283,1,0
256,192,33440,1,4
160,192,33751,5,4
256,288,34221,1,4
352,192,34689,1,6
256,96,35158,1,0
256,160,35627,5,2
256,192,35783,1,2
256,224,35939,1,2
256,64,36252,6,0,L|64:160,2,195
256,160,37501,2,0,L|352:160,2,65
256,224,38126,2,0,L|160:224,2,65
160,288,38751,5,4
192,288,38907,1,4
224,288,39064,1,4
256,288,39220,1,4
288,288,39376,1,4
320,288,39532,1,4
352,288,39689,1,4
256,192,40001,1,0
256,192,40157,1,2
256,192,40313,1,0
288,128,40626,1,0
256,96,40782,1,4
224,128,40938,1,0
320,128,41251,5,0
320,128,41563,1,0
320,128,41719,1,0
320,128,41876,1,0
384,192,42188,2,0,L|384:288|64:288|64:32,1,650
160,64,44063,1,0
160,64,44219,1,0
160,64,44375,1,0
256,64,44688,5,4
256,64,44844,1,4
224,192,45625,5,0
256,192,45781,1,0
288,192,45937,1,0
288,256,46250,6,0,L|224:320|224:192,3,195
128,192,48125,1,2
256,192,48750,12,4,50624
256,192,50937,5,0
256,192,51249,6,0,L|256:96,1,65
256,96,51562,2,0,L|160:96,1,65
160,96,51874,2,0,L|128:160,1,65
128,192,52186,2,0,L|128:288,1,65
160,256,52499,1,0
192,256,52655,1,0
224,256,52811,2,0,L|320:256,1,65
320,256,53124,2,0,L|416:256,1,65
416,256,53436,2,0,L|448:192,1,65
448,160,53749,2,0,L|384:128,1,65
352,128,54061,2,0,L|256:128,1,65
256,128,54374,1,0
256,160,54530,1,0
256,192,54686,1,0
256,224,54842,1,0
256,256,54998,6,0,L|128:256|256:96|384:288,1,520
256,192,56561,1,0
256,192,56717,1,0
256,192,56873,1,0
256,96,57186,5,4
160,256,57654,1,4
352,256,58123,1,4
256,192,58435,5,6
256,192,58748,12,6,59998
256,192,60623,5,0
256,192,60701,1,0
256,192,60935,1,0
256,96,61247,6,0,L|416:96|384:192,1,260
352,256,62185,1,0
320,256,62341,1,0
288,256,62497,1,0
256,256,62653,1,0
224,256,62810,1,0
192,256,62966,1,0
160,256,63122,1,0
256,192,63435,5,4
256,96,63747,2,4,L|256:288,2,130
352,192,64997,5,0
320,160,65153,1,0
288,192,65309,1,0
256,160,65465,1,0
224,192,65622,2,0,L|384:192,1,130
256,192,66247,12,0,66871
256,192,67028,12,0,67496
256,192,67653,12,4,68121
256,192,68277,12,0,68746
256,64,69371,5,0
256,96,69527,1,0
256,128,69684,1,0
256,160,69840,1,0
256,192,69996,1,0
256,256,70308,1,0
256,320,70621,1,0
256,320,70777,1,0
256,192,71246,6,0,L|256:96,1,65
256,127,71558,2,0,L|352:128,1,65
320,127,71871,2,0,L|320:352,1,195
320,322,72496,1,0
256,320,72808,1,0
256,320,72964,1,0
256,256,73277,1,2
256,256,73433,1,0
256,192,73745,6,0,L|256:96,1,65
256,96,74058,1,0
256,64,74214,1,0
256,192,74370,12,0,75620
256,192,75932,5,0
256,192,76089,1,0
256,192,76245,1,0
288,96,76557,2,0,L|384:96,1,65
352,128,76870,2,0,L|256:352|96:352|96:192,1,520
96,160,78432,1,0
96,160,78588,1,0
96,160,78744,1,0
192,160,79057,1,0
288,160,79369,1,0
256,192,79994,5,0
256,192,80150,1,0
256,192,80307,1,0
256,192,80463,1,0
256,192,80619,1,0
256,192,81244,5,0
352,192,81557,1,4
448,192,81869,1,0
448,288,82181,1,4
352,288,82494,1,0
256,288,82806,1,4
160,288,83119,1,0
64,288,83431,1,4
64,192,83744,1,0
64,96,84056,1,4
160,96,84369,1,0
256,96,84681,1,4
352,96,84993,1,0
352,128,85150,1,0
352,160,85306,1,0
352,192,85462,1,0
352,224,85618,1,0
320,224,85775,1,0
288,224,85931,1,0
256,224,86087,1,0
224,224,86243,1,0
256,192,86556,12,0,88118
256,192,88430,5,0
256,192,88587,1,0
256,192,88743,1,4
256,320,89368,1,0
224,288,89524,1,0
256,256,89680,1,0
224,224,89837,1,0
256,192,89993,1,0
288,160,90149,1,0
256,128,90305,1,0
256,32,90617,5,4
