osu file format v5

[General]
AudioFilename: Fire Emblem Theme.mp3
AudioLeadIn: 0
PreviewTime: -1
Countdown: 2
SampleSet: Normal
StackLeniency: 0.7
Mode: 0
LetterboxInBreaks: 1

[Editor]
DistanceSpacing: 0.800000011920929
BeatDivisor: 8
GridSize: 8

[Metadata]
Title:Fire Emblem Theme
Artist:Nintendo
Creator:danielvillaf
Version:Hard
Source:Fire Emblem
Tags:Fire Emblem Super Smash Bros. Brawl Melee

[Difficulty]
HPDrainRate:7
CircleSize:5
OverallDifficulty:6
SliderMultiplier:1.4
SliderTickRate:2

[Events]
//Background and Video events
0,0,"Fire Emblem.jpg"
//Break Periods
2,29056,41607
2,58056,72107
//Storyboard Layer 0 (Background)
//Storyboard Layer 1 (Fail)
//Storyboard Layer 2 (Pass)
//Storyboard Layer 3 (Foreground)
//Storyboard Sound Samples
//Background Colour Transformations
3,100,163,162,255

[TimingPoints]
1670,571.428571428571,4,1,0,40,1,0
75570,-100,4,1,0,40,0,1
113784,-100,4,1,0,40,0,0

[Colours]
Combo1 : 255,255,255
Combo2 : 128,0,0
Combo3 : 221,0,0
Combo4 : 251,79,79
Combo5 : 255,187,187

[HitObjects]
160,80,1669,1,0
160,160,2098,2,0,L|160:240,1,70
160,256,2670,1,0
160,288,2812,1,0
240,304,3241,5,0
288,304,3527,1,0
336,304,3812,1,0
368,304,3955,1,0
448,304,4384,6,0,L|448:208,1,70
448,176,4955,1,0
448,144,5098,1,0
384,96,5527,5,0
320,96,5812,1,0
256,96,6098,1,0
224,96,6241,1,0
144,96,6670,5,0
144,144,6955,1,0
144,192,7241,2,0,L|144:240,1,35
256,192,7812,12,0,8598
256,192,8955,5,8
192,192,9240,1,8
128,192,9526,1,8
96,192,9669,1,8
128,272,10098,5,8
176,272,10384,1,8
224,272,10670,1,8
256,272,10813,1,8
336,256,11241,5,8
336,192,11527,1,8
336,128,11813,1,8
336,96,11956,1,8
256,96,12384,5,8
192,96,12670,1,8
128,96,12956,1,8
96,96,13098,1,8
256,192,13455,12,8,14312
256,192,15169,5,0
256,256,15455,5,0
288,256,15598,1,0
320,256,15741,1,0
352,256,15884,1,0
448,160,16598,5,0
416,160,16741,1,0
384,160,16884,1,0
352,160,17027,1,0
208,160,17741,5,0
176,160,17884,1,0
144,160,18027,1,0
112,160,18169,1,0
80,288,18884,5,0
96,304,19027,1,0
128,304,19169,1,2
160,304,19312,1,2
192,304,19455,1,0
224,304,19598,1,0
256,304,19741,1,2
272,288,19884,1,2
256,192,19955,12,0,20455
256,192,21098,12,0,21598
256,192,22241,12,0,22741
240,208,23455,6,0,B|288:208,1,35
304,192,23741,2,2,B|317:144,1,35
304,128,24027,2,0,B|276:98,1,35
256,96,24312,2,2,B|220:92,1,35
192,112,24598,5,0
176,128,24741,1,0
176,160,24884,1,0
192,176,25027,1,0
336,176,25741,5,0
352,192,25884,1,0
352,224,26027,1,0
336,240,26170,1,0
192,224,26884,5,0
176,240,27027,1,0
176,256,27170,1,0
192,272,27312,1,0
272,272,27741,1,0
272,208,28027,2,0,B|224:112,1,105
192,32,28884,1,0
256,192,42955,5,0
272,176,43098,1,0
288,160,43241,1,0
304,144,43384,1,0
256,192,44098,5,0
240,176,44241,1,0
224,160,44384,1,0
208,144,44527,1,0
256,192,45241,6,0,B|256:240,3,35
256,192,46384,12,0,47312
256,192,47598,5,0
288,192,47741,1,0
320,192,47884,1,0
352,192,48027,1,8
352,336,48741,5,0
320,336,48884,1,0
288,336,49027,1,0
256,336,49170,1,8
128,288,49884,5,0
128,256,50027,1,0
128,224,50170,1,0
128,192,50312,1,8
256,192,51098,12,0,52170
256,192,53312,5,4
256,192,54455,5,4
256,192,55598,12,4,57884
256,192,73455,12,0,75598
256,192,76527,6,0,B|400:128,1,140
384,240,77599,2,0,B|368:304|256:336|144:256,1,262.5
32,112,79812,1,0
144,80,80884,5,0
208,80,81241,1,0
272,80,81598,1,0
336,80,81955,2,0,B|432:96|464:176|480:240|424:280,1,262.5
224,288,84098,1,0
112,240,85098,6,0,B|80:208|112:96,1,140
208,96,86169,2,0,B|384:144|448:208,1,262.5
448,320,87812,1,0
352,320,88312,1,0
256,80,89598,5,0
256,128,89884,1,0
256,176,90169,1,0
256,224,90455,1,0
96,96,92527,6,4,B|192:64|368:96,1,262.5
384,192,94098,1,4
384,288,94669,2,4,B|320:288|192:256|128:208,1,262.5
256,192,96812,5,4
368,192,97884,2,4,B|464:192,2,87.5
304,192,98955,2,4,B|224:208|64:304,1,262.5
256,192,101027,5,4
160,192,102098,2,4,B|16:208,2,140
256,192,104169,6,4,B|256:48,2,140
256,192,106598,5,8
256,192,106884,5,8
256,192,107170,5,4
256,192,107455,12,4,113812
