osu file format v12

[General]
AudioFilename: 04 Ninja Magic - The Way of Life.mp3
AudioLeadIn: 0
PreviewTime: 94876
Countdown: 1
SampleSet: None
StackLeniency: 0.7
Mode: 0
LetterboxInBreaks: 1
WidescreenStoryboard: 0

[Editor]
DistanceSpacing: 1.2
BeatDivisor: 4
GridSize: 32

[Metadata]
Title:The Way of Life
TitleUnicode:The Way of Life
Artist:Ninja Magic
ArtistUnicode:Ninja Magic
Creator:HappyHappyism
Version:The Way of Death
Source:
Tags:Ninja Metal
BeatmapID:311064
BeatmapSetID:121510

[Difficulty]
HPDrainRate:6
CircleSize:6
OverallDifficulty:6
ApproachRate:8
SliderMultiplier:1.9
SliderTickRate:4

[Events]
//Background and Video events
Video,8135,"way.avi"
0,0,"nin.jpg",0,0
//Break Periods
2,56376,64726
2,104376,112726
2,137976,146926
2,157476,165526
//Storyboard Layer 0 (Background)
//Storyboard Layer 1 (Fail)
//Storyboard Layer 2 (Pass)
//Storyboard Layer 3 (Foreground)
//Storyboard Sound Samples
//Background Colour Transformations
3,100,163,162,255

[TimingPoints]
76,300,4,1,0,100,1,0

[HitObjects]
128,64,8476,1,0,0:0:0:0:
320,192,8776,1,0,0:0:0:0:
128,320,9076,1,0,0:0:0:0:
352,320,9376,1,0,0:0:0:0:
160,192,9676,1,0,0:0:0:0:
384,128,9976,1,0,0:0:0:0:
256,160,10126,1,0,0:0:0:0:
160,64,10276,1,0,0:0:0:0:
384,32,10576,1,2,0:0:0:0:
256,64,10726,1,0,0:0:0:0:
160,32,10876,1,0,0:0:0:0:
384,64,11176,1,0,0:0:0:0:
160,96,11476,5,0,0:0:0:0:
384,128,11776,1,0,0:0:0:0:
224,288,12076,1,0,0:0:0:0:
64,128,12376,1,0,0:0:0:0:
192,160,12526,1,0,0:0:0:0:
288,192,12676,1,0,0:0:0:0:
96,320,12976,1,0,0:0:0:0:
160,96,13276,1,2,0:0:0:0:
384,128,13576,1,0,0:0:0:0:
160,160,13876,1,0,0:0:0:0:
384,96,14176,1,0,0:0:0:0:
160,128,14476,1,0,0:0:0:0:
384,160,14776,1,0,0:0:0:0:
160,224,15076,1,0,0:0:0:0:
352,128,15376,1,0,0:0:0:0:
256,192,15676,12,0,17176,0:0:0:0:
128,64,17476,6,2,L|448:288,1,380
320,192,18376,1,0,0:0:0:0:
128,320,18676,1,0,0:0:0:0:
352,320,18976,1,0,0:0:0:0:
160,192,19276,1,0,0:0:0:0:
384,128,19576,1,0,0:0:0:0:
256,96,19726,1,0,0:0:0:0:
160,64,19876,1,0,0:0:0:0:
384,32,20176,1,0,0:0:0:0:
256,64,20326,1,0,0:0:0:0:
160,32,20476,1,0,0:0:0:0:
384,64,20776,1,0,0:0:0:0:
160,96,21076,5,0,0:0:0:0:
384,128,21376,1,0,0:0:0:0:
224,288,21676,1,0,0:0:0:0:
64,128,21976,1,0,0:0:0:0:
288,192,22276,1,0,0:0:0:0:
96,320,22576,1,0,0:0:0:0:
160,96,22876,1,0,0:0:0:0:
384,128,23176,1,0,0:0:0:0:
160,160,23476,1,0,0:0:0:0:
384,96,23776,1,0,0:0:0:0:
160,128,24076,1,0,0:0:0:0:
384,160,24376,1,0,0:0:0:0:
160,224,24676,1,2,0:0:0:0:
352,128,24976,1,0,0:0:0:0:
256,192,25276,12,0,26776,0:0:0:0:
128,64,27076,6,4,L|416:288,1,332.5
64,192,28126,5,0,0:0:0:0:
64,64,28276,2,0,L|480:288,2,427.5
160,32,29776,2,0,L|352:128,2,190
224,256,30676,1,0,0:0:0:0:
256,32,30976,1,0,0:0:0:0:
384,224,31276,1,0,0:0:0:0:
160,192,31576,2,0,L|352:128,2,190
256,192,32476,12,0,34876,0:0:0:0:
96,256,35326,5,0,0:0:0:0:
320,256,35626,1,0,0:0:0:0:
224,224,35851,1,0,0:0:0:0:
352,192,36076,2,2,P|192:64|320:288,1,760
352,192,37726,1,0,0:0:0:0:
256,160,37876,1,0,0:0:0:0:
256,192,38476,12,0,39676,0:0:0:0:
224,160,40426,5,0,0:0:0:0:
320,224,40576,1,0,0:0:0:0:
320,128,40876,1,0,0:0:0:0:
192,224,41101,1,0,0:0:0:0:
352,192,41326,1,8,0:0:0:0:
224,128,42076,1,0,0:0:0:0:
288,32,42226,1,0,0:0:0:0:
352,256,42526,1,0,0:0:0:0:
224,256,42676,1,0,0:0:0:0:
160,192,43276,1,8,0:0:0:0:
320,160,43501,1,8,0:0:0:0:
160,64,43726,1,8,0:0:0:0:
320,32,43951,1,8,0:0:0:0:
224,160,44176,1,8,0:0:0:0:
256,192,44776,12,0,46876,0:0:0:0:
128,224,47476,6,0,P|224:192|320:256,3,190
288,128,48526,1,0,0:0:0:0:
352,96,48976,2,0,L|160:96,2,190
128,32,49876,1,2,0:0:0:0:
224,256,50176,1,0,0:0:0:0:
320,192,50326,1,0,0:0:0:0:
256,192,50476,12,0,51676,0:0:0:0:
160,192,52276,6,0,P|256:224|352:192,5,190
256,192,54976,12,2,56176,0:0:0:0:
96,128,65476,6,0,L|480:256,1,380
288,224,66376,1,0,0:0:0:0:
448,320,66676,2,0,L|64:192,1,380
256,288,67726,1,0,0:0:0:0:
160,128,68176,1,0,0:0:0:0:
256,288,68476,1,0,0:0:0:0:
192,192,68926,2,0,L|384:32,2,237.5
224,64,69976,1,0,0:0:0:0:
192,96,70276,1,2,0:0:0:0:
192,128,70426,1,2,0:0:0:0:
160,128,70576,1,2,0:0:0:0:
256,192,70876,12,0,74476,0:0:0:0:
64,192,76126,5,0,0:0:0:0:
64,64,76276,2,0,L|480:288,2,427.5
160,32,77776,2,0,L|352:128,2,190
224,256,78676,1,0,0:0:0:0:
256,32,78976,1,8,0:0:0:0:
384,224,79276,1,0,0:0:0:0:
160,192,79576,2,0,L|352:128,2,190
256,192,80476,12,0,82876,0:0:0:0:
96,256,83326,5,0,0:0:0:0:
320,256,83626,1,0,0:0:0:0:
224,224,83926,1,2,0:0:0:0:
352,192,84076,2,0,P|192:64|320:288,1,760
352,192,85726,1,0,0:0:0:0:
256,160,85876,1,0,0:0:0:0:
192,224,86176,1,0,0:0:0:0:
256,192,86476,12,0,87676,0:0:0:0:
224,160,88276,5,0,0:0:0:0:
320,224,88576,1,2,0:0:0:0:
320,128,88876,1,0,0:0:0:0:
192,224,89101,1,0,0:0:0:0:
352,192,89326,1,0,0:0:0:0:
224,128,90076,1,0,0:0:0:0:
288,32,90226,1,0,0:0:0:0:
352,256,90526,1,0,0:0:0:0:
224,256,90676,1,0,0:0:0:0:
160,192,91276,2,0,P|384:96|320:64,1,570
256,192,92776,12,0,94876,0:0:0:0:
128,224,95476,6,0,P|224:192|320:256,3,190
288,128,96526,1,0,0:0:0:0:
352,96,96976,2,0,L|160:96,2,190
128,32,97876,1,2,0:0:0:0:
224,256,98176,1,0,0:0:0:0:
320,192,98326,1,0,0:0:0:0:
256,192,98476,12,0,99676,0:0:0:0:
160,192,100276,6,0,P|256:224|352:192,5,190
256,192,102976,12,0,104176,0:0:0:0:
96,128,113476,6,0,L|480:256,1,380
448,320,114676,2,0,L|64:192,1,380
256,288,115726,1,0,0:0:0:0:
160,128,116176,1,0,0:0:0:0:
256,288,116476,1,0,0:0:0:0:
192,192,116926,2,0,L|384:32,2,237.5
224,64,117976,1,8,0:0:0:0:
192,96,118276,1,8,0:0:0:0:
160,128,118576,1,8,0:0:0:0:
256,192,118876,12,0,122476,0:0:0:0:
192,128,123676,6,0,P|256:96|288:96,15,95
288,128,126076,2,8,P|224:160|192:160,15,95
160,96,128476,2,0,P|128:160|128:192,15,95
192,96,130876,2,2,P|192:160|160:192,15,95
256,192,133276,12,0,136576,0:0:0:0:
160,192,136876,6,0,L|256:192,4,95
160,192,137776,1,4,0:0:0:0:
192,128,147676,6,0,P|256:128|192:160,3,190
320,128,148876,6,0,P|320:192|288:128,3,190
192,256,150076,6,0,P|192:192|224:256,3,190
320,256,151276,6,0,P|256:256|320:224,1,190
288,160,151876,2,0,L|352:192,3,47.5
192,64,152476,5,0,0:0:0:0:
192,64,152626,1,0,0:0:0:0:
192,128,152776,1,0,0:0:0:0:
192,128,152926,1,0,0:0:0:0:
192,64,153076,1,0,0:0:0:0:
192,64,153226,1,0,0:0:0:0:
192,128,153376,1,0,0:0:0:0:
192,128,153526,1,0,0:0:0:0:
256,128,153676,1,0,0:0:0:0:
256,128,153826,1,0,0:0:0:0:
256,192,153976,1,0,0:0:0:0:
256,192,154126,1,0,0:0:0:0:
160,224,154276,1,0,0:0:0:0:
160,224,154426,1,0,0:0:0:0:
192,128,154576,1,0,0:0:0:0:
192,128,154726,1,0,0:0:0:0:
160,224,154876,5,0,0:0:0:0:
160,224,155026,1,0,0:0:0:0:
192,128,155176,1,0,0:0:0:0:
192,128,155326,1,0,0:0:0:0:
160,224,155476,1,0,0:0:0:0:
160,224,155626,1,0,0:0:0:0:
192,128,155776,1,0,0:0:0:0:
192,128,155926,1,0,0:0:0:0:
256,0,156076,2,0,P|416:192|64:192,1,760
96,128,166276,6,0,L|480:256,1,380
448,320,167476,2,0,L|64:192,1,380
256,288,168526,1,0,0:0:0:0:
160,128,168976,1,0,0:0:0:0:
256,288,169276,1,0,0:0:0:0:
192,192,169726,2,0,L|384:32,2,237.5
224,64,170776,1,0,0:0:0:0:
192,96,171076,1,0,0:0:0:0:
160,128,171376,1,0,0:0:0:0:
256,192,171676,12,0,175276,0:0:0:0:
128,64,176476,6,0,B|512:64|160:128,1,380
384,320,177676,2,0,B|0:320|352:256,1,380
0,352,178876,2,0,L|480:32,1,570
64,224,180076,1,2,0:0:0:0:
