osu file format v12

[General]
AudioFilename: Ticket - Nine Muses.mp3
AudioLeadIn: 1015
PreviewTime: 86352
Countdown: 1
SampleSet: Soft
StackLeniency: 0.6
Mode: 0
LetterboxInBreaks: 1

[Editor]
Bookmarks: 30629,32241,53352,75463,86352,91685,91716,118296,140962,143629,150977,174476,196018,203847
DistanceSpacing: 1.4
BeatDivisor: 4
GridSize: 4

[Metadata]
Title:Ticket
TitleUnicode:Ticket
Artist:Nine Muses
ArtistUnicode:Nine Muses
Creator:tan14007
Version:Ticket one way
Source:
Tags:Korean Nine Muses
BeatmapID:187733
BeatmapSetID:51185

[Difficulty]
HPDrainRate:7
CircleSize:5
OverallDifficulty:6
ApproachRate:9
SliderMultiplier:1.4
SliderTickRate:1

[Events]
//Background and Video events
Video,0,"Ticket - Nine Muses_xvid.avi"
0,0,"back.jpg",0,0
//Break Periods
2,105804,106709
2,108871,117185
//Storyboard Layer 0 (Background)
//Storyboard Layer 1 (Fail)
//Storyboard Layer 2 (Pass)
//Storyboard Layer 3 (Foreground)
//Storyboard Sound Samples
//Background Colour Transformations
3,100,163,162,255

[TimingPoints]
8809,340.831629175187,4,1,0,100,1,0
32507,-100,4,1,0,95,0,0
53352,-133.333333333333,4,2,0,55,0,0
53627,681.663258350375,4,1,0,55,1,0
71293,-133.333333333333,4,2,0,55,0,0
73435,-133.333333333333,4,2,0,90,0,0
75611,340.831629175187,4,1,0,100,1,0
86347,-57.1428571428571,4,2,0,100,0,1
118044,681.663258350375,4,1,0,55,1,0
118044,-133.333333333333,4,2,0,55,0,0
140708,340.831629175187,4,1,0,100,1,0
152040,-57.1428571428571,4,2,0,100,0,1
174450,-100,4,2,0,100,0,0
196007,-100,4,2,0,100,0,1
203847,-100,4,2,0,100,0,0

[Colours]
Combo1 : 231,52,186
Combo2 : 252,158,205
Combo3 : 255,128,255

[HitObjects]
104,72,32326,2,8,B|180:72,1,70
204,228,32667,2,8,B|288:224,1,70
233,76,33008,1,0,0:0:0:0:
336,76,33348,2,8,B|484:76,1,140
424,164,33860,6,8,B|352:164,1,70
224,72,34200,2,8,B|152:72,1,70,8|8,0:0|0:0,0:0:0:0:
424,164,34541,2,8,B|352:164,1,70
200,164,35053,2,8,B|44:164,1,140
96,244,35734,5,0,0:0:0:0:
180,244,36075,1,0,0:0:0:0:
292,224,36416,1,0,0:0:0:0:
328,184,36586,1,0,0:0:0:0:
368,140,36757,1,0,0:0:0:0:
416,92,36927,1,0,0:0:0:0:
292,88,37098,1,8,0:0:0:0:
368,140,37438,1,8,0:0:0:0:
412,272,37779,5,0,0:0:0:0:
409,233,37864,1,0,0:0:0:0:
398,196,37949,1,0,0:0:0:0:
379,163,38034,1,0,0:0:0:0:
353,135,38119,1,0,0:0:0:0:
321,114,38205,1,0,0:0:0:0:
285,100,38290,1,0,0:0:0:0:
247,95,38375,1,0,0:0:0:0:
208,99,38460,1,0,0:0:0:0:
172,111,38545,1,0,0:0:0:0:
139,132,38631,1,0,0:0:0:0:
112,159,38716,1,0,0:0:0:0:
92,192,38801,1,0,0:0:0:0:
80,228,38886,1,0,0:0:0:0:
76,266,38971,1,0,0:0:0:0:
96,280,39057,6,0,L|404:272,1,280
208,308,40506,2,12,B|360:308,1,140,8|4,0:0|0:0,0:0:0:0:
408,148,41358,5,8,0:0:0:0:
412,320,41528,1,8,0:0:0:0:
160,332,41699,1,8,0:0:0:0:
124,140,41869,1,8,0:0:0:0:
336,36,42210,2,8,B|436:36|464:92,1,140
424,248,42892,2,8,B|360:188,1,70
116,180,43232,5,8,0:0:0:0:
164,128,43403,1,8,0:0:0:0:
164,64,43573,1,8,0:0:0:0:
304,68,43744,1,8,0:0:0:0:
236,184,43914,2,8,B|192:240,1,70
296,344,44255,1,0,0:0:0:0:
304,132,44425,1,0,0:0:0:0:
304,192,44596,1,0,0:0:0:0:
420,220,44937,2,0,B|144:264,1,280
420,220,45959,1,4,0:0:0:0:
160,180,46130,6,8,B|176:248,1,70
276,136,46641,1,0,0:0:0:0:
156,185,46811,1,2,0:0:0:0:
160,212,46896,1,2,0:0:0:0:
164,240,46925,1,2,0:0:0:0:
220,224,47095,1,0,0:0:0:0:
264,204,47322,2,8,B|280:120,1,70
292,80,47663,2,8,B|400:184,1,140
324,180,48345,1,0,0:0:0:0:
280,216,48459,1,8,0:0:0:0:
280,216,48572,1,8,0:0:0:0:
280,216,48686,1,4,0:0:0:0:
64,160,49027,5,0,0:0:0:0:
64,272,49367,2,8,B|152:272,1,78.7499962449076
64,160,49708,1,8,0:0:0:0:
216,360,49879,2,8,B|216:280|216:280,1,70
144,340,50390,2,8,B|56:340,1,78.7499962449076
64,160,50731,1,8,0:0:0:0:
256,64,51072,1,4,0:0:0:0:
248,212,51412,5,0,0:0:0:0:
272,192,51526,1,0,0:0:0:0:
132,116,51753,1,0,0:0:0:0:
144,148,51810,1,0,0:0:0:0:
380,224,52009,1,0,0:0:0:0:
400,208,52094,1,8,0:0:0:0:
288,140,52435,1,0,0:0:0:0:
304,308,52776,1,0,0:0:0:0:
128,192,53117,1,0,0:0:0:0:
160,160,53287,1,0,0:0:0:0:
192,132,53457,1,4,0:0:0:0:
128,212,54139,6,2,B|316:336,1,210,2|6,0:0|0:0,0:0:0:0:
328,256,55502,1,0,0:0:0:0:
304,168,55842,1,0,0:0:0:0:
320,136,56013,1,0,0:0:0:0:
340,100,56183,1,0,0:0:0:0:
72,116,56354,1,0,0:0:0:0:
208,28,56524,1,0,0:0:0:0:
224,164,56695,1,0,0:0:0:0:
176,240,56864,2,2,B|52:196,1,105,2|6,0:0|0:0,0:0:0:0:
152,64,57716,6,0,B|172:84|192:56,1,35
232,68,58229,1,0,0:0:0:0:
312,56,58569,1,0,0:0:0:0:
392,80,58740,1,0,0:0:0:0:
232,68,58910,1,0,0:0:0:0:
304,140,59250,1,0,0:0:0:0:
272,192,59592,1,8,0:0:0:0:
368,220,59933,1,0,0:0:0:0:
368,220,60102,1,4,0:0:0:0:
252,240,60273,2,0,L|336:224,1,70
216,248,60955,1,8,0:0:0:0:
180,228,61125,1,0,0:0:0:0:
224,112,61296,2,0,L|180:168,1,70
388,124,61978,5,0,0:0:0:0:
340,160,62148,1,8,0:0:0:0:
340,160,62318,1,0,0:0:0:0:
308,184,62489,1,0,0:0:0:0:
276,212,62659,1,0,0:0:0:0:
260,140,62830,2,0,L|228:168,1,35
112,112,63170,6,0,B|116:64,3,35
56,184,64023,1,0,0:0:0:0:
100,196,64192,1,0,0:0:0:0:
144,188,64364,1,0,0:0:0:0:
184,176,64534,1,8,0:0:0:0:
224,160,64704,1,0,0:0:0:0:
232,244,65045,6,2,B|444:180,1,210,0|4,0:0|0:0,0:0:0:0:
456,120,66409,1,0,0:0:0:0:
300,200,66749,1,0,0:0:0:0:
180,176,66920,1,0,0:0:0:0:
212,300,67090,1,0,0:0:0:0:
308,184,67430,1,8,0:0:0:0:
364,240,67772,1,0,0:0:0:0:
332,116,67942,1,0,0:0:0:0:
236,232,68112,1,8,0:0:0:0:
224,192,68283,1,4,0:0:0:0:
88,188,68624,6,0,L|112:144,1,35
132,96,69134,2,2,B|348:56,1,209.999993741512,2|10,0:0|0:0,0:0:0:0:
368,120,70499,2,0,B|328:148,1,35
264,176,71010,1,4,0:0:0:0:
396,304,71520,6,8,B|396:244,1,52.5000020027161
392,140,72031,1,4,0:0:0:0:
348,192,72202,1,0,0:0:0:0:
312,240,72372,1,4,0:0:0:0:
212,308,72883,2,8,B|216:272,1,26.2500010013581
220,216,73225,1,0,0:0:0:0:
212,140,73395,1,4,0:0:0:0:
288,164,73566,1,0,0:0:0:0:
368,96,73736,6,2,B|288:28|288:28|224:120,1,210.000008010865,2|6,0:0|0:0,0:0:0:0:
40,200,75611,5,0,0:0:0:0:
72,168,75951,2,0,B|88:56|168:76,1,140,0|0,0:0|0:0,0:0:0:0:
200,112,76463,1,0,0:0:0:0:
208,232,76633,1,0,0:0:0:0:
268,176,76974,2,0,L|340:160,1,70
424,80,77316,2,0,B|176:88|496:88|176:128|496:128|176:168|496:168|176:212|496:212|176:236|496:236|176:260|496:260|336:296|496:284|472:336|392:372|376:336,1,420
164,136,78678,5,0,0:0:0:0:
240,148,78848,2,0,L|240:232,1,70
192,212,79189,2,0,L|120:212,1,70
96,224,79530,1,0,0:0:0:0:
128,272,79700,1,0,0:0:0:0:
128,272,80042,1,0,0:0:0:0:
124,232,80213,1,0,0:0:0:0:
124,192,80383,1,0,0:0:0:0:
144,140,80553,2,0,L|200:88,1,70
240,184,81064,5,0,0:0:0:0:
168,200,81405,2,0,B|156:92|308:28|388:200|288:324|176:236,1,420
144,268,82768,1,0,0:0:0:0:
120,160,82938,1,0,0:0:0:0:
132,212,83109,1,0,0:0:0:0:
120,160,83279,1,0,0:0:0:0:
180,120,83620,6,0,L|276:112,1,70
288,168,84131,2,0,L|288:260,1,70
312,264,84472,2,0,L|232:216,1,70
288,168,84813,2,0,L|220:200,1,70
256,192,85154,12,4,86176,0:0:0:0:
152,152,86518,5,0,0:0:0:0:
264,112,86859,2,2,B|180:252,1,122.500001168251
300,60,87199,1,0,0:0:0:0:
200,216,87369,2,0,L|276:92,1,122.500001168251,0|4,0:0|0:0,0:0:0:0:
432,192,87881,5,0,0:0:0:0:
364,240,88221,1,0,0:0:0:0:
296,252,88392,2,0,L|144:312,1,122.500001168251
288,144,88733,1,0,0:0:0:0:
348,80,88903,2,8,B|292:24|164:32|116:104,1,245.000002336502,8|4,0:0|0:0,0:0:0:0:
100,192,89585,5,0,0:0:0:0:
168,320,89755,2,0,L|300:320,1,122.500001168251,8|0,0:0|0:0,0:0:0:0:
256,228,90096,1,0,0:0:0:0:
292,196,90266,2,0,L|292:348,1,122.500001168251,8|0,0:0|0:0,0:0:0:0:
104,296,90607,1,4,0:0:0:0:
292,196,90778,2,2,B|148:196,1,122.500001168251,8|8,0:0|0:0,0:0:0:0:
80,128,91118,1,0,0:0:0:0:
232,96,91288,1,0,0:0:0:0:
256,128,91630,2,0,P|236:52|264:120,1,245.000002336502,0|4,0:0|0:0,0:0:0:0:
168,192,92141,5,0,0:0:0:0:
64,312,92312,2,2,B|196:212,1,122.500001168251,2|2,0:0|0:0,0:0:0:0:
212,212,92652,1,0,0:0:0:0:
212,212,92822,1,0,0:0:0:0:
268,204,92993,2,8,L|396:192,1,122.500001168251,8|12,0:0|0:0,0:0:0:0:
424,192,93335,5,8,0:0:0:0:
376,100,93676,2,2,B|252:160,1,122.500001168251
240,168,94015,1,0,0:0:0:0:
200,168,94101,2,0,L|200:236,1,61.2500005841255
228,212,94356,2,0,L|156:256,1,61.2500005841255
196,200,94698,1,4,0:0:0:0:
128,328,95039,6,0,B|376:292,1,245.000002336502
416,288,95549,1,0,0:0:0:0:
360,292,95721,1,0,0:0:0:0:
420,252,96061,2,0,B|368:108,1,122.500001168251
312,176,96402,2,0,B|432:96,1,122.500001168251
368,88,96742,1,0,0:0:0:0:
340,72,96827,1,0,0:0:0:0:
300,68,96912,1,0,0:0:0:0:
268,96,96997,1,0,0:0:0:0:
248,128,97082,1,0,0:0:0:0:
460,248,97425,21,4,0:0:0:0:
444,160,97766,2,0,B|312:228,1,122.500001168251
335,216,98105,1,0,0:0:0:0:
444,160,98276,1,0,0:0:0:0:
388,192,98489,1,8,0:0:0:0:
360,112,98618,1,8,0:0:0:0:
360,76,98788,1,4,0:0:0:0:
164,120,99129,6,8,B|292:124,1,122.500001168251
228,192,99469,1,0,0:0:0:0:
268,216,99639,1,0,0:0:0:0:
308,236,99810,1,0,0:0:0:0:
124,136,100151,1,4,0:0:0:0:
220,176,100492,2,8,B|376:176,1,122.500001168251
388,204,100832,1,0,0:0:0:0:
384,248,101002,2,0,L|384:376,1,122.500001168251
320,332,101343,1,0,0:0:0:0:
288,320,101428,1,0,0:0:0:0:
256,296,101514,1,4,0:0:0:0:
228,248,101856,5,0,0:0:0:0:
316,244,102196,2,8,B|184:148,1,122.500001168251
156,144,102536,1,0,0:0:0:0:
220,120,102707,1,0,0:0:0:0:
284,112,102877,1,8,0:0:0:0:
360,128,103047,2,0,L|436:256,1,122.500001168251,8|0,0:0|0:0,0:0:0:0:
300,224,103560,2,0,B|264:176|152:220,1,122.500001168251,0|4,0:0|0:0,0:0:0:0:
80,192,104241,6,8,B|192:292,1,122.500001168251
224,280,104581,1,0,0:0:0:0:
212,232,104752,2,0,L|120:152,1,122.500001168251
160,128,105092,2,0,L|304:144,1,122.500001168251
256,152,105433,2,0,L|316:216,1,61.2500005841255
308,208,105604,1,4,0:0:0:0:
256,192,107309,12,4,108671,0:0:0:0:
96,80,118214,6,0,L|120:112,1,35
64,132,118554,1,0,0:0:0:0:
144,132,118895,2,0,B|56:132,1,70,8|4,0:0|0:0,0:0:0:0:
60,216,119577,6,0,L|132:268,1,70
116,256,120088,2,0,L|192:220,1,70
180,224,120599,2,0,L|216:248,1,35
316,220,120940,1,8,0:0:0:0:
428,192,121281,1,0,0:0:0:0:
440,168,121451,1,0,0:0:0:0:
456,144,121622,1,0,0:0:0:0:
440,108,121792,2,0,B|408:124,1,35
352,56,122303,5,0,0:0:0:0:
272,112,122644,2,0,L|228:148,1,35
192,176,122985,1,0,0:0:0:0:
288,168,123326,1,0,0:0:0:0:
124,136,123667,22,0,B|144:172,1,35
120,228,124008,1,0,0:0:0:0:
184,260,124178,1,0,0:0:0:0:
124,136,124348,2,0,L|204:108,1,70
212,176,125030,1,0,0:0:0:0:
256,252,125201,2,0,L|300:216,1,35
176,212,125541,2,0,L|200:268,1,35
72,208,125882,6,0,B|80:184|64:160,1,35
64,112,126393,1,8,0:0:0:0:
100,80,126564,2,0,L|148:52,1,35
192,44,126905,2,0,L|232:84,1,35
336,80,127416,21,8,0:0:0:0:
384,64,127586,1,8,0:0:0:0:
436,80,127757,1,0,0:0:0:0:
384,140,128268,2,0,B|220:248,1,175,0|4,0:0|0:0,0:0:0:0:
92,168,129631,2,8,L|104:216,1,35
92,168,129972,1,0,0:0:0:0:
176,252,130143,1,0,0:0:0:0:
204,296,130483,22,8,B|260:296,1,35
276,296,130824,1,0,0:0:0:0:
276,260,130995,1,0,0:0:0:0:
276,240,131165,2,8,B|212:240,1,35
220,208,131506,1,0,0:0:0:0:
276,240,131676,2,8,B|212:240,1,35
316,128,132017,1,0,0:0:0:0:
352,128,132188,1,4,0:0:0:0:
416,176,132358,6,0,B|388:212,1,35
352,240,132699,1,0,0:0:0:0:
356,308,132869,1,0,0:0:0:0:
256,256,133210,1,4,0:0:0:0:
80,240,133551,6,0,B|104:192|156:264,1,70
172,200,134062,1,0,0:0:0:0:
192,148,134233,1,0,0:0:0:0:
236,104,134403,1,0,0:0:0:0:
276,168,134573,2,0,L|312:208,1,35
316,88,134914,2,0,B|288:128,1,35
324,180,135255,2,0,B|348:224,1,35
340,210,135596,2,0,L|372:236,1,35,0|0,0:0|0:0,0:0:0:0:
272,236,135937,6,4,B|240:292|280:296,1,70,4|0,0:0|0:0,0:0:0:0:
160,284,136618,1,0,0:0:0:0:
88,252,136959,2,0,L|112:200,1,35
136,176,137300,1,0,0:0:0:0:
204,136,137641,2,0,L|240:172,1,35
224,212,137982,1,0,0:0:0:0:
124,304,138323,2,0,B|124:220,1,70,4|2,0:0|0:0,0:0:0:0:
300,176,139004,5,0,0:0:0:0:
300,176,139175,1,0,0:0:0:0:
336,184,139345,2,0,L|348:264,1,70
280,268,139856,1,0,0:0:0:0:
248,280,139942,1,0,0:0:0:0:
212,272,140027,1,0,0:0:0:0:
288,292,140197,2,0,L|352:284,1,35
356,252,140538,1,0,0:0:0:0:
368,236,140708,1,4,0:0:0:0:
108,204,141389,6,2,B|100:96|208:136,1,140,2|6,0:0|0:0,0:0:0:0:
196,196,141900,1,0,0:0:0:0:
216,216,142071,1,0,0:0:0:0:
248,232,142241,1,0,0:0:0:0:
376,236,142326,2,0,B|436:216,1,35
320,220,142752,6,2,B|320:312|192:368|100:272,1,280,2|6,0:0|0:0,0:0:0:0:
160,228,143605,2,0,L|236:176,1,70
332,152,144116,6,0,B|256:84,1,70
279,105,144457,1,0,0:0:0:0:
308,128,144627,1,0,0:0:0:0:
340,160,144712,1,0,0:0:0:0:
268,168,144797,1,0,0:0:0:0:
308,208,145138,2,0,L|232:192,1,70,0|4,0:0|0:0,0:0:0:0:
228,184,145479,6,0,B|140:228,1,70
128,144,145820,1,0,0:0:0:0:
184,280,145990,1,0,0:0:0:0:
92,244,146331,1,8,0:0:0:0:
52,260,146502,1,4,0:0:0:0:
60,140,146842,6,0,B|104:64|264:64|288:160,1,280,0|4,0:0|0:0,0:0:0:0:
204,168,147865,1,0,0:0:0:0:
272,204,148206,2,0,L|316:260,1,70
368,252,148547,2,0,L|396:172,1,70
368,140,148887,2,0,L|288:176,1,70
332,208,149228,1,4,0:0:0:0:
256,192,149569,12,0,151614,0:0:0:0:
144,184,151955,6,8,B|80:208,1,70
144,184,152296,1,0,0:0:0:0:
212,168,152637,5,0,0:0:0:0:
276,160,152807,2,0,B|404:96,1,122.500001168251,0|4,0:0|0:0,0:0:0:0:
424,132,153318,1,0,0:0:0:0:
432,232,153659,6,0,B|296:328|200:344,1,245.000002336502,8|0,0:0|0:0,0:0:0:0:
192,212,154170,2,0,L|216:340,1,122.500001168251,0|4,0:0|0:0,0:0:0:0:
88,276,154511,2,0,B|172:172,1,122.500001168251
32,248,154852,2,0,B|112:136,1,122.500001168251,0|0,0:0|0:0,0:0:0:0:
103,148,155193,5,0,0:0:0:0:
140,108,155363,1,4,0:0:0:0:
196,112,155534,1,0,0:0:0:0:
244,108,155704,2,0,B|352:24,1,122.500001168251,0|0,0:0|0:0,0:0:0:0:
384,72,156045,1,12,0:0:0:0:
384,104,156130,1,8,0:0:0:0:
376,140,156215,1,8,0:0:0:0:
352,188,156386,2,0,B|244:296,1,122.500001168251,0|0,0:0|0:0,0:0:0:0:
224,296,156727,1,4,0:0:0:0:
224,224,156897,1,0,0:0:0:0:
228,268,157067,2,0,B|328:184,1,122.500001168251
300,144,157408,1,12,0:0:0:0:
280,124,157493,1,8,0:0:0:0:
264,92,157579,1,8,0:0:0:0:
352,76,157749,5,8,0:0:0:0:
304,112,157919,1,8,0:0:0:0:
212,160,158090,2,2,B|92:264,1,122.500001168251,2|4,0:0|0:0,0:0:0:0:
264,248,158686,1,8,0:0:0:0:
232,272,158857,1,8,0:0:0:0:
336,276,159112,1,0,0:0:0:0:
360,240,159283,1,0,0:0:0:0:
320,136,159624,2,0,B|120:304,1,245.000002336502,2|4,0:0|0:0,0:0:0:0:
92,308,160135,1,8,0:0:0:0:
60,264,160305,1,8,0:0:0:0:
88,212,160476,1,0,0:0:0:0:
136,136,160817,6,0,P|296:84|312:148,1,245.000002336502
212,144,161498,2,0,L|312:260,1,122.500001168251
208,240,161839,2,0,L|340:116,1,122.500001168251
256,192,162180,1,0,0:0:0:0:
256,192,162350,1,0,0:0:0:0:
256,192,162521,2,0,L|160:84,1,122.500001168251
136,144,162862,5,4,0:0:0:0:
88,232,163202,2,8,B|344:312,1,245.000002336502
321,305,163714,2,8,L|404:168,1,122.500001168251
316,72,164054,5,2,0:0:0:0:
316,120,164225,1,4,0:0:0:0:
320,192,164566,2,8,B|52:192,1,245.000002336502
124,112,165077,2,8,L|124:240,1,122.500001168251
312,288,165418,2,0,B|144:320,1,122.500001168251,2|4,0:0|0:0,0:0:0:0:
180,288,165673,2,0,L|172:228,1,61.2500005841255
180,288,165929,1,8,0:0:0:0:
130,239,166099,1,8,0:0:0:0:
106,174,166270,1,8,0:0:0:0:
129,109,166440,1,8,0:0:0:0:
178,58,166611,1,8,0:0:0:0:
178,58,166696,2,0,L|272:72,1,91.8750008761883
260,64,166952,5,12,0:0:0:0:
309,112,167122,1,8,0:0:0:0:
333,177,167292,1,8,0:0:0:0:
310,242,167463,1,8,0:0:0:0:
261,293,167633,1,8,0:0:0:0:
236,304,167761,2,0,L|172:272,1,61.2500005841255
212,248,167974,2,2,B|212:164,1,61.2500005841255
212,116,168315,1,0,0:0:0:0:
212,116,168400,1,0,0:0:0:0:
212,116,168485,1,0,0:0:0:0:
264,56,168656,5,8,0:0:0:0:
256,132,168997,2,4,B|396:244,1,122.500001168251
376,236,169337,1,0,0:0:0:0:
356,272,169423,1,0,0:0:0:0:
324,300,169508,1,0,0:0:0:0:
292,236,169678,2,0,L|376:320,1,61.2500005841255
172,216,170019,2,0,P|180:136|60:192,1,245.000002336502
124,172,170530,1,0,0:0:0:0:
124,172,170615,1,0,0:0:0:0:
124,172,170701,1,0,0:0:0:0:
104,236,170828,2,0,L|164:276,1,61.2500005841255
216,192,171042,1,4,0:0:0:0:
120,304,171382,6,0,P|192:40|76:244,1,857.500008177757,0|0,0:0|0:0,0:0:0:0:
236,88,172746,5,12,0:0:0:0:
288,133,172916,1,8,0:0:0:0:
320,195,173087,1,8,0:0:0:0:
302,259,173257,1,8,0:0:0:0:
236,273,173427,1,8,0:0:0:0:
148,288,173598,2,0,B|104:216,1,61.2500005841255
144,152,173853,1,0,0:0:0:0:
204,188,174109,1,4,0:0:0:0:
88,136,174450,6,0,B|140:72|228:24|288:180,1,245.000002336502
264,152,175131,2,0,L|352:200,1,70
384,232,175472,1,8,0:0:0:0:
328,260,175813,2,0,B|264:324,1,70,0|4,0:0|0:0,0:0:0:0:
188,288,176495,6,0,B|124:232,1,70
138,238,176836,2,0,B|200:176,1,87.5
199,176,177176,2,0,B|128:108,1,87.5,0|4,0:0|0:0,0:0:0:0:
376,120,177858,2,8,B|368:200,4,70
296,80,178710,1,4,0:0:0:0:
144,80,179221,6,0,B|216:216,1,140
268,268,179903,2,0,B|304:192,1,70
300,208,180244,2,0,B|340:288,1,70
336,272,180585,2,0,B|384:212,1,70
384,144,180926,2,0,B|244:92,1,140
176,104,181437,1,4,0:0:0:0:
348,100,181948,1,0,0:0:0:0:
384,172,182289,5,0,0:0:0:0:
344,248,182630,2,0,B|296:304,2,70
236,188,183311,2,0,B|284:104,1,87.5
128,80,183993,2,0,B|72:128|120:216,1,140
204,280,184675,1,0,0:0:0:0:
328,208,184845,1,0,0:0:0:0:
376,320,185016,1,4,0:0:0:0:
120,204,185356,6,0,B|376:76,1,280
380,108,186123,2,0,L|404:180,1,70
392,188,186379,2,0,L|332:232,1,70
256,228,186720,1,0,0:0:0:0:
232,160,187061,2,0,B|204:72|164:159|116:76|116:76,1,140
120,64,187572,1,4,0:0:0:0:
340,84,188083,6,0,B|316:232,1,140
296,232,188594,1,0,0:0:0:0:
256,232,188765,2,0,B|120:232,1,122.5
104,172,189361,1,0,0:0:0:0:
84,120,189617,1,0,0:0:0:0:
100,92,189787,2,0,B|236:60|376:160,1,280,0|4,0:0|0:0,0:0:0:0:
332,168,190639,6,0,B|276:220,1,70
256,240,190895,1,0,0:0:0:0:
232,260,190980,1,0,0:0:0:0:
212,280,191065,1,0,0:0:0:0:
172,236,191236,2,0,L|204:188,1,35
160,148,191491,6,0,B|248:156,1,70
176,212,192173,1,0,0:0:0:0:
136,260,192343,1,0,0:0:0:0:
272,96,193110,6,0,B|312:92|332:136,2,70
264,152,193707,1,0,0:0:0:0:
264,152,193877,1,0,0:0:0:0:
272,208,194048,2,0,B|264:296,3,70
256,192,195326,1,4,0:0:0:0:
256,192,196007,12,4,200694,0:0:0:0:
80,288,201376,5,8,0:0:0:0:
104,208,201716,1,0,0:0:0:0:
124,160,201887,1,0,0:0:0:0:
164,124,202057,2,0,B|232:96,1,70
264,80,202483,1,0,0:0:0:0:
392,220,202739,5,8,0:0:0:0:
440,284,203250,2,0,B|460:364,3,70,0|0|0|4,0:0|0:0|0:0|0:0,0:0:0:0:
296,288,204187,5,0,0:0:0:0:
316,200,204443,1,0,0:0:0:0:
352,164,204613,1,0,0:0:0:0:
372,128,204784,1,0,0:0:0:0:
324,80,205125,2,0,B|192:224,1,192.5
88,108,205977,1,0,0:0:0:0:
120,80,206147,1,0,0:0:0:0:
160,48,206318,1,0,0:0:0:0:
200,40,206488,1,0,0:0:0:0:
204,112,206829,21,4,0:0:0:0:
88,208,207170,2,0,B|168:188,3,70
196,180,207851,2,0,B|256:188,1,52.5
212,272,208192,1,4,0:0:0:0:
308,316,208533,2,8,B|372:272,4,70,8|8|8|8|12,0:0|0:0|0:0|0:0|0:0,0:0:0:0:
348,188,209555,5,4,0:0:0:0:
244,116,209896,2,8,B|300:168,4,70
144,268,210919,1,4,0:0:0:0:
144,156,211260,5,0,0:0:0:0:
224,120,211600,2,8,B|292:120,2,70
356,104,212282,1,4,0:0:0:0:
280,272,212623,6,8,B|176:276,3,105.000004005432
144,328,213645,2,0,B|292:348,1,131.249996088445
236,284,214327,1,0,0:0:0:0:
256,192,216713,12,4,220121,0:0:0:0:
