osu file format v12

[General]
AudioFilename: Ticket - Nine Muses.mp3
AudioLeadIn: 1015
PreviewTime: 86352
Countdown: 1
SampleSet: Soft
StackLeniency: 0.4
Mode: 0
LetterboxInBreaks: 1

[Editor]
Bookmarks: 32241,42685,53352,75463,86352,91685,118296,140962,143629,150977,174476,196018
DistanceSpacing: 1.5
BeatDivisor: 4
GridSize: 4

[Metadata]
Title:Ticket
TitleUnicode:Ticket
Artist:Nine Muses
ArtistUnicode:Nine Muses
Creator:tan14007
Version:Normal+
Source:
Tags:Korean Nine Muses
BeatmapID:171418
BeatmapSetID:51185

[Difficulty]
HPDrainRate:3
CircleSize:4
OverallDifficulty:2
ApproachRate:7
SliderMultiplier:1.4
SliderTickRate:1

[Events]
//Background and Video events
Video,0,"Ticket - Nine Muses_xvid.avi"
0,0,"back.jpg",0,0
//Break Periods
2,75811,84425
2,108872,117315
2,193057,195110
//Storyboard Layer 0 (Background)
//Storyboard Layer 1 (Fail)
//Storyboard Layer 2 (Pass)
//Storyboard Layer 3 (Foreground)
//Storyboard Sound Samples
//Background Colour Transformations
3,100,163,162,255

[TimingPoints]
8809,340.831629175187,4,2,0,100,1,0
32241,-100,4,2,0,50,0,0
42806,-100,4,2,0,65,0,0
53352,-100,4,2,0,50,0,0
71293,-80,4,2,0,40,0,0
73435,-100,4,2,0,40,0,0
86352,-100,4,2,0,95,0,1
88852,-50,4,2,0,95,0,1
89463,-100,4,2,0,95,0,1
103435,-80,4,2,0,95,0,1
104028,-100,4,2,0,80,0,1
107101,-100,4,2,0,80,0,1
108811,-100,4,2,0,80,0,0
118296,-100,4,2,0,80,0,0
141073,-80,4,2,0,80,0,0
152056,-80,4,2,0,100,0,1
174476,-100,4,2,0,100,0,0
185359,-50,4,2,0,100,0,0
185810,-100,4,2,0,100,0,0
196018,-100,4,2,0,100,0,1
205042,-50,4,2,0,100,0,0
206312,-100,4,2,0,100,0,1
212309,-80,4,2,0,100,0,1

[Colours]
Combo1 : 231,52,186
Combo2 : 252,158,205
Combo3 : 255,128,255

[HitObjects]
124,64,32326,2,0,B|208:116|124:176,2,140
256,192,33348,1,8,0:0:0:0:
376,204,33689,2,0,B|300:268|380:320,2,140
212,136,34711,1,8,0:0:0:0:
196,248,35052,2,0,B|40:248,1,140,0|0,0:0|0:0,0:0:0:0:
200,328,35734,5,0,0:0:0:0:
196,248,36075,2,0,B|336:248,1,140,8|0,0:0|0:0,0:0:0:0:
408,268,36756,1,0,0:0:0:0:
444,204,37097,1,0,0:0:0:0:
476,264,37438,1,8,0:0:0:0:
344,284,37779,6,0,B|288:256|240:336|212:292,7,140,0|0|0|8|0|0|0|8,0:0|0:0|0:0|0:0|0:0|0:0|0:0|0:0,0:0:0:0:
104,252,40506,1,0,0:0:0:0:
256,200,40846,1,0,0:0:0:0:
208,224,41358,6,0,B|164:160,1,70
216,100,41698,2,0,B|284:64,1,70
336,120,42210,1,0,0:0:0:0:
340,220,42550,1,0,0:0:0:0:
232,256,42891,2,8,B|156:212,1,70
96,108,43232,6,0,B|240:152,1,140,0|0,0:0|0:0,0:0:0:0:
408,112,43914,2,0,B|402:275,1,140
368,316,44425,1,8,0:0:0:0:
316,324,44596,2,0,L|152:324,3,140
168,276,45789,2,8,L|256:228,1,70,8|4,0:0|0:0,0:0:0:0:
364,224,46300,6,0,B|316:164|240:148,1,140,8|0,0:0|0:0,0:0:0:0:
144,192,46811,2,0,L|88:148,1,70,8|0,0:0|0:0,0:0:0:0:
92,148,47152,2,0,L|148:68,1,70,8|0,0:0|0:0,0:0:0:0:
132,92,47493,2,0,L|208:144,1,70,8|0,0:0|0:0,0:0:0:0:
184,132,47834,2,0,L|132:216,1,70,8|0,0:0|0:0,0:0:0:0:
320,72,48345,2,0,L|168:136,1,140,8|4,0:0|0:0,0:0:0:0:
276,128,49027,6,0,B|200:248,6,140
336,244,51412,1,8,0:0:0:0:
320,188,51753,2,0,B|252:148,2,70
348,112,52435,1,8,0:0:0:0:
416,168,52776,1,8,0:0:0:0:
436,240,53117,2,0,B|144:240,1,280
416,208,54139,6,0,B|172:52,1,280,8|4,0:0|0:0,0:0:0:0:
232,172,55502,5,0,0:0:0:0:
252,272,55843,2,10,B|420:340|448:144,1,280,2|6,0:0|0:0,0:0:0:0:
368,80,56866,1,0,0:0:0:0:
320,92,57036,2,0,L|300:172,1,70
256,160,57377,1,0,0:0:0:0:
168,192,57718,2,8,B|176:280|220:252,1,70
240,316,58229,1,0,0:0:0:0:
364,256,58570,2,0,B|304:240|284:292,2,70
360,152,59252,1,0,0:0:0:0:
252,212,59592,5,8,0:0:0:0:
76,208,60104,1,4,0:0:0:0:
220,332,60615,1,0,0:0:0:0:
312,332,60955,1,8,0:0:0:0:
456,208,61467,1,4,0:0:0:0:
288,48,61978,5,0,0:0:0:0:
200,120,62319,1,8,0:0:0:0:
164,148,62489,2,0,B|104:200,2,70
36,96,63171,1,8,0:0:0:0:
36,96,63341,1,8,0:0:0:0:
36,96,63512,1,8,0:0:0:0:
40,152,63682,1,4,0:0:0:0:
64,256,64023,6,2,B|476:152,1,420,0|0,0:0|0:0,0:0:0:0:
448,132,65386,2,8,B|424:232,1,70
352,196,65897,2,8,B|384:104,1,70
264,160,66409,5,0,0:0:0:0:
220,176,66750,2,8,B|160:240,2,70
152,248,67431,1,8,0:0:0:0:
128,272,67772,2,8,B|80:328,2,70
116,196,68454,1,4,0:0:0:0:
120,96,69136,6,0,L|272:72,1,140
260,108,69647,1,0,0:0:0:0:
228,76,69817,2,0,L|380:56,1,140
400,92,70499,2,0,B|328:136,2,70
224,192,71181,1,4,0:0:0:0:
384,304,71522,6,8,B|248:168,1,175
312,252,72373,1,4,0:0:0:0:
212,308,72885,2,8,B|332:160,1,175
144,96,73737,6,12,B|356:48|356:48|356:200,1,350,2|6,0:0|0:0,0:0:0:0:
172,208,74930,2,0,L|248:172,1,70,0|8,0:0|0:0,0:0:0:0:
340,220,75441,2,0,L|372:128,1,70,0|8,0:0|0:0,0:0:0:0:
256,192,85325,12,4,86177,0:0:0:0:
152,152,86518,5,0,0:0:0:0:
280,112,86859,2,8,B|204:156,1,70
216,208,87200,1,8,0:0:0:0:
272,208,87370,2,8,L|356:192,1,81.6666666666667,0|4,0:0|0:0,0:0:0:0:
432,192,87881,5,0,0:0:0:0:
368,224,88222,2,8,B|288:168,3,70,8|8|8|4,0:0|0:0|0:0|0:0,0:0:0:0:
348,80,89074,2,0,B|292:24|240:24|192:64,1,140,8|4,0:0|0:0,0:0:0:0:
196,120,89585,6,2,B|348:120,1,140,2|8,0:0|0:0,0:0:0:0:
336,120,90267,6,8,B|336:268,1,140,2|8,0:0|0:0,0:0:0:0:
336,260,90949,6,8,B|192:260,1,140,2|8,0:0|0:0,0:0:0:0:
168,244,91460,6,0,L|92:240,2,70
124,280,91971,1,8,0:0:0:0:
248,276,92312,2,2,B|468:260,1,210,10|6,0:0|0:0,0:0:0:0:
424,192,93334,5,8,0:0:0:0:
372,100,93675,2,10,B|188:204,1,210
140,224,94698,1,4,0:0:0:0:
156,324,95039,6,0,B|304:300,1,140,8|0,0:0|0:0,0:0:0:0:
360,292,95720,1,0,0:0:0:0:
420,252,96061,2,8,B|400:180,1,70
400,180,96402,2,0,B|384:112,3,70
460,248,97425,21,12,0:0:0:0:
444,160,97766,6,8,B|376:192,3,70
360,112,98618,1,8,0:0:0:0:
360,76,98788,1,4,0:0:0:0:
196,104,99129,2,8,B|272:104,3,70
124,136,100151,1,4,0:0:0:0:
220,176,100492,2,8,B|296:176,6,70,8|8|8|8|8|8|12,0:0|0:0|0:0|0:0|0:0|0:0|0:0,0:0:0:0:
228,248,101856,5,0,0:0:0:0:
316,244,102196,2,8,B|388:244,6,70,8|8|8|8|8|8|12,0:0|0:0|0:0|0:0|0:0|0:0|0:0,0:0:0:0:
316,188,103560,2,0,B|280:140|184:128,1,105.000004005432,0|4,0:0|0:0,0:0:0:0:
232,112,104241,6,8,B|304:112,3,70
328,176,104923,2,0,B|360:200|384:152,1,70
192,192,105605,1,4,0:0:0:0:
104,216,105946,2,0,P|140:56|308:168,1,420
256,192,107309,12,4,108672,0:0:0:0:
272,128,118215,5,0,0:0:0:0:
236,80,118386,1,0,0:0:0:0:
192,124,118556,1,0,0:0:0:0:
168,220,118897,2,0,B|24:220,1,140,8|0,0:0|0:0,0:0:0:0:
64,188,119579,2,0,B|104:268|104:268|168:268|168:268|232:212,1,210,0|4,0:0|0:0,0:0:0:0:
316,220,120942,5,8,0:0:0:0:
428,192,121283,1,0,0:0:0:0:
452,152,121453,1,0,0:0:0:0:
440,112,121624,1,0,0:0:0:0:
392,60,121965,2,0,B|308:76,1,70
288,88,122305,2,2,B|272:144|272:144|224:48|224:48|200:112,1,210,2|6,0:0|0:0,0:0:0:0:
124,136,123669,22,0,B|328:216,2,210,0|0|0,0:0|0:0|0:0,0:0:0:0:
240,172,125032,1,8,0:0:0:0:
204,268,125373,1,0,0:0:0:0:
172,260,125543,1,0,0:0:0:0:
56,236,125884,2,0,B|80:188|52:152,1,70
64,112,126395,1,8,0:0:0:0:
156,44,126907,1,4,0:0:0:0:
336,80,127418,21,8,0:0:0:0:
392,64,127759,1,8,0:0:0:0:
356,144,128270,2,2,B|72:352,1,350,0|4,0:0|0:0,0:0:0:0:
200,344,129463,2,8,L|264:288,1,70
328,316,129974,2,8,L|376:260,1,70
208,268,130485,22,8,B|356:268,1,140
284,200,131167,2,8,B|144:204,1,140
200,156,131678,2,0,B|288:156,1,81.6666666666667
360,88,132190,1,4,0:0:0:0:
392,120,132360,2,0,B|348:188,3,70
256,256,133212,1,4,0:0:0:0:
48,192,133553,6,2,B|164:84|304:44,1,280
340,56,134575,1,0,0:0:0:0:
316,88,134916,2,2,B|264:164,1,70
272,152,135257,2,2,B|208:232,1,70
228,206,135598,1,0,0:0:0:0:
184,244,135939,6,2,B|152:300|260:356,6,140,4|0|0|0|0|0|0,0:0|0:0|0:0|0:0|0:0|0:0|0:0,0:0:0:0:
124,304,138325,2,2,B|128:160,1,140
192,140,139006,2,2,B|224:208,1,70
224,200,139347,2,0,B|300:192,1,70
256,128,139688,2,0,B|290:191,1,70
340,164,140029,1,0,0:0:0:0:
456,296,140710,1,4,0:0:0:0:
248,264,141051,5,0,0:0:0:0:
100,224,141392,2,0,P|124:168|232:200,1,175
320,248,141903,1,0,0:0:0:0:
408,240,142074,2,0,B|240:136,1,175
156,228,142755,5,0,0:0:0:0:
156,228,142926,1,0,0:0:0:0:
156,228,143096,1,0,0:0:0:0:
156,228,143267,1,0,0:0:0:0:
236,248,143607,2,0,B|312:300,1,87.5,8|4,0:0|0:0,0:0:0:0:
388,188,144119,6,0,B|288:108,3,87.5,0|0|0|0,0:0|0:0|0:0|0:0,0:0:0:0:
208,100,144970,1,4,0:0:0:0:
276,176,145482,6,0,B|164:224,3,87.5,0|0|0|0,0:0|0:0|0:0|0:0,0:0:0:0:
92,244,146334,1,8,0:0:0:0:
52,260,146504,1,4,0:0:0:0:
64,184,146845,6,0,B|96:104|216:60|288:24|336:192,1,350,0|4,0:0|0:0,0:0:0:0:
337,273,147868,1,0,0:0:0:0:
432,160,148209,2,0,B|360:248,3,87.5
284,296,149061,1,8,0:0:0:0:
248,280,149231,1,4,0:0:0:0:
256,192,149657,12,0,151617,0:0:0:0:
144,196,151958,6,8,B|52:264,2,87.5
212,168,152639,1,0,0:0:0:0:
276,148,152810,2,0,B|360:104,1,87.5,0|4,0:0|0:0,0:0:0:0:
424,132,153321,1,0,0:0:0:0:
432,232,153662,6,0,B|296:328|180:332,1,262.5,8|4,0:0|0:0,0:0:0:0:
80,276,154514,2,0,B|140:204,1,87.5,8|4,0:0|0:0,0:0:0:0:
24,240,155025,2,0,B|84:56,1,175,8|4,0:0|0:0,0:0:0:0:
112,144,155707,2,0,B|280:24,1,175,8|4,0:0|0:0,0:0:0:0:
200,100,156389,2,0,B|396:152,1,175,8|4,0:0|0:0,0:0:0:0:
288,160,157070,2,0,B|200:248,1,87.5
192,180,157411,1,4,0:0:0:0:
352,76,157752,5,8,0:0:0:0:
284,136,158093,2,2,B|200:196,1,87.5,2|6,0:0|0:0,0:0:0:0:
264,248,158774,1,4,0:0:0:0:
316,236,158945,1,8,0:0:0:0:
336,276,159115,1,0,0:0:0:0:
360,240,159286,1,0,0:0:0:0:
316,144,159626,2,0,B|88:320,1,262.5,2|4,0:0|0:0,0:0:0:0:
172,164,160479,6,0,B|258:15|468:32|472:136,1,350
436,256,161501,2,0,L|312:288,1,87.5
272,224,161842,2,0,L|216:108,1,87.5
124,132,162183,1,0,0:0:0:0:
124,132,162353,1,0,0:0:0:0:
92,184,162864,5,4,0:0:0:0:
168,100,163205,2,8,B|280:68,3,87.5,8|8|8|12,0:0|0:0|0:0|0:0,0:0:0:0:
316,72,164057,1,2,0:0:0:0:
316,120,164228,1,4,0:0:0:0:
320,192,164569,2,8,B|312:296,3,87.5,8|8|8|12,0:0|0:0|0:0|0:0,0:0:0:0:
216,328,165421,2,0,B|324:276,1,87.5,2|4,0:0|0:0,0:0:0:0:
180,288,165932,5,0,0:0:0:0:
130,239,166103,1,0,0:0:0:0:
106,174,166273,1,0,0:0:0:0:
129,109,166443,1,0,0:0:0:0:
178,58,166614,1,0,0:0:0:0:
260,64,166954,5,0,0:0:0:0:
309,112,167125,1,0,0:0:0:0:
333,177,167295,1,0,0:0:0:0:
310,242,167466,1,0,0:0:0:0:
261,293,167636,1,0,0:0:0:0:
216,288,167977,2,10,B|216:168,1,87.5
216,152,168318,1,4,0:0:0:0:
264,56,168659,5,8,0:0:0:0:
260,128,168999,2,4,B|360:196,1,87.5,0|4,0:0|0:0,0:0:0:0:
420,224,169511,1,0,0:0:0:0:
392,256,169681,1,0,0:0:0:0:
340,288,170022,2,0,B|256:196,3,87.5
212,212,171044,1,4,0:0:0:0:
128,276,171385,5,0,0:0:0:0:
89,217,171556,1,0,0:0:0:0:
64,152,171726,1,0,0:0:0:0:
78,86,171897,1,0,0:0:0:0:
141,62,172067,1,0,0:0:0:0:
236,88,172749,5,0,0:0:0:0:
288,133,172919,1,0,0:0:0:0:
320,195,173089,1,0,0:0:0:0:
302,259,173260,1,0,0:0:0:0:
236,273,173430,1,0,0:0:0:0:
204,188,174112,1,4,0:0:0:0:
88,136,174453,6,0,B|140:72|220:72|256:136,1,175
304,172,175134,1,0,0:0:0:0:
384,232,175475,1,0,0:0:0:0:
324,260,175816,2,0,B|256:288,1,70
188,288,176498,6,0,B|136:236,1,70
138,238,176838,2,0,B|200:176,1,87.5
199,176,177179,2,0,B|128:108,1,87.5,0|4,0:0|0:0,0:0:0:0:
376,120,177861,2,0,B|368:200,4,70
376,96,178713,1,4,0:0:0:0:
152,84,179224,6,0,B|232:212,1,140
268,268,179906,2,0,B|304:200,1,70
304,208,180247,2,0,B|336:268,1,70
336,272,180588,2,0,B|384:212,1,70
384,144,180928,2,0,B|244:92,1,140
256,96,181440,1,4,0:0:0:0:
348,100,181951,5,0,0:0:0:0:
384,172,182292,1,0,0:0:0:0:
344,248,182633,2,0,B|296:304,2,70
236,188,183314,2,0,B|284:104,1,87.5
128,80,183996,2,0,B|72:128|112:212,1,140
204,280,184678,1,0,0:0:0:0:
368,76,185018,1,4,0:0:0:0:
120,192,185359,6,0,B|408:24|332:44,1,280
368,180,186041,2,0,B|368:260,2,70
288,208,186552,1,0,0:0:0:0:
256,228,186723,1,0,0:0:0:0:
232,160,187063,2,0,B|204:72|164:159|116:76|116:76,1,140
120,64,187575,1,4,0:0:0:0:
340,84,188086,6,0,B|320:248,1,140
296,232,188597,1,0,0:0:0:0:
256,232,188768,2,0,B|104:232,1,140
104,172,189449,1,0,0:0:0:0:
84,120,189620,1,0,0:0:0:0:
100,92,189790,2,0,B|236:60|364:152,1,280,0|4,0:0|0:0,0:0:0:0:
332,168,190813,6,0,B|276:220,2,70
276,120,191494,6,0,B|216:176,2,70
176,212,192176,1,0,0:0:0:0:
136,260,192346,1,0,0:0:0:0:
84,220,192517,2,4,B|80:132|168:80,1,140,0|4,0:0|0:0,0:0:0:0:
256,192,196010,12,4,200697,0:0:0:0:
80,288,201378,5,8,0:0:0:0:
104,208,201719,1,8,0:0:0:0:
124,160,201890,1,8,0:0:0:0:
164,124,202060,2,8,B|232:96,1,70
264,80,202401,1,4,0:0:0:0:
392,220,202742,5,8,0:0:0:0:
440,284,203083,2,8,B|460:364,4,70,8|8|8|8|4,0:0|0:0|0:0|0:0|0:0,0:0:0:0:
296,288,204105,5,8,0:0:0:0:
316,200,204446,1,0,0:0:0:0:
352,164,204616,1,0,0:0:0:0:
372,128,204787,1,0,0:0:0:0:
324,80,205128,2,0,B|192:228,1,140
176,212,205468,2,0,L|60:108,1,140
132,72,205809,1,0,0:0:0:0:
172,52,205980,1,0,0:0:0:0:
256,172,206320,2,8,L|240:256,2,70
204,112,206832,21,4,0:0:0:0:
88,208,207173,2,8,B|168:188,3,70
196,180,207854,2,8,B|256:188,1,52.5
212,272,208195,1,4,0:0:0:0:
308,316,208536,2,8,B|372:272,4,70,8|8|8|8|12,0:0|0:0|0:0|0:0|0:0,0:0:0:0:
348,188,209558,5,4,0:0:0:0:
244,116,209899,2,8,B|300:168,4,70
144,268,210922,1,4,0:0:0:0:
144,156,211262,5,0,0:0:0:0:
224,120,211603,2,8,B|292:120,2,70
356,104,212285,1,4,0:0:0:0:
280,272,212626,6,8,B|176:276,3,105.000004005432
184,216,213307,2,0,B|80:168|60:340,1,210.000008010865,0|4,0:0|0:0,0:0:0:0:
144,328,213989,2,0,B|292:348,1,131.249996088445
236,284,214330,1,8,0:0:0:0:
176,264,214500,1,8,0:0:0:0:
108,256,214671,1,8,0:0:0:0:
56,316,215012,2,0,B|56:124|56:124|308:124,1,420.000016021729
324,184,215921,1,8,0:0:0:0:
324,184,216091,1,8,0:0:0:0:
324,184,216261,1,8,0:0:0:0:
324,184,216432,1,8,0:0:0:0:
256,192,216716,12,4,220124,0:0:0:0:
