osu file format v12

[General]
AudioFilename: Ticket - Nine Muses.mp3
AudioLeadIn: 0
PreviewTime: 86348
Countdown: 0
SampleSet: Soft
StackLeniency: 0.2
Mode: 0
LetterboxInBreaks: 0

[Editor]
Bookmarks: 32241,42685,53352,75463,86352,91685,118296,140962,150977,174476,196018
DistanceSpacing: 1.5
BeatDivisor: 2
GridSize: 4

[Metadata]
Title:Ticket
TitleUnicode:
Artist:Nine Muses
ArtistUnicode:
Creator:tan14007
Version:Easy
Source:
Tags:Korean
BeatmapID:157024
BeatmapSetID:51185

[Difficulty]
HPDrainRate:4
CircleSize:3
OverallDifficulty:0
ApproachRate:2
SliderMultiplier:1.4
SliderTickRate:1

[Events]
//Background and Video events
Video,0,"Ticket - Nine Muses_xvid.avi"
0,0,"back.jpg",0,0
//Break Periods
2,75811,84958
2,104018,117185
2,140910,150398
2,160337,161304
2,174312,194450
//Storyboard Layer 0 (Background)
//Storyboard Layer 1 (Fail)
//Storyboard Layer 2 (Pass)
//Storyboard Layer 3 (Foreground)
//Storyboard Sound Samples
//Background Colour Transformations
3,100,163,162,255

[TimingPoints]
8809,340.831629175187,4,1,0,100,1,0
32507,-133.333333333333,4,1,0,79,0,0
42685,-133.333333333333,4,2,0,75,0,0
53352,-133.333333333333,4,2,0,45,0,0
71293,-133.333333333333,4,2,0,45,0,0
73435,-133.333333333333,4,2,0,76,0,0
86348,-100,4,2,0,85,0,1
104028,-200,4,2,0,70,0,0
118296,-133.333333333333,4,2,0,45,0,0
152128,-100,4,2,0,90,0,1
174453,-100,4,2,0,85,0,0
196095,-100,4,2,0,91,0,1
206661,-100,4,2,0,100,0,1
221884,-100,4,2,0,100,0,0

[Colours]
Combo1 : 231,52,186
Combo2 : 252,158,205
Combo3 : 255,128,255

[HitObjects]
116,64,32326,6,8,B|400:64,1,280,8|0,0:0|0:0,0:0:0:0:
396,64,33689,6,8,B|396:296,1,210.000008010865,8|0,0:0|0:0,0:0:0:0:
396,272,35053,6,8,B|168:272,1,210.000008010865,8|0,0:0|0:0,0:0:0:0:
184,272,36416,6,8,B|184:64,1,209.999993741513,8|0,0:0|0:0,0:0:0:0:
368,272,37779,6,8,B|176:176,1,209.999993741512,8|0,0:0|0:0,0:0:0:0:
384,120,39143,6,8,B|180:176,1,209.999993741512,8|0,0:0|0:0,0:0:0:0:
200,192,40506,2,12,B|328:192,1,105.000004005432,8|4,0:0|0:0,0:0:0:0:
208,160,43232,6,8,B|236:232|236:232|208:240,8,105.000004005432,8|8|8|8|8|8|8|8|12,0:0|0:0|0:0|0:0|0:0|0:0|0:0|0:0|0:0,0:0:0:0:
320,96,46641,6,8,B|368:60|420:112,6,105.000004005432,8|8|8|8|8|8|12,0:0|0:0|0:0|0:0|0:0|0:0|0:0,0:0:0:0:
232,244,49367,6,8,B|232:296|232:296|296:296,5,105.000004005432,8|8|8|8|8|12,0:0|0:0|0:0|0:0|0:0|0:0,0:0:0:0:
328,256,51412,5,8,0:0:0:0:
400,188,51753,1,8,0:0:0:0:
328,144,52094,1,8,0:0:0:0:
248,112,52435,1,8,0:0:0:0:
164,116,52776,1,0,0:0:0:0:
68,236,53457,1,0,0:0:0:0:
56,332,53798,1,4,0:0:0:0:
176,232,54139,6,2,B|400:308,1,210.000008010865
168,336,55843,2,2,B|344:308|392:124,1,315.000012016297,2|6,0:0|0:0,0:0:0:0:
260,160,57377,1,0,0:0:0:0:
224,212,57718,2,0,B|272:260,2,52.5000020027161
144,128,58570,1,0,0:0:0:0:
184,88,58911,2,8,L|276:176,1,105.000004005432
304,88,59592,1,0,0:0:0:0:
344,160,60104,1,4,0:0:0:0:
64,108,60956,1,8,0:0:0:0:
200,48,61467,1,4,0:0:0:0:
320,116,61978,5,8,0:0:0:0:
240,188,62319,1,0,0:0:0:0:
128,256,62830,1,4,0:0:0:0:
32,152,63682,1,0,0:0:0:0:
88,136,64023,6,2,B|396:60,1,315.000012016297,0|4,0:0|0:0,0:0:0:0:
364,152,66409,2,0,B|268:220,1,105.000004005432,0|8,0:0|0:0,0:0:0:0:
244,176,67091,2,0,B|184:84,1,105.000004005432,0|8,0:0|0:0,0:0:0:0:
116,60,67772,2,0,B|128:168,1,105.000004005432,0|8,0:0|0:0,0:0:0:0:
136,224,68454,1,4,0:0:0:0:
160,104,69136,6,2,B|376:64,1,209.999993741512,2|10,0:0|0:0,0:0:0:0:
360,172,70499,1,0,0:0:0:0:
272,176,71010,5,4,0:0:0:0:
272,336,71522,2,8,B|272:224,1,104.999996870756
200,276,72374,1,4,0:0:0:0:
120,320,72885,2,8,B|180:216,1,105.000004005432
348,156,73737,1,8,0:0:0:0:
276,160,74078,2,0,B|220:160,1,52.5000020027161,0|8,0:0|0:0,0:0:0:0:
224,80,74589,1,8,0:0:0:0:
104,80,74930,2,0,B|176:80,1,52.5000020027161,0|8,0:0|0:0,0:0:0:0:
156,160,75441,2,0,B|84:160,1,52.5000020027161,0|8,0:0|0:0,0:0:0:0:
116,168,86518,5,0,0:0:0:0:
176,140,86859,2,2,B|400:64,1,210,2|6,0:0|0:0,0:0:0:0:
424,196,87881,5,0,0:0:0:0:
360,224,88222,2,2,B|136:304,1,210,2|6,0:0|0:0,0:0:0:0:
188,120,89586,6,2,B|332:120,1,140,2|4,0:0|0:0,0:0:0:0:
328,120,90267,6,2,B|328:268,1,140,2|4,0:0|0:0,0:0:0:0:
328,260,90949,6,2,B|184:260,1,140,2|4,0:0|0:0,0:0:0:0:
168,192,91631,6,0,L|104:292,1,70,0|0,0:0|0:0,0:0:0:0:
124,280,91971,1,4,0:0:0:0:
200,264,92312,6,2,B|424:252,1,210,2|6,0:0|0:0,0:0:0:0:
456,172,93335,1,8,0:0:0:0:
400,108,93676,2,2,B|196:204,1,210
140,224,94698,1,4,0:0:0:0:
156,172,95039,2,0,L|296:208,1,140
156,308,95721,6,0,B|308:296,1,140
364,272,96402,2,0,B|376:192,3,70
312,152,97425,1,4,0:0:0:0:
448,100,97766,6,0,B|384:136,3,70
336,60,98788,1,4,0:0:0:0:
196,104,99129,2,0,B|268:104,3,70
148,180,100151,5,4,0:0:0:0:
248,180,100492,2,8,B|324:180,6,70,8|8|8|8|8|8|12,0:0|0:0|0:0|0:0|0:0|0:0|0:0,0:0:0:0:
216,256,101856,5,0,0:0:0:0:
136,260,102196,2,8,B|68:260,6,70,8|8|8|8|8|8|12,0:0|0:0|0:0|0:0|0:0|0:0|0:0,0:0:0:0:
44,108,118897,5,8,0:0:0:0:
84,180,119579,2,2,B|144:240|144:240|188:260|188:260|280:232,1,210,0|4,0:0|0:0,0:0:0:0:
400,208,120942,1,8,0:0:0:0:
424,76,121624,1,8,0:0:0:0:
280,60,122305,2,2,B|264:112|264:112|220:40|220:40|192:104,1,210.000008010865,2|6,0:0|0:0,0:0:0:0:
40,156,123669,22,0,B|244:232,2,210,0|0|0,0:0|0:0|0:0,0:0:0:0:
68,248,125373,2,0,B|36:308,1,52.5000020027161,0|8,0:0|0:0,0:0:0:0:
136,304,125884,2,0,B|124:244,1,52.5000020027161,0|8,0:0|0:0,0:0:0:0:
108,168,126395,1,8,0:0:0:0:
68,72,126907,1,4,0:0:0:0:
236,140,127418,21,8,0:0:0:0:
232,56,127759,1,8,0:0:0:0:
352,148,128270,2,0,B|124:312,1,262.500010013581,0|4,0:0|0:0,0:0:0:0:
252,300,130485,6,8,B|368:300,8,105.000004005432,0|8|0|8|0|8|0|8|4,0:0|0:0|0:0|0:0|0:0|0:0|0:0|0:0|0:0,0:0:0:0:
144,300,133894,6,0,B|264:300,5,105.000004005432,0|8|0|8|0|8,0:0|0:0|0:0|0:0|0:0|0:0,0:0:0:0:
256,268,135939,6,0,B|300:200|340:280,6,105.000004005432,4|8|0|8|0|8|0,0:0|0:0|0:0|0:0|0:0|0:0|0:0,0:0:0:0:
380,320,138325,2,2,B|340:108|340:108|136:108,1,420.000016021729,6|2,0:0|0:0,0:0:0:0:
288,84,140710,1,4,0:0:0:0:
148,200,151958,6,8,B|84:232,2,52.5000020027161,8|0|8,0:0|0:0|0:0,0:0:0:0:
212,168,152639,6,2,B|464:32,1,280,0|4,0:0|0:0,0:0:0:0:
432,164,153662,5,8,0:0:0:0:
364,216,154173,2,2,B|272:292|152:240,1,210,8|4,0:0|0:0,0:0:0:0:
56,304,155025,2,0,B|108:164,1,140,0|4,0:0|0:0,0:0:0:0:
144,140,155707,2,0,B|272:72,5,140,0|4|0|4|0|4,0:0|0:0|0:0|0:0|0:0|0:0,0:0:0:0:
352,76,157752,5,8,0:0:0:0:
424,120,158263,2,2,B|480:332,1,210,2|6,0:0|0:0,0:0:0:0:
404,304,159115,1,8,0:0:0:0:
300,304,159626,2,2,B|88:304,1,210,2|4,0:0|0:0,0:0:0:0:
88,96,162864,5,4,0:0:0:0:
168,100,163205,2,8,B|248:100,3,70,8|8|8|12,0:0|0:0|0:0|0:0,0:0:0:0:
372,180,164228,6,8,B|372:260,5,70
328,296,165591,1,4,0:0:0:0:
248,256,165932,1,0,0:0:0:0:
292,184,166273,2,0,B|48:176|80:32,3,280,0|4|4|4,0:0|0:0|0:0|0:0,0:0:0:0:
200,120,168659,5,8,0:0:0:0:
276,144,169170,2,4,B|464:256,1,210
368,276,170022,2,0,B|304:324,3,70
228,260,171044,1,4,0:0:0:0:
152,292,171385,6,2,B|76:292|76:36|168:36,1,280
288,64,172749,6,2,B|364:64|364:320|272:320,1,280
204,188,174112,5,4,0:0:0:0:
256,192,196010,12,4,200697,0:0:0:0:
80,224,201378,5,8,0:0:0:0:
128,160,201890,2,2,B|336:80,1,210,0|4,0:0|0:0,0:0:0:0:
424,60,202742,5,8,0:0:0:0:
392,124,203083,2,0,B|344:200,4,70,0|0|0|0|4,0:0|0:0|0:0|0:0|0:0,0:0:0:0:
260,232,204105,5,0,0:0:0:0:
204,292,204446,2,8,L|100:264,1,70
144,184,204787,1,0,0:0:0:0:
240,88,205128,1,0,0:0:0:0:
136,80,205468,2,0,B|8:160|80:240,1,140
92,260,206150,2,0,L|268:192,1,140
304,280,206832,5,4,0:0:0:0:
352,320,207173,2,0,B|428:292,6,70,8|8|8|8|4|8|8,0:0|0:0|0:0|0:0|0:0|0:0|0:0,0:0:0:0:
128,256,208536,2,0,B|56:256,4,70,8|0|8|0|12,0:0|0:0|0:0|0:0|0:0,0:0:0:0:
216,252,209558,5,4,0:0:0:0:
216,320,209899,2,8,B|292:320,4,70
144,268,210922,1,4,0:0:0:0:
144,156,211262,5,0,0:0:0:0:
220,148,211603,2,8,B|300:148,2,70
260,192,212285,5,4,0:0:0:0:
212,304,212626,2,2,P|256:60|280:312,1,700
256,192,215012,12,4,217738,0:0:0:0:
