osu file format v5

[General]
AudioFilename: 104 - March Of The Pigs.mp3
AudioLeadIn: 0
PreviewTime: -1
Countdown: 3
SampleSet: Soft
StackLeniency: 0.7
Mode: 0
LetterboxInBreaks: 1

[Metadata]
Title:March Of The Pigs
Artist:Nine Inch Nails
Creator:sharingankainon
Version:Normal
Source:
Tags:nin,ne

[Difficulty]
HPDrainRate:5
CircleSize:5
OverallDifficulty:5
SliderMultiplier:0.699999999999999
SliderTickRate:1

[Events]
//Background and Video events
0,0,"images.jpg"
//Break Periods
2,79175,84878
//Storyboard Layer 0 (Background)
//Storyboard Layer 1 (Failing)
//Storyboard Layer 2 (Passing)
//Storyboard Layer 3 (Foreground)
//Storyboard Sound Samples
//Background Colour Transformations
3,100,0,0,0

[TimingPoints]
5790,400,4,2,0,100,1
5790,308.800000000002,4,2,0,100,1

[HitObjects]
128,128,3319,1,0
224,128,4863,1,0
224,256,5790,1,0
224,256,6190,1,0
224,256,6590,1,0
192,96,8260,5,0
192,224,9804,1,0
352,128,10730,1,0
352,128,11039,1,0
352,128,11348,1,0
192,128,13201,1,0
192,128,14745,5,0
256,288,15980,1,0
256,192,17833,1,0
160,160,18759,1,0
192,128,19068,1,0
256,128,19377,1,0
288,160,19686,1,0
288,32,21230,1,0
192,224,22774,1,0
320,96,24318,1,0
128,128,26170,1,0
352,64,27714,5,0
160,160,28950,1,0
256,160,29390,2,0,B|480:160|480:160|448:160|352:320|320:320|320:320|320:288|224:160,1,629.999999999999
160,128,34199,5,0
192,224,35743,1,0
384,96,37287,1,0
224,96,39140,1,0
320,128,39449,1,0
448,160,39758,1,0
352,288,40066,1,0
224,224,40993,1,0
288,160,41302,1,0
352,96,41610,1,0
288,64,42537,1,0
192,128,42846,1,0
192,256,43154,1,0
320,128,44590,5,0
256,32,45790,1,0
128,224,46190,1,0
192,320,46590,1,0
416,96,47390,1,0
288,128,47790,1,0
288,224,48190,1,0
192,96,48990,1,0
256,64,49390,1,0
352,96,49790,1,0
256,192,50590,12,0,54190
32,32,55506,5,0
128,32,56433,1,0
224,32,57359,1,0
320,32,58286,1,0
416,32,59212,1,0
96,128,64462,1,0
224,128,65079,1,0
384,64,66314,1,0
320,224,66932,1,0
256,96,67858,1,0
128,96,68167,1,0
160,192,68476,1,0
288,192,70638,1,0
128,96,70946,1,0
192,64,71255,1,0
352,64,71873,1,0
448,128,72182,1,0
416,64,73417,5,0
288,192,74034,1,0
192,128,74652,1,0
224,96,74961,1,0
384,64,75270,1,0
416,224,75887,1,0
192,224,76814,1,0
256,96,77740,1,0
384,96,78358,1,0
384,256,78666,1,0
256,224,78975,1,0
256,160,86078,5,0
288,224,87004,1,0
192,96,88857,1,0
256,96,89474,1,0
320,96,89783,1,0
320,128,90092,1,0
160,192,91327,1,0
320,160,91945,1,0
448,96,92254,1,0
288,64,93798,5,0
160,224,95342,1,0
352,224,95650,1,0
320,64,96886,1,0
256,192,97194,1,0
448,128,98738,1,0
320,64,99974,1,0
256,128,100282,1,0
448,192,101826,1,0
352,288,102135,1,0
352,128,103679,5,0
256,128,103988,1,0
128,128,104297,1,0
128,224,104914,1,0
256,288,105223,1,0
384,64,106767,5,0
256,128,108311,1,0
384,288,109855,1,0
256,128,112017,1,0
352,128,112326,1,0
352,224,112634,1,0
288,288,112943,1,0
416,32,113870,1,0
256,96,114178,1,0
224,192,114487,1,0
384,192,115414,1,0
192,288,115722,1,0
128,160,116031,1,0
416,64,117884,5,0
352,64,118193,1,0
352,224,119737,1,0
320,96,121281,1,0
160,128,122825,1,0
288,192,123442,1,0
224,320,123751,1,0
160,288,124060,1,0
192,224,124369,1,0
288,96,124678,1,0
32,32,126190,2,0,B|512:384|512:384|512:32|512:32|0:384|0:384|0:0|0:0|512:0|512:0,1,2450
32,32,140735,1,0
128,32,141353,1,0
192,32,141662,1,0
256,32,141970,1,0
320,128,142588,1,0
256,224,142897,1,0
160,160,143514,1,0
224,96,143823,1,0
288,64,144441,1,0
320,192,144750,1,0
256,256,145367,1,0
416,96,145985,1,0
256,160,146911,1,0
320,64,147529,1,0
352,192,148146,1,0
256,288,148455,1,0
224,128,150308,5,0
288,256,150926,1,0
416,160,151543,1,0
384,64,151852,1,0
224,128,153087,1,0
288,224,153705,1,0
192,256,154014,1,0
128,160,154631,1,0
160,96,154940,1,0
384,64,156793,1,0
288,192,157410,1,0
224,128,158028,1,0
320,96,158337,1,0
416,96,158954,1,0
384,192,160498,5,0
256,160,161425,1,0
352,96,161734,1,0
256,32,162042,1,0
128,160,162660,1,0
192,256,162969,1,0
256,256,163278,1,0
352,192,163586,1,0
416,128,163895,1,0
384,64,164513,1,0
288,96,165130,1,0
256,224,166057,1,0
256,320,166674,1,0
