osu file format v5

[General]
AudioFilename: 05 - Closer.mp3
AudioLeadIn: 2007
PreviewTime: 59640
Countdown: 1
SampleSet: Soft
StackLeniency: 0.7
Mode: 0
LetterboxInBreaks: 1
EditorBookmarks: 86973
EditorDistanceSpacing: 1

[Metadata]
Title:Closer
Artist:Nine Inch Nails
Creator:Real1
Version:Normal
Source:
Tags:

[Difficulty]
HPDrainRate:6
CircleSize:4
OverallDifficulty:6
SliderMultiplier:1.4
SliderTickRate:2

[Events]
//Background and Video events
0,0,"nine-inch-nails-poster-1.jpg"
//Break Periods
2,85340,105756
//Storyboard Layer 0 (Background)
//Storyboard Layer 1 (Failing)
//Storyboard Layer 2 (Passing)
//Storyboard Layer 3 (Foreground)
//Storyboard Sound Samples
//Background Colour Transformations
3,100,163,162,255

[TimingPoints]
140,666.666666666667,4,2,0,61,1,0
64288,-100,4,1,0,61,0,0
85288,-100,4,2,0,71,0,0
105455,-100,4,1,0,69,0,0

[Colours]
Combo1 : 40,40,40
Combo2 : 54,109,109
Combo3 : 141,199,199
Combo4 : 0,0,140

[HitObjects]
56,192,140,1,0
192,192,806,1,2
328,192,1473,1,0
328,48,2140,1,2
464,48,2806,1,0
464,192,3473,1,2
464,320,4140,5,0
320,320,4806,1,2
176,320,5473,1,0
176,176,6140,1,2
320,176,6806,5,0
392,176,7140,1,0
464,176,7473,1,2
320,176,8140,1,0
168,176,8806,1,2
104,304,9473,5,0
240,304,10140,1,2
168,176,10806,5,0
256,80,11473,1,2
336,192,12139,5,0
336,192,12473,1,0
336,192,12806,1,2
224,104,13473,5,0
152,104,13806,1,0
80,104,14139,1,2
80,176,14473,1,0
80,248,14806,1,0
152,248,15139,1,0
224,248,15473,1,2
224,176,15806,1,0
224,104,16139,5,0
360,104,16806,1,2
256,192,17473,5,0
256,192,18139,1,2
392,192,18806,5,0
392,192,19140,1,0
392,192,19473,1,2
392,192,19806,1,0
392,192,20140,1,0
248,192,20806,1,2
248,192,21473,5,4
320,192,21806,5,0
392,192,22140,1,0
392,192,22473,2,0,B|392:344,1,140
392,332,23473,1,2
392,332,23806,1,2
256,280,24473,5,0
256,208,24806,1,2
256,136,25140,1,0
256,64,25473,1,2
392,64,26140,5,4
392,64,26306,1,4
392,64,26473,1,4
304,176,27140,6,2,B|232:176,1,70
160,176,27806,1,0
88,176,28140,1,0
88,176,28473,1,0
88,176,28806,2,2,B|88:264,1,70
88,312,29473,5,0
160,312,29806,1,0
232,312,30140,1,0
304,312,30473,5,0
376,312,30806,1,4
376,168,31473,5,4
376,168,31640,1,4
376,168,31806,1,4
80,304,32473,5,0
80,232,32806,1,0
144,264,33140,1,0
216,264,33473,2,4,B|376:264,1,140,4|0
424,264,34473,1,4
384,200,34806,5,0
424,144,35140,1,0
424,144,35473,1,4
424,264,36140,5,0
352,264,36473,1,0
280,264,36806,1,4
240,264,36973,1,4
208,264,37140,1,4
192,112,37806,5,0
264,112,38140,1,0
192,112,38473,1,0
192,112,38806,2,0,B|64:112,1,70
122,112,39473,1,4
122,112,39806,1,2
120,248,40473,5,4
160,304,40806,1,4
296,304,41473,1,0
296,160,42139,1,4
296,128,42306,1,4
296,96,42473,1,4
224,88,42806,6,0,B|56:88,1,140,0|4
120,160,43806,6,0,B|120:312,1,140
192,304,44806,1,0
264,304,45139,1,0
336,304,45473,2,0,B|424:304,1,70
406,304,46139,1,4
408,160,46806,5,0
408,160,47473,5,4
408,160,47639,1,4
408,160,47806,1,4
472,144,48139,6,0,B|456:104,4,35
480,232,49139,6,0,B|384:232,1,70
336,232,49806,2,0,B|176:232,1,140
128,232,50806,2,0,B|128:144,1,70,0|2
128,88,51473,5,2
264,88,52139,1,4
264,88,52806,5,4
264,88,52973,1,4
264,88,53139,1,4
336,88,53473,5,0
408,88,53806,1,4
408,160,54140,1,4
408,232,54473,6,0,B|304:232,1,70
264,232,55139,1,0
192,232,55473,1,2
120,232,55806,1,0
120,232,56139,2,2,B|120:152,1,70
120,88,56806,1,4
256,88,57473,5,2
256,224,58139,1,4
256,256,58306,1,4
256,288,58473,1,4
256,192,58806,12,4,61473
144,88,61806,6,4,B|320:88,1,140
288,160,62806,1,4
288,160,63139,1,4
288,232,63473,2,0,B|288:312,1,70
288,302,64139,1,4
288,302,64306,1,4
288,302,64473,1,4
360,304,64806,5,4
360,160,65473,1,8
216,160,66139,1,4
72,160,67139,6,0,B|72:240,1,70
72,296,67806,1,4
144,296,68139,1,4
216,296,68473,1,4
288,296,68806,2,0,B|376:296,1,70
424,296,69473,2,0,B|424:200,1,70
424,152,70139,1,4
280,152,70806,5,4
136,152,71473,1,4
136,288,72139,1,4
208,288,72473,6,0,B|272:288,2,35
280,288,73139,2,4,B|376:288,1,70
416,288,73806,1,4
416,216,74139,1,0
416,144,74473,1,0
416,72,74806,1,4
416,72,74973,1,4
416,72,75139,1,4
344,72,75473,5,4
200,72,76139,1,8
344,72,76806,1,4
200,72,77473,1,4
200,144,77806,6,0,B|200:224,1,70
200,280,78473,2,0,B|272:280,1,70
336,280,79140,2,0,B|336:200,1,70
336,139,79806,2,4,B|336:59,1,70
216,136,80806,5,4
216,272,81473,1,4
128,160,82140,1,4
48,48,82806,1,4
256,192,83140,12,4,85140
56,48,106806,5,0
56,120,107140,2,0,B|56:200,1,70
56,256,107806,1,0
56,328,108140,1,0
128,328,108473,2,0,B|272:328,1,140
336,328,109473,1,4
336,328,109806,1,4
336,120,110806,5,8
184,120,111473,1,4
152,120,111640,1,4
120,120,111806,1,4
120,192,112140,6,0,B|120:272,1,70
192,264,112806,1,4
264,264,113140,1,0
336,264,113473,1,4
408,264,113806,1,0
408,192,114140,2,0,B|408:120,1,70
408,48,114806,1,4
264,48,115473,5,4
120,48,116140,1,4
120,184,116806,1,4
120,216,116973,1,4
120,248,117140,1,4
120,320,117473,6,0,B|216:280,1,70
248,264,118140,1,0
312,232,118473,1,0
368,192,118806,2,0,B|368:120,2,70
368,264,119806,1,4
368,264,120140,1,4
368,264,120473,1,4
296,264,120806,2,4,B|128:264,1,140
104,136,122140,5,4
104,136,122306,1,4
104,136,122473,1,4
176,128,122806,5,0
176,128,123140,1,0
176,200,123473,2,0,B|328:200,1,140
384,200,124473,1,4
456,200,124806,1,4
312,232,125473,5,0
168,232,126140,1,4
168,88,126806,1,0
304,88,127473,1,4
304,88,127640,1,4
304,88,127806,1,4
256,192,128140,12,4,129140
56,336,129473,6,0,B|168:240,1,140
216,200,130473,1,4
272,160,130806,1,4
216,288,131473,5,0
352,288,132140,1,8
352,147,132806,1,4
352,107,132973,1,4
352,75,133140,1,4
256,192,133473,12,4,134473
288,208,134806,5,0
288,208,135140,1,0
288,208,135473,1,0
288,208,135806,2,4,B|144:208,1,140
80,208,136806,5,0
80,344,137473,1,0
216,344,138140,1,4
216,344,138306,1,4
216,344,138473,1,4
256,192,138806,12,0,139806
48,40,140140,5,0
120,40,140473,1,0
192,40,140806,2,0,B|360:40,1,140
400,40,141806,1,4
472,40,142140,5,8
472,176,142806,1,0
472,312,143473,1,4
440,312,143640,1,4
408,312,143806,1,4
256,192,144140,12,4,146806
96,296,147140,6,0,B|136:296,2,35
96,224,147806,1,4
96,152,148140,1,4
96,80,148473,1,0
168,80,148806,1,0
240,80,149140,1,8
312,80,149473,1,4
344,80,149640,1,4
376,80,149806,1,4
376,152,150140,5,4
376,152,150306,1,4
376,152,150473,1,4
376,224,150806,5,4
376,224,150973,1,4
376,224,151140,1,4
376,296,151473,5,4
376,296,151640,1,4
376,296,151806,1,4
256,216,152473,6,0,B|168:216,1,70
112,216,153140,2,0,B|112:48,1,140
184,72,154140,1,4
320,72,154806,1,4
456,72,155473,1,4
352,168,156140,5,4
352,168,156306,1,0
248,168,156806,5,4
248,168,156973,1,0
160,320,157806,6,0,B|320:320,1,140
368,320,158806,1,8
368,248,159139,1,8
368,176,159473,1,8
368,104,159806,1,0
368,104,160139,1,4
368,104,160306,1,4
368,104,160473,1,4
296,104,160806,5,4
296,104,160973,1,0
296,208,161473,5,4
296,208,161639,1,0
192,208,162139,5,4
192,208,162306,1,0
368,208,163139,5,0
368,280,163473,1,0
368,208,163806,1,0
368,136,164139,1,0
368,64,164473,1,0
368,64,164806,2,8,B|280:64,1,70
224,64,165473,5,4
152,184,166139,1,4
152,320,166806,1,8
288,320,167473,1,4
256,192,167806,12,4,170806
