osu file format v14

[General]
AudioFilename: Flight of the Bumblebee - Nikolai Rimski-Korsakow [Piano Tutorial] (Synthesia).mp3
AudioLeadIn: 0
PreviewTime: 68910
Countdown: 0
SampleSet: Soft
StackLeniency: 0.7
Mode: 0
LetterboxInBreaks: 0
WidescreenStoryboard: 1

[Editor]
Bookmarks: 17780,58165
DistanceSpacing: 0.5
BeatDivisor: 4
GridSize: 4
TimelineZoom: 2.3

[Metadata]
Title:Flight of the Bumblebee
TitleUnicode:Flight of the Bumblebee
Artist:Nikolai Rimsky-Korsakov
ArtistUnicode:Nikolai Rimsky-Korsakov
Creator:Tarrasky
Version:Prestissimo
Source:
Tags:classical music piano
BeatmapID:847331
BeatmapSetID:388003

[Difficulty]
HPDrainRate:6
CircleSize:4
OverallDifficulty:8
ApproachRate:9
SliderMultiplier:1.8
SliderTickRate:1

[Events]
//Background and Video events
0,0,"sheet-music-8357-1366x768.jpg",0,0
//Break Periods
//Storyboard Layer 0 (Background)
//Storyboard Layer 1 (Fail)
//Storyboard Layer 2 (Pass)
//Storyboard Layer 3 (Foreground)
//Storyboard Sound Samples

[TimingPoints]
5593,288.461538461538,4,2,0,40,1,0
6746,-100,4,2,0,30,0,0
7900,-100,4,2,0,20,0,0
13669,-100,4,2,0,30,0,0
20588,-100,4,2,0,20,0,0
21165,-100,4,2,0,30,0,0
22031,-100,4,2,0,40,0,0
22320,-100,4,2,0,30,0,0
22609,-100,4,2,0,40,0,0
22898,-100,4,2,0,20,0,0
23475,-100,4,2,0,30,0,0
24053,-100,4,2,0,20,0,0
24630,-100,4,2,0,40,0,0
25208,-100,4,2,0,20,0,0
25785,-100,4,2,0,30,0,0
26362,-100,4,2,0,20,0,0
27516,-100,4,2,0,15,0,0
37323,-100,4,2,0,20,0,0
39054,-100,4,2,0,15,0,0
43669,-100,4,2,0,20,0,0
48862,-100,4,2,0,30,0,0
49439,-100,4,2,0,20,0,0
50016,-100,4,2,0,25,0,0
50592,-100,4,2,0,20,0,0
51169,-100,4,2,0,30,0,0
51458,-100,4,2,0,40,0,0
51746,-100,4,2,0,50,0,0
51891,-100,4,2,0,45,0,0
52035,-100,4,2,0,50,0,0
52179,-100,4,2,0,45,0,0
52323,-100,4,2,0,35,0,0
52467,-100,4,2,0,45,0,0
52612,-100,4,2,0,50,0,0
52756,-100,4,2,0,45,0,0
52900,-100,4,2,0,20,0,0
53477,-100,4,2,0,30,0,0
54054,-100,4,2,0,25,0,0
54631,-100,4,2,0,35,0,0
55208,-100,4,2,0,25,0,0
55496,-100,4,2,0,35,0,0
57516,-100,4,2,0,30,0,0
60977,-100,4,2,0,20,0,0
63285,-100,4,2,0,15,0,0
69054,-100,4,2,0,35,0,0
73669,-100,4,2,0,40,0,0
78285,-100,4,2,0,50,0,0
87516,-100,4,2,0,30,0,0
88381,-100,4,2,0,40,0,0
88669,-100,4,2,0,30,0,0
88958,-100,4,2,0,40,0,0
89246,-100,4,2,0,50,0,0
89823,-100,4,2,0,60,0,0
90112,-100,4,2,0,20,0,0
90400,-100,4,2,0,22,0,0
90689,-100,4,2,0,25,0,0
90977,-100,4,2,0,27,0,0
92131,-100,4,2,0,20,0,0

[Colours]
Combo1 : 128,128,128
Combo2 : 192,192,192

[HitObjects]
64,168,5592,6,0,L|116:172,3,45,2|0|0|0,0:0|0:0|0:0|0:0,0:0:0:0:
152,160,5881,2,0,L|204:164,3,45
204,208,6169,5,0,0:0:0:0:
208,224,6242,1,0,0:0:0:0:
212,240,6314,1,0,0:0:0:0:
216,256,6386,1,0,0:0:0:0:
220,272,6458,1,0,0:0:0:0:
224,288,6530,1,0,0:0:0:0:
228,304,6602,1,0,0:0:0:0:
232,320,6674,1,0,0:0:0:0:
236,336,6746,6,0,L|280:338,3,45,2|0|0|0,0:0|0:0|0:0|0:0,0:0:0:0:
324,324,7035,2,0,L|368:326,3,45
376,284,7323,5,0,0:0:0:0:
372,240,7395,1,0,0:0:0:0:
380,196,7467,2,0,P|385:174|400:157,1,45
460,64,7612,1,0,0:0:0:0:
416,76,7684,1,0,0:0:0:0:
372,84,7756,2,0,L|312:84,1,45
216,80,7900,5,0,0:0:0:0:
212,88,7972,1,0,0:0:0:0:
212,96,8044,1,0,0:0:0:0:
212,104,8117,1,0,0:0:0:0:
216,112,8189,2,0,L|260:106,3,45
264,192,8477,5,0,0:0:0:0:
268,200,8549,1,0,0:0:0:0:
268,208,8621,1,0,0:0:0:0:
268,216,8694,1,0,0:0:0:0:
264,224,8766,2,0,L|219:218,3,45
132,248,9054,5,2,0:0:0:0:
128,256,9126,1,0,0:0:0:0:
128,264,9198,1,0,0:0:0:0:
128,272,9270,1,0,0:0:0:0:
132,280,9342,1,0,0:0:0:0:
136,288,9415,2,0,L|184:280,1,45
324,328,9631,5,2,0:0:0:0:
328,320,9703,1,0,0:0:0:0:
332,312,9775,1,0,0:0:0:0:
332,304,9847,1,0,0:0:0:0:
332,296,9919,2,0,L|324:240,1,45,2|0,0:0|0:0,0:0:0:0:
308,172,10064,2,0,L|300:116,1,45
376,124,10208,5,2,0:0:0:0:
384,124,10280,1,0,0:0:0:0:
392,124,10352,1,0,0:0:0:0:
400,124,10424,1,0,0:0:0:0:
408,124,10496,1,0,0:0:0:0:
416,124,10568,2,0,L|416:176,1,45
480,284,10785,5,2,0:0:0:0:
476,292,10857,1,0,0:0:0:0:
468,296,10929,1,0,0:0:0:0:
460,300,11001,1,0,0:0:0:0:
452,300,11073,2,0,L|400:292,3,45,2|0|0|0,0:0|0:0|0:0|0:0,0:0:0:0:
372,296,11362,6,0,L|308:312,3,45,2|0|0|0,0:0|0:0|0:0|0:0,0:0:0:0:
308,336,11650,2,0,L|248:307,3,45,2|0|0|0,0:0|0:0|0:0|0:0,0:0:0:0:
232,324,11939,6,0,L|205:263,3,45,2|0|0|0,0:0|0:0|0:0|0:0,0:0:0:0:
180,268,12227,2,0,L|198:204,3,45,2|0|0|0,0:0|0:0|0:0|0:0,0:0:0:0:
268,228,12516,6,0,L|284:164,3,45,2|0|0|0,0:0|0:0|0:0|0:0,0:0:0:0:
308,164,12804,2,0,L|279:104,3,45,2|0|0|0,0:0|0:0|0:0|0:0,0:0:0:0:
296,88,13093,6,0,L|235:61,3,45,2|0|0|0,0:0|0:0|0:0|0:0,0:0:0:0:
240,36,13381,2,0,L|176:54,3,45,2|0|0|0,0:0|0:0|0:0|0:0,0:0:0:0:
132,92,13669,5,2,0:0:0:0:
128,116,13742,1,0,0:0:0:0:
124,140,13814,1,0,0:0:0:0:
120,164,13886,1,0,0:0:0:0:
116,188,13958,1,2,0:0:0:0:
112,208,14030,2,0,L|192:200,1,45
216,272,14246,5,2,0:0:0:0:
236,276,14318,1,0,0:0:0:0:
260,276,14391,1,0,0:0:0:0:
280,272,14463,1,0,0:0:0:0:
300,264,14535,2,0,L|300:204,2,45,2|0|0,0:0|0:0|0:0,0:0:0:0:
344,136,14823,5,2,0:0:0:0:
364,128,14895,1,0,0:0:0:0:
388,124,14967,1,0,0:0:0:0:
412,128,15040,1,0,0:0:0:0:
432,140,15112,1,0,0:0:0:0:
448,156,15184,2,0,L|448:212,1,45
484,292,15400,5,2,0:0:0:0:
464,296,15472,1,0,0:0:0:0:
444,300,15544,1,0,0:0:0:0:
420,304,15617,1,0,0:0:0:0:
400,308,15689,2,0,L|393:263,1,45,2|0,0:0|0:0,0:0:0:0:
350,180,15833,2,0,L|344:136,1,45
288,72,15977,5,2,0:0:0:0:
264,68,16049,1,0,0:0:0:0:
240,68,16121,1,0,0:0:0:0:
220,72,16193,1,0,0:0:0:0:
196,76,16266,1,2,0:0:0:0:
176,80,16338,1,0,0:0:0:0:
152,80,16410,1,0,0:0:0:0:
128,76,16482,1,0,0:0:0:0:
108,68,16554,6,0,L|105:112,3,45,2|0|0|0,0:0|0:0|0:0|0:0,0:0:0:0:
104,148,16842,2,0,L|106:192,3,45,2|0|0|0,0:0|0:0|0:0|0:0,0:0:0:0:
160,268,17131,5,2,0:0:0:0:
188,272,17203,1,0,0:0:0:0:
216,272,17275,1,0,0:0:0:0:
244,264,17347,1,0,0:0:0:0:
268,252,17419,2,0,L|272:148,1,90,2|0,0:0|0:0,0:0:0:0:
316,80,17708,1,2,0:0:0:0:
340,72,17780,1,0,0:0:0:0:
368,68,17852,1,0,0:0:0:0:
396,68,17924,1,0,0:0:0:0:
420,76,17996,1,2,0:0:0:0:
444,88,18068,1,0,0:0:0:0:
460,112,18141,1,0,0:0:0:0:
468,136,18213,1,0,0:0:0:0:
468,164,18285,6,0,L|464:264,1,90,2|0,0:0|0:0,0:0:0:0:
448,260,18501,1,0,0:0:0:0:
432,264,18573,1,0,0:0:0:0:
416,268,18645,1,0,0:0:0:0:
400,272,18717,1,0,0:0:0:0:
384,276,18790,1,0,0:0:0:0:
367,280,18862,6,0,P|323:285|278:279,1,90,0|2,0:0|0:0,0:0:0:0:
260,156,19150,2,0,P|304:150|349:156,1,90,0|2,0:0|0:0,0:0:0:0:
176,196,19439,6,0,P|172:173|171:151,7,45
180,108,20016,6,0,L|201:68,1,45
280,76,20160,2,0,L|301:36,1,45,2|0,0:0|0:0,0:0:0:0:
383,39,20304,2,0,P|387:62|388:84,1,45
376,160,20448,2,0,P|376:182|380:204,1,45,2|0,0:0|0:0,0:0:0:0:
428,288,20592,2,0,L|383:293,3,45
344,288,20881,2,0,L|299:293,3,45
256,288,21169,5,0,0:0:0:0:
164,221,21314,1,2,0:0:0:0:
199,114,21458,1,2,0:0:0:0:
312,114,21603,1,2,0:0:0:0:
347,221,21746,6,0,L|344:276,3,45
312,284,22035,1,2,0:0:0:0:
276,292,22107,1,0,0:0:0:0:
240,292,22179,1,0,0:0:0:0:
204,284,22251,1,0,0:0:0:0:
172,268,22323,6,0,L|88:280,3,45
92,268,22612,1,2,0:0:0:0:
84,232,22684,1,0,0:0:0:0:
80,196,22756,1,0,0:0:0:0:
84,160,22828,1,0,0:0:0:0:
92,124,22900,6,0,L|136:126,3,45
164,120,23189,2,0,L|208:122,3,45
232,112,23477,5,0,0:0:0:0:
376,80,23621,1,2,0:0:0:0:
268,188,23766,1,0,0:0:0:0:
412,156,23910,1,2,0:0:0:0:
328,264,24054,5,0,0:0:0:0:
324,272,24126,1,0,0:0:0:0:
320,280,24198,1,0,0:0:0:0:
316,288,24270,1,0,0:0:0:0:
312,296,24342,1,0,0:0:0:0:
308,304,24415,1,0,0:0:0:0:
304,312,24487,1,0,0:0:0:0:
300,320,24559,1,0,0:0:0:0:
296,328,24631,6,0,L|251:323,1,45
196,252,24775,2,0,L|151:247,1,45,2|0,0:0|0:0,0:0:0:0:
128,160,24919,2,0,L|83:155,1,45
72,68,25063,2,0,L|27:63,1,45,2|0,0:0|0:0,0:0:0:0:
156,76,25208,6,0,L|200:79,3,45,2|0|0|0,0:0|0:0|0:0|0:0,0:0:0:0:
232,84,25496,2,0,L|276:80,3,45,2|0|0|0,0:0|0:0|0:0|0:0,0:0:0:0:
304,64,25785,6,0,B|349:55|349:55|393:58,1,90,0|2,0:0|0:0,0:0:0:0:
456,220,26073,2,0,B|453:175|453:175|461:130,1,90,2|2,0:0|0:0,0:0:0:0:
364,184,26362,5,2,0:0:0:0:
356,204,26434,1,0,0:0:0:0:
356,228,26506,1,0,0:0:0:0:
360,252,26578,1,0,0:0:0:0:
368,272,26650,2,0,L|364:340,3,45,2|0|0|0,0:0|0:0|0:0|0:0,0:0:0:0:
340,336,26939,5,0,0:0:0:0:
316,340,27011,1,0,0:0:0:0:
292,336,27083,1,0,0:0:0:0:
268,332,27155,1,0,0:0:0:0:
248,324,27227,2,0,L|180:328,3,45,2|0|0|0,0:0|0:0|0:0|0:0,0:0:0:0:
188,312,27516,5,2,0:0:0:0:
184,292,27588,1,0,0:0:0:0:
180,272,27660,1,0,0:0:0:0:
176,252,27732,1,0,0:0:0:0:
172,232,27804,1,0,0:0:0:0:
168,212,27876,2,0,L|180:140,1,45
272,116,28092,5,2,0:0:0:0:
292,108,28165,1,0,0:0:0:0:
316,108,28237,1,0,0:0:0:0:
336,116,28309,1,0,0:0:0:0:
356,124,28381,1,2,0:0:0:0:
376,132,28453,1,0,0:0:0:0:
400,132,28525,1,0,0:0:0:0:
420,124,28598,1,0,0:0:0:0:
432,104,28669,6,0,L|426:193,1,90,2|0,0:0|0:0,0:0:0:0:
340,328,28958,2,0,L|334:238,1,90,2|0,0:0|0:0,0:0:0:0:
252,176,29246,5,2,0:0:0:0:
228,172,29318,1,0,0:0:0:0:
204,172,29391,1,0,0:0:0:0:
180,176,29463,1,0,0:0:0:0:
160,180,29535,1,2,0:0:0:0:
140,188,29607,1,0,0:0:0:0:
120,200,29679,1,0,0:0:0:0:
104,212,29751,1,0,0:0:0:0:
88,228,29823,5,2,0:0:0:0:
340,327,30112,2,0,P|394:258|395:169,1,180,2|0,0:0|0:0,0:0:0:0:
252,176,30544,5,0,0:0:0:0:
348,96,30689,2,0,B|391:86|391:86|436:87,1,90,2|0,0:0|0:0,0:0:0:0:
240,52,30977,6,0,B|196:61|196:61|151:60,1,90,2|0,0:0|0:0,0:0:0:0:
88,228,31266,1,2,0:0:0:0:
112,128,31410,1,0,0:0:0:0:
264,256,31554,5,2,0:0:0:0:
165,285,31698,1,0,0:0:0:0:
212,92,31842,1,2,0:0:0:0:
286,162,31986,1,2,0:0:0:0:
368,32,32131,6,0,P|379:75|378:120,1,90,2|0,0:0|0:0,0:0:0:0:
404,292,32419,1,2,0:0:0:0:
308,344,32564,1,0,0:0:0:0:
312,240,32708,5,2,0:0:0:0:
200,240,32852,1,0,0:0:0:0:
204,344,32996,1,2,0:0:0:0:
108,292,33141,1,2,0:0:0:0:
