osu file format v14

[General]
AudioFilename: Niko - Pilot Is The Hero.mp3
AudioLeadIn: 0
PreviewTime: 39068
Countdown: 0
SampleSet: Soft
StackLeniency: 0.7
Mode: 0
LetterboxInBreaks: 1
WidescreenStoryboard: 0

[Editor]
DistanceSpacing: 1
BeatDivisor: 2
GridSize: 4
TimelineZoom: 1.399999

[Metadata]
Title:Pilot Is The Hero
TitleUnicode:Pilot Is The Hero
Artist:Niko
ArtistUnicode:Niko
Creator:Ni-ma
Version:Standard
Source:
Tags:niko eurobeat pilot is the hero ni-ma nima
BeatmapID:856914
BeatmapSetID:393339

[Difficulty]
HPDrainRate:4
CircleSize:4
OverallDifficulty:4
ApproachRate:6
SliderMultiplier:1.4
SliderTickRate:1

[Events]
//Background and Video events
0,0,"41125281_p0.jpg",0,0
//Break Periods
//Storyboard Layer 0 (Background)
//Storyboard Layer 1 (Fail)
//Storyboard Layer 2 (Pass)
//Storyboard Layer 3 (Foreground)
//Storyboard Sound Samples

[TimingPoints]
92,374.770453097478,4,2,0,75,1,0
3090,-100,4,2,0,80,0,0
15082,-100,4,2,0,60,0,0
27450,-100,4,2,0,70,0,0
39068,-100,4,2,0,80,0,1
63053,-100,4,2,0,20,0,0

[HitObjects]
128,184,3090,6,2,P|192:104|280:104,1,140
364,120,3839,2,2,P|324:208|244:208,1,140
172,140,4589,2,2,P|188:241|254:296,1,140
340,320,5338,2,2,P|324:219|259:157,1,140
192,104,6088,6,2,L|288:192,2,70
312,176,6837,2,2,L|440:176,2,70
400,64,7587,1,8,0:0:0:0:
260,44,7962,1,8,0:0:0:0:
140,112,8336,2,2,L|260:48,2,70
232,220,9086,6,2,B|232:164|232:164|296:140|296:140|304:68,1,140
352,252,9836,2,2,B|352:308|352:308|288:332|288:332|280:404,1,140
156,300,10585,2,2,B|141:299|141:299|117:235|117:235|61:235,1,140
200,228,11335,2,2,B|216:230|216:230|240:294|240:294|296:294,1,140
432,264,12084,6,2,L|496:368,2,70
432,124,12834,2,2,L|504:12,2,70
256,192,13583,12,4,14708,0:0:0:0:
84,192,15082,6,2,B|152:184|152:184|192:256,1,140
288,152,15832,1,8,0:0:0:0:
172,76,16207,1,8,0:0:0:0:
168,216,16581,6,2,B|160:284|160:284|232:324,1,140
356,276,17331,1,8,0:0:0:0:
288,152,17706,1,8,0:0:0:0:
168,216,18080,6,2,L|-16:144,1,140
157,102,18830,2,2,L|325:166,1,140
328,208,19392,2,2,P|300:268|188:340,2,140
328,208,20329,1,2,0:0:0:0:
192,176,20704,5,8,0:0:0:0:
152,312,21079,5,8,0:0:0:0:
288,336,21453,1,8,0:0:0:0:
408,264,21828,2,2,B|388:208|388:208|272:196,1,140
196,284,22578,5,8,0:0:0:0:
88,196,22952,1,8,0:0:0:0:
224,160,23327,2,2,B|244:104|244:104|360:92,1,140
452,156,24077,6,2,B|400:216|400:216|372:340,1,140
284,180,24826,2,2,B|272:233|272:233|216:297,1,140
160,256,25389,2,2,L|56:140,2,140
160,256,26325,1,2,0:0:0:0:
300,256,26700,5,8,0:0:0:0:
184,176,27075,5,8,0:0:0:0:
68,96,27450,6,2,B|102:51|102:51|190:92,2,140
112,156,28387,2,2,B|45:211|210:294|132:342,1,210
248,256,29324,2,2,B|292:178|377:348|444:269,1,210
424,212,30073,2,2,L|418:142,2,70
340,100,30823,2,2,L|334:169,2,70
268,220,31572,6,2,P|144:249|108:128,2,280
408,208,33446,6,2,B|491:201|491:201|499:145,2,140
388,140,34383,2,2,B|333:73|250:238|202:160,1,210
92,84,35320,2,2,B|14:128|184:213|105:280,1,210
180,296,36069,2,2,L|185:365,2,70
296,372,36819,2,2,L|301:302,2,70
304,232,37569,6,6,B|312:148|312:148|364:136|364:136|376:32,2,210
176,284,39068,6,2,B|177:278|177:278|109:323|109:323|64:295,1,140
148,184,39817,2,2,B|146:189|146:189|213:144|213:144|258:173,1,140
328,296,40567,2,2,L|382:379,2,70
468,276,41316,2,2,B|473:276|473:276|428:208|428:208|456:163,1,140
344,76,42066,5,8,0:0:0:0:
208,48,42441,1,8,0:0:0:0:
88,120,42815,1,8,0:0:0:0:
224,156,43190,1,8,0:0:0:0:
288,280,43565,1,8,0:0:0:0:
152,248,43940,1,8,0:0:0:0:
288,280,44314,2,2,L|428:280,1,140
336,176,45064,6,2,B|270:171|221:218|221:218|250:277,1,140
360,276,45813,2,2,B|426:281|475:233|475:233|446:175,1,140
336,176,46563,2,2,L|208:120,3,140
104,24,48062,6,2,L|120:168,1,140
12,252,48812,2,2,L|27:112,1,140
88,240,49561,2,6,B|200:304|200:304|224:128|224:128|344:192,1,420
444,252,51060,6,2,B|400:224|400:224|335:268|335:268|346:208,1,140
204,308,51810,2,2,B|160:336|160:336|94:292|94:292|105:352,1,140
196,204,52559,2,2,L|160:143,2,70
328,248,53309,2,2,B|370:222|370:222|434:264|434:264|424:206,1,140
420,112,54058,5,8,0:0:0:0:
280,108,54433,1,8,0:0:0:0:
140,104,54808,1,8,0:0:0:0:
216,220,55183,1,8,0:0:0:0:
356,224,55558,1,8,0:0:0:0:
272,336,55932,1,8,0:0:0:0:
356,224,56307,2,2,L|356:84,1,140
268,196,57057,6,2,B|271:203|271:203|220:253|152:247,1,140
188,112,57806,2,2,B|120:106|68:155|68:155|99:216,1,140
56,300,58556,2,2,P|100:352|184:356,3,140
148,224,60055,6,2,L|132:80,1,140
256,16,60804,2,2,L|240:155,1,140
248,224,61366,2,2,B|264:286|344:278|344:278|400:222|344:158|408:126|408:126|472:86|512:158,1,420
308,108,63053,5,6,0:0:0:0:
256,192,63428,12,4,64552,0:0:0:0:
